osu file format v5

[General]
AudioFilename: Mami Kawada - Hishoku no Sora.mp3
AudioLeadIn: 0
PreviewTime: -1
Countdown: 1
SampleSet: Normal
StackLeniency: 0.7
Mode: 0
LetterboxInBreaks: 1

[Metadata]
Title:Hishoku no Sora
Artist:Mami Kawada
Creator:kioukiou
Version:Easy
Source:
Tags:

[Difficulty]
HPDrainRate:4
CircleSize:3
OverallDifficulty:4
SliderMultiplier:1.4
SliderTickRate:4

[Events]
//Background and Video events
0,0,"Syana_1.jpg"
//Break Periods
2,18064,28203
//Storyboard Layer 0 (Background)
//Storyboard Layer 1 (Failing)
//Storyboard Layer 2 (Passing)
//Storyboard Layer 3 (Foreground)
//Storyboard Sound Samples
//Background Colour Transformations
3,100,163,162,255

[TimingPoints]
488,710.059171597633,4,1,0,100,1

[HitObjects]
256,280,6168,1,0
256,208,6523,1,0
320,168,6878,2,2,B|288:127|222:127|192:168,1,140
352,304,8653,2,0,B|400:256|360:144,1,140
296,168,9718,2,0,B|216:232|280:312,2,140
304,40,11848,6,2,B|392:40,2,70
232,40,12914,1,0
136,144,13624,2,0,B|192:224|264:168,1,140
384,296,15044,6,0,B|296:296,1,70
240,296,15754,1,0
168,296,16109,1,0
120,232,16464,2,2,B|88:144|184:88,2,140
256,192,29422,5,0
184,192,29777,2,0,B|136:136|192:88,1,105
248,72,30665,1,0
312,80,31020,2,0,B|392:104|472:56,1,140
312,184,32263,6,2,B|352:160|408:160|432:208,1,105
400,248,33150,1,0
336,280,33505,1,0
264,296,33860,2,0,B|168:336|152:264,1,105
160,224,34748,2,0,B|160:160,3,35
480,328,37056,5,0
360,248,37766,1,0
288,248,38121,2,0,B|200:312|144:240,3,140
160,120,40961,6,0,B|208:80|256:80|288:136,1,140
224,160,42026,1,0
168,200,42381,2,0,B|213:254|272:224,1,105
384,104,43801,1,0
376,240,44511,1,0
304,240,44866,1,0
240,216,45221,2,0,B|152:184|160:144,1,105
256,192,46109,12,0,47351
96,336,48416,5,0
240,336,49127,1,0
288,280,49482,2,0,B|336:232|320:192,1,70
216,160,50547,1,0
144,160,50902,2,0,B|48:160,1,70
136,272,51967,6,2,B|201:307|272:264,1,140
248,200,53032,2,2,B|312:160|384:200,1,140
448,320,54452,1,0
448,248,54807,1,0
448,176,55162,2,0,B|448:96,1,70
376,96,55872,2,0,B|284:19|184:104,1,210
128,144,57292,6,0,B|64:200,1,70
120,240,58002,2,0,B|184:184,1,70
400,272,59777,2,0,B|440:248|416:184,1,70
360,208,60487,1,0
288,208,60843,1,0
216,208,61198,1,0
144,208,61553,2,0,B|88:200|56:104,1,140
192,72,62973,6,0,B|152:72,2,35
264,72,63683,1,0
264,144,64038,1,0
192,152,64393,2,0,B|134:208|176:280,1,140
240,312,65458,1,0
312,312,65813,1,0
312,240,66168,1,0
312,168,66523,2,2,B|272:96|376:24,1,140
416,48,67588,2,0,B|416:104,1,35
240,72,68653,6,0,B|162:-3|104:96,2,140
248,208,70783,1,0
104,208,71493,1,0
96,344,72203,2,2,B|160:384|240:344,2,140
200,248,74334,6,0,B|256:192,1,70
304,240,75044,2,0,B|248:296,1,70
96,144,76819,2,2,B|112:104|152:64|224:80,1,140
216,144,77884,2,2,B|264:208|344:152,1,140
408,144,78949,2,0,B|408:200,1,35
288,256,80014,6,0,B|240:304|168:232,2,105
168,176,81789,2,0,B|200:120|296:128,1,140
424,96,83209,1,0
424,232,83919,1,0
280,232,84630,1,0
152,176,85340,6,0,B|152:104|248:72,1,140
304,72,86405,1,0
304,144,86760,1,0
248,192,87115,2,2,B|153:232|147:296|344:352,1,280,0|0
