osu file format v7

[General]
AudioFilename: Mami Kawada - Hishoku no Sora.mp3
AudioLeadIn: 2007
PreviewTime: 62149
Countdown: 0
SampleSet: Soft
StackLeniency: 0.7
Mode: 0
LetterboxInBreaks: 1

[Editor]
DistanceSpacing: 0.800000011920929
BeatDivisor: 4
GridSize: 8

[Metadata]
Title:Hishoku no Sora (TV Size)
Artist:Mami Kawada
Creator:osuplayer111
Version:Hard
Source:Shakugan no Shana OP
Tags:Anime H1ko orioncomet FuukoLover xxheroxx Kytoxid

[Difficulty]
HPDrainRate:7
CircleSize:5
OverallDifficulty:7
SliderMultiplier:1.8
SliderTickRate:0.5

[Events]
//Background and Video events
0,0,"hard.jpg"
Video,350,"Shakugan.avi"
//Break Periods
//Storyboard Layer 0 (Background)
//Storyboard Layer 1 (Fail)
//Storyboard Layer 2 (Pass)
//Storyboard Layer 3 (Foreground)
//Storyboard Sound Samples
Sample,11735,3,"soft-hitfinish.wav",100
Sample,14930,3,"soft-hitclap.wav",100
Sample,15995,3,"soft-hitclap.wav",100
Sample,16350,3,"soft-hitclap.wav",100
Sample,16705,3,"soft-hitclap.wav",100
Sample,57179,3,"soft-hitfinish.wav",100
Sample,68540,3,"soft-hitfinish.wav",100
Sample,79901,3,"soft-hitfinish.wav",100
//Background Colour Transformations
3,100,163,162,255

[TimingPoints]
375,355.029585798817,4,2,1,100,1,0
4990,1065.71936056838,4,2,1,100,1,0
5256,-100,4,2,1,0,0,0
6055,355.029585798817,4,2,1,100,1,0
14486,-200,4,2,1,100,0,0
16794,-200,4,2,1,0,0,0
16972,-100,4,2,1,100,0,0
27268,-100,4,1,1,76,0,0
27978,-100,4,2,1,100,0,0
34634,-100,4,1,1,76,0,0
40137,-100,4,2,1,100,0,0
45552,-200,4,2,1,100,0,0
47238,-100,4,2,1,100,0,0
48836,-100,4,1,1,76,0,0
51498,-100,4,2,1,100,0,0
51676,-100,4,1,1,76,0,0
52741,-100,4,2,1,100,0,0
52918,-100,4,1,1,76,0,0
54339,-100,4,2,1,100,0,0
54516,-100,4,1,1,76,0,0
55581,-100,4,2,1,100,0,0
55759,-100,4,1,1,76,0,0
62859,-100,4,2,1,100,0,1
62948,-100,4,1,1,76,0,1
69782,-100,4,2,1,100,0,1
69960,-100,4,1,1,76,0,1
71380,-100,4,2,1,100,0,1
71557,-100,4,1,1,76,0,1
72623,-100,4,2,1,100,0,1
72800,-100,4,1,1,76,0,1
73155,-100,4,1,1,76,0,0
73688,-100,4,2,1,100,0,0
73865,-100,4,1,1,76,0,0
74220,-100,4,2,1,100,0,1
74398,-100,4,1,1,76,0,1
81143,-100,4,2,1,100,0,1
81321,-100,4,1,1,76,0,1
82741,-100,4,2,1,100,0,1
82918,-100,4,1,1,76,0,1
83983,-100,4,2,1,100,0,1
84161,-100,4,1,1,76,0,1
85049,-100,4,2,1,100,0,1
85226,-100,4,1,1,76,0,1
90907,-100,4,2,1,0,0,0

[Colours]
Combo1 : 128,0,255
Combo2 : 0,128,192
Combo3 : 248,68,7
Combo4 : 0,128,64

[HitObjects]
256,192,374,1,4
256,336,730,1,2
112,336,1085,1,8
8,232,1440,1,2
8,152,1617,1,0
96,40,1972,1,0
136,104,2150,1,2
168,40,2327,2,0,B|272:40,1,90,0|8
352,104,2682,2,0,B|256:104,1,90,0|2
200,144,3037,1,0
136,104,3215,5,4
136,248,3570,1,2
256,336,3925,1,8
368,248,4280,1,2
368,248,4457,1,0
256,152,4812,1,0
256,152,4990,2,0,B|280:120|232:80|272:48,2,90,2|0|4
256,296,6410,5,8
392,336,6765,2,0,B|496:336,2,90,0|0|8
256,296,7475,1,0
200,168,7830,1,8
120,48,8185,2,0,B|24:48,2,90,0|0|8
200,168,8895,1,0
256,296,9250,6,0,B|184:368,1,90,8|0
256,296,9605,2,0,B|328:368,1,90
256,296,9960,2,0,B|256:192,1,90,8|0
256,64,10492,1,0
256,64,10670,1,8
88,272,11025,5,0
40,216,11202,1,0
88,160,11380,1,8
40,104,11557,1,0
88,272,11912,1,0
88,272,12090,1,8
208,192,12445,6,0,B|392:192,1,180,0|8
464,192,12978,1,4
416,56,13333,1,0
344,56,13510,2,0,B|152:56,1,180,8|0
88,56,14043,1,0
88,56,14220,1,8
88,56,14397,1,0
40,120,14575,6,0,B|0:184|16:272|88:288|152:144,1,270,4|8
200,192,15818,2,2,B|160:256|176:344|248:360|312:216,1,270,2|0
303,233,17060,1,8
304,88,17415,5,4
256,32,17592,1,0
256,32,17770,2,0,B|152:32,1,90,8|0
166,32,18126,1,0
40,104,18481,1,2
40,104,18658,1,2
40,104,18836,1,0
128,216,19191,1,8
40,336,19546,6,0,B|224:336,1,180,0|2
288,336,20078,1,2
288,336,20256,1,4
416,264,20611,1,8
416,120,20966,1,0
288,48,21321,1,2
288,48,21498,2,0,B|104:48,1,180,2|0
32,48,22031,1,8
32,192,22386,5,2
32,192,22563,1,2
32,192,22741,1,2
32,192,22918,1,2
32,192,23096,2,0,B|24:288|120:352,1,180,4|8
256,352,23806,1,0
368,256,24161,5,2
368,256,24339,2,0,B|424:168|352:80,1,180,2|0
304,48,24871,2,0,B|200:48,1,90,8|0
152,80,25226,1,0
88,208,25581,1,2
48,264,25759,1,2
88,320,25936,2,0,B|272:320,1,180,4|8
408,320,26646,1,0
472,192,27001,6,0,B|424:104,1,90,2|2
288,32,27356,2,0,B|176:32,1,90,8|0
88,152,27711,2,0,B|40:240,1,90,8|0
168,336,28066,2,0,B|264:336,1,90,2|2
256,176,28421,1,2
256,176,28599,1,2
256,176,28776,5,4
312,224,28954,1,0
376,264,29131,2,0,B|416:296|472:256,1,90
480,192,29486,1,0
456,120,29664,1,0
424,56,29841,2,0,B|343:12|343:12|244:67,1,180
265,55,30374,1,0
120,80,30729,2,0,B|24:80,2,90
176,120,31262,1,0
176,120,31439,5,0
176,192,31617,2,0,B|264:273|344:180,1,180
336,120,32149,1,0
336,120,32327,1,0
256,88,32504,1,0
256,88,32682,2,0,B|256:184,1,90
256,248,33037,5,0
256,248,33214,1,0
328,368,33569,1,0
192,368,33924,1,0
144,320,34102,1,0
96,368,34279,1,0
48,320,34457,1,0
76,191,34812,6,0,B|268:191,1,180,8|0
436,193,35522,2,0,B|244:193,1,180,8|0
256,32,36232,1,8
32,192,36587,1,0
256,352,36942,1,8
480,192,37297,1,0
216,232,37652,5,8
296,232,37830,1,0
296,152,38007,1,0
216,152,38185,1,0
192,256,38362,5,8
312,256,38540,1,0
312,128,38717,1,0
192,128,38895,1,8
168,288,39072,5,8
336,288,39250,1,0
336,96,39428,1,0
168,96,39605,1,0
256,192,39782,5,8
256,192,39960,1,0
184,192,40137,6,0,B|80:192,1,90,4|0
328,192,40492,2,0,B|424:192,1,90
256,128,40847,2,0,B|256:32,1,90
256,192,41202,1,0
256,372,41557,1,0
256,372,41735,2,0,B|256:188,1,180
192,64,42978,5,0
256,32,43155,1,0
320,64,43333,1,0
256,104,43510,2,0,B|256:200,1,90
256,264,43865,1,0
256,264,44043,1,0
144,352,44398,1,0
144,352,44575,1,0
256,264,44930,1,0
376,352,45285,5,0
376,352,45463,1,0
376,352,45640,2,0,B|528:352,3,135
440,224,47593,5,0
352,112,47948,1,0
256,224,48303,1,0
160,112,48658,2,0,B|104:192|176:288,1,180,4|8
240,304,49191,1,0
256,224,49368,2,0,B|256:40,3,180,0|8|0|8
328,48,50611,5,0
464,96,50966,1,8
464,96,51055,1,0
464,96,51143,1,8
464,96,51232,1,0
464,96,51321,1,8
464,96,51498,5,4
416,232,51853,1,8
352,360,52208,1,0
304,304,52386,1,0
256,360,52563,1,8
208,304,52741,2,0,B|104:296|104:160,1,180,4|0
104,104,53273,1,8
224,24,53628,5,0
256,88,53806,1,0
288,24,53983,1,8
256,88,54161,2,0,B|256:192,1,90,0|4
256,320,54694,1,8
184,192,55049,1,0
328,192,55404,1,8
328,192,55581,1,4
256,320,55936,1,0
256,320,56114,1,8
256,64,56469,6,0,B|168:40,1,90
256,64,56824,2,0,B|360:32,1,90,8|0
256,152,57356,1,0
256,152,57534,1,8
256,296,57889,2,0,B|256:352,2,45
208,240,58244,1,8
256,184,58421,1,0
304,240,58599,1,0
216,40,58954,6,0,B|32:40,1,180,8|0
296,344,59664,2,0,B|480:344,1,180,8|0
216,192,60374,5,8
296,192,60552,1,0
184,192,60729,5,0
328,192,60907,1,0
152,192,61084,5,8
360,192,61262,1,0
256,192,61794,5,8
256,48,62149,5,0
256,48,62327,1,0
256,48,62504,1,8
256,48,62593,1,0
256,48,62682,1,0
256,48,62770,1,0
256,48,62859,5,4
216,112,63037,1,0
296,112,63214,1,8
256,176,63392,2,0,B|256:368,1,180
256,356,63924,1,8
400,336,64279,5,0
400,264,64457,1,0
464,296,64634,2,0,B|504:216|504:216|456:112,1,180,8|0
336,72,65344,2,0,B|256:32|256:32|152:80,1,180,8|0
88,192,66055,5,8
88,192,66232,1,0
256,192,66587,1,0
256,192,66765,1,8
256,192,66942,1,0
424,192,67297,1,0
424,192,67475,1,8
256,344,67830,5,0
256,272,68007,1,0
256,112,68185,5,8
256,40,68362,1,0
256,192,68717,5,0
256,192,68895,1,8
408,192,69250,5,0
336,192,69427,1,0
176,192,69605,5,8
104,192,69782,1,4
256,192,70137,5,0
256,192,70315,1,8
256,112,70670,5,0
176,192,70847,1,0
256,272,71025,1,8
336,192,71202,1,0
256,192,71380,1,4
256,192,71735,1,8
176,192,72090,6,0,B|64:192,1,90
336,192,72445,2,0,B|432:192,1,90,8|4
256,192,72978,1,0
256,192,73155,1,8
208,72,73510,6,0,B|152:152,1,90,0|4
304,312,73865,2,0,B|360:232,1,90,8|0
256,192,74220,1,4
40,192,74575,1,8
40,192,74753,1,0
472,192,75108,1,0
472,192,75285,1,8
256,192,75640,1,0
344,32,75995,6,0,B|160:32,1,180,8|0
168,352,76705,2,0,B|352:352,1,180,8|0
348,352,77238,1,0
348,352,77415,1,8
348,352,77593,1,0
348,352,77770,1,0
256,192,78126,1,8
256,192,78303,1,0
256,40,78658,1,0
256,40,78836,1,8
24,192,79191,6,0,B|128:192,1,90
184,192,79546,1,8
256,192,79723,1,0
360,96,80078,1,0
360,96,80256,2,0,B|440:176|360:264,1,180,8|0
256,352,80966,1,8
256,352,81143,1,4
112,352,81498,1,0
112,352,81676,1,8
184,232,82031,5,0
184,160,82208,1,0
256,192,82386,1,8
328,160,82563,1,0
328,232,82741,1,4
256,40,83096,1,8
256,344,83451,1,0
256,192,83806,1,8
256,192,83983,1,4
112,192,84339,6,0,B|16:192,2,90,0|8|0
256,40,85049,1,4
256,40,85226,1,8
256,192,85581,1,0
400,192,85936,2,0,B|496:192,2,90,8|0|0
256,192,86646,1,8
256,344,87001,1,0
256,344,87179,1,0
256,344,87356,1,8
256,104,87711,6,0,B|256:216,1,90
256,192,88421,1,4
256,208,88510,12,0,90907
