osu file format v14

[General]
AudioFilename: Garden.mp3
AudioLeadIn: 2000
PreviewTime: 47709
Countdown: 0
SampleSet: Soft
StackLeniency: 0.7
Mode: 0
LetterboxInBreaks: 0
WidescreenStoryboard: 0

[Editor]
DistanceSpacing: 0.5
BeatDivisor: 4
GridSize: 4
TimelineZoom: 1

[Metadata]
Title:Gardens
TitleUnicode:Gardens
Artist:Mami Kawada
ArtistUnicode:川田まみ
Creator:Mei
Version:Insane
Source:To LOVEる-とらぶる- ダークネス 2nd
Tags:love-ru -trouble- darkness ending I've Karen Frey
BeatmapID:737638
BeatmapSetID:333313

[Difficulty]
HPDrainRate:7
CircleSize:4
OverallDifficulty:7
ApproachRate:8
SliderMultiplier:2
SliderTickRate:1

[Events]
//Background and Video events
Video,600,"hey.flv"
0,0,"bgg.jpg",0,0
//Break Periods
//Storyboard Layer 0 (Background)
//Storyboard Layer 1 (Fail)
//Storyboard Layer 2 (Pass)
//Storyboard Layer 3 (Foreground)
//Storyboard Sound Samples

[TimingPoints]
1184,508.474576271186,4,2,1,60,1,0
1184,-133.333333333333,4,2,1,60,0,0
2709,-100,4,2,1,60,0,0
3217,-100,4,2,2,60,0,0
11353,-100,4,2,1,60,0,0
47963,-90.9090909090909,4,2,1,80,0,1
64107,-90.9090909090909,4,2,1,70,0,0
64234,-90.9090909090909,4,2,1,80,0,1
80506,-100,4,2,1,60,0,0
82539,526.315789473684,4,2,1,60,1,0
83591,555.555555555556,4,2,1,60,1,0
84146,582.52427184466,4,2,1,60,1,0
84437,689.655172413793,4,2,1,60,1,0
84609,857.142857142857,4,2,1,60,1,0
84823,857.142857142857,4,2,1,60,1,0
92537,-100,4,2,1,5,0,0

[Colours]
Combo1 : 255,150,45
Combo2 : 243,214,44
Combo3 : 116,45,234
Combo4 : 240,108,135
Combo5 : 138,221,225

[HitObjects]
160,68,1184,5,2,0:0:0:0:
160,68,1311,2,0,L|164:156,1,75.0000028610231,2|0,0:0|0:0,0:0:0:0:
100,200,1692,2,0,P|88:240|112:272,1,75.0000028610231,2|2,0:0|0:0,0:0:0:0:
168,320,2073,1,2,0:0:0:0:
168,320,2200,2,0,L|216:316,1,37.5000014305115,2|0,0:0|0:0,0:0:0:0:
445,232,2582,1,2,0:0:0:0:
445,232,2709,2,0,L|413:228,6,25,2|0|0|0|0|0|0,0:0|0:0|0:0|0:0|0:0|0:0|0:0,0:0:0:0:
421,229,3217,6,0,L|417:117,1,100,4|0,0:0|0:0,0:0:0:0:
416,48,3599,1,2,0:0:0:0:
416,48,3726,1,0,0:0:0:0:
296,176,3980,1,2,0:0:0:0:
224,68,4234,2,0,P|168:64|120:64,1,100,0|2,0:0|0:0,0:0:0:0:
0,192,4743,2,0,P|16:220|112:188,1,150,8|2,0:0|0:0,0:0:0:0:
192,156,5251,5,2,0:0:0:0:
192,156,5378,2,0,L|176:260,1,100,0|2,0:0|0:0,0:0:0:0:
224,328,5760,1,0,0:0:0:0:
224,328,5887,2,0,P|268:324|332:320,1,100
396,368,6268,1,2,0:0:0:0:
396,368,6395,2,0,P|404:328|388:252,1,100,0|0,0:0|0:0,0:0:0:0:
336,216,6777,1,10,0:0:0:0:
484,104,7031,1,2,0:0:0:0:
484,104,7158,1,2,0:0:0:0:
484,104,7285,5,6,0:0:0:0:
245,61,7539,2,0,P|245:36|252:12,2,50,0|2|0,0:0|0:0|3:0,0:0:0:0:
348,168,8048,1,6,0:0:0:0:
188,192,8302,2,0,P|144:200|76:192,1,100
270,278,8811,2,0,P|288:312|396:316,1,150,8|0,3:2|0:0,0:0:0:0:
344,260,9319,6,0,L|188:272,2,150,6|2|2,0:0|0:0|0:0,0:0:0:0:
420,224,10209,1,2,0:0:0:0:
420,224,10336,2,0,L|424:168,1,50,2|2,3:0|0:0,0:0:0:0:
504,160,10590,2,0,L|508:104,1,50,2|2,0:0|0:0,0:0:0:0:
424,24,10845,2,0,L|427:73,1,50,10|2,3:0|0:0,0:0:0:0:
336,84,11099,2,0,L|339:133,1,50,2|2,0:0|0:0,0:0:0:0:
256,208,11353,6,0,P|220:212|148:224,1,100,4|0,0:0|0:0,0:0:0:0:
88,264,11734,1,0,0:0:0:0:
88,264,11861,2,0,L|80:368,2,100,8|0|2,0:0|0:0|0:0,0:0:0:0:
8,144,12624,1,0,0:0:0:0:
220,112,12878,1,8,0:0:0:0:
268,328,13133,1,0,0:0:0:0:
268,328,13387,6,0,P|264:280|220:240,1,100,2|0,0:0|0:0,0:0:0:0:
172,188,13768,1,0,0:0:0:0:
172,188,13895,2,0,L|64:192,1,100,8|0,0:0|0:0,0:0:0:0:
268,104,14404,2,0,L|376:108,1,100,2|0,0:0|0:0,0:0:0:0:
312,188,14912,1,8,0:0:0:0:
436,40,15167,1,0,0:0:0:0:
464,184,15421,6,0,P|468:232|468:304,1,100,2|0,0:0|0:0,0:0:0:0:
416,344,15802,1,0,0:0:0:0:
416,344,15929,2,0,L|312:340,1,100,8|0,0:0|0:0,0:0:0:0:
368,244,16438,1,2,0:0:0:0:
172,344,16692,1,0,0:0:0:0:
104,168,16946,1,8,0:0:0:0:
288,68,17200,1,0,0:0:0:0:
168,240,17455,6,0,P|124:256|52:252,1,100,2|0,0:0|0:0,0:0:0:0:
189,60,17963,2,0,P|239:56|288:68,1,100,10|0,0:0|0:0,0:0:0:0:
224,308,18472,1,2,0:0:0:0:
324,136,18726,1,2,0:0:0:0:
352,336,18980,1,8,0:0:0:0:
208,196,19234,2,0,L|152:188,1,50,8|8,0:0|0:0,0:0:0:0:
96,248,19489,6,0,P|40:268|-16:244,1,100,6|0,0:0|0:0,0:0:0:0:
2,257,19870,1,0,0:0:0:0:
2,257,19997,1,8,0:0:0:0:
0,24,20251,1,0,0:0:0:0:
140,120,20506,2,0,L|244:124,1,100,2|0,0:0|0:0,0:0:0:0:
360,32,21014,1,8,0:0:0:0:
239,123,21268,1,0,0:0:0:0:
376,216,21522,6,0,B|380:252|380:252|368:328,1,100,2|0,0:0|0:0,0:0:0:0:
300,344,21904,1,0,0:0:0:0:
300,344,22031,2,0,L|192:348,1,100,8|0,0:0|0:0,0:0:0:0:
32,200,22539,5,2,0:0:0:0:
48,351,22794,1,0,0:0:0:0:
72,347,22921,1,0,0:0:0:0:
96,344,23048,1,8,0:0:0:0:
216,236,23302,1,0,0:0:0:0:
120,136,23556,6,0,P|116:88|160:32,1,100,2|0,0:0|0:0,0:0:0:0:
216,28,23938,1,2,0:0:0:0:
216,28,24065,1,8,0:0:0:0:
288,224,24319,1,2,0:0:0:0:
488,148,24573,2,0,L|380:148,1,100,2|0,0:0|0:0,0:0:0:0:
332,88,24955,1,2,0:0:0:0:
332,88,25082,2,0,L|220:112,1,100,8|2,0:0|0:0,0:0:0:0:
16,288,25590,5,6,0:0:0:0:
120,220,25845,1,0,0:0:0:0:
200,360,26099,2,0,L|88:368,1,100,8|0,0:0|0:0,0:0:0:0:
304,212,26607,2,0,L|416:220,1,100,6|0,0:0|0:0,0:0:0:0:
204,20,27116,2,0,L|136:28,1,50,8|0,0:0|0:0,0:0:0:0:
24,92,27370,2,0,L|92:100,1,50,8|8,0:0|0:0,0:0:0:0:
160,168,27624,6,0,P|164:208|168:280,1,100,6|0,0:0|0:0,0:0:0:0:
344,267,28133,2,0,P|347:217|352:168,1,100,8|0,0:0|0:0,0:0:0:0:
420,8,28641,1,2,0:0:0:0:
276,52,28895,1,0,0:0:0:0:
352,167,29150,2,0,L|468:176,1,100,8|0,0:0|0:0,0:0:0:0:
236,128,29658,5,2,0:0:0:0:
340,288,29912,1,0,0:0:0:0:
340,288,30039,1,0,0:0:0:0:
340,288,30167,1,8,0:0:0:0:
484,108,30421,1,0,0:0:0:0:
484,108,30675,2,0,L|376:104,1,100,2|0,0:0|0:0,0:0:0:0:
132,104,31183,5,8,0:0:0:0:
244,32,31438,1,0,0:0:0:0:
240,148,31692,2,0,P|244:192|240:256,1,100,2|0,0:0|0:0,0:0:0:0:
184,304,32073,1,0,0:0:0:0:
184,304,32200,2,0,L|80:304,2,100,8|0|2,0:0|0:0|0:0,0:0:0:0:
404,276,32963,1,0,0:0:0:0:
400,252,33090,1,0,0:0:0:0:
396,228,33217,1,8,0:0:0:0:
484,144,33472,1,0,0:0:0:0:
324,40,33726,6,0,P|284:68|316:164,1,150,2|0,0:0|0:0,0:0:0:0:
301,156,34234,2,0,L|316:272,1,100,8|0,0:0|0:0,0:0:0:0:
272,376,34743,1,2,0:0:0:0:
412,180,34997,1,0,0:0:0:0:
220,252,35251,1,10,0:0:0:0:
360,344,35506,1,10,0:0:0:0:
160,356,35760,6,0,P|120:352|48:360,1,100,6|0,0:0|0:0,0:0:0:0:
32,284,36141,1,0,0:0:0:0:
32,284,36268,2,0,L|40:168,1,100,10|0,0:0|0:0,0:0:0:0:
100,132,36650,2,0,L|108:16,1,100
106,32,37031,1,2,0:0:0:0:
352,80,37285,1,8,0:0:0:0:
212,160,37539,1,0,0:0:0:0:
364,256,37794,6,0,P|376:288|360:368,1,100,6|0,0:0|0:0,0:0:0:0:
344,360,38175,1,0,0:0:0:0:
320,364,38302,1,8,0:0:0:0:
112,252,38556,1,0,0:0:0:0:
136,244,38683,1,0,0:0:0:0:
160,236,38811,1,2,0:0:0:0:
348,148,39065,6,0,B|372:100|372:100|356:40,1,100,12|0,0:0|0:0,0:0:0:0:
360,55,39446,2,0,L|240:44,1,100,8|0,0:0|0:0,0:0:0:0:
188,40,39828,5,4,0:0:0:0:
232,208,40082,2,0,L|240:276,1,50
216,336,40336,2,0,L|108:332,1,100,8|0,0:0|0:0,0:0:0:0:
316,256,40845,2,0,P|340:288|344:360,1,100,2|0,0:0|0:0,0:0:0:0:
208,120,41353,2,0,P|172:140|140:212,1,100,8|0,0:0|0:0,0:0:0:0:
308,56,41861,5,2,0:0:0:0:
308,56,42116,2,0,P|344:60|420:88,1,100,0|8,0:0|0:0,0:0:0:0:
328,184,42624,1,0,0:0:0:0:
392,280,42878,2,0,P|424:244|440:184,1,100,2|0,0:0|0:0,0:0:0:0:
244,248,43387,2,0,L|128:240,1,100,8|0,0:0|0:0,0:0:0:0:
56,56,43895,6,0,P|68:116|152:120,2,150,12|8|2,0:0|0:0|0:0,0:0:0:0:
292,32,44912,1,0,0:0:0:0:
244,160,45167,1,10,0:0:0:0:
240,184,45294,1,8,0:0:0:0:
236,208,45421,1,0,0:0:0:0:
328,344,45675,2,0,L|384:340,1,50,8|0,0:0|0:0,0:0:0:0:
432,276,45929,6,0,B|428:224|428:224|448:208|448:208|440:136,2,150,12|2|2,0:0|0:0|0:0,0:0:0:0:
256,148,46946,1,0,0:0:0:0:
256,142,47073,1,0,0:0:0:0:
256,136,47200,1,0,0:0:0:0:
257,130,47328,1,0,0:0:0:0:
256,124,47455,2,0,P|228:112|212:108,6,25,6|0|2|0|2|0|2,3:0|0:0|0:0|0:0|0:0|0:0|0:0,0:0:0:0:
233,113,47963,6,0,P|184:140|104:76,1,165.000005035401,4|0,0:0|0:0,0:0:0:0:
104,81,48472,1,8,0:0:0:0:
372,28,48726,1,0,0:0:0:0:
372,28,48980,2,0,L|368:164,2,110.000003356934,2|0|8,0:0|0:0|0:0,0:0:0:0:
448,216,49743,2,0,P|480:208|516:212,1,55.0000016784668
484,288,49997,6,0,P|424:340|344:304,1,165.000005035401,2|0,0:0|0:0,0:0:0:0:
350,313,50506,2,0,L|240:308,1,110.000003356934,8|0,0:0|0:0,0:0:0:0:
276,196,51014,1,2,0:0:0:0:
80,248,51268,1,0,0:0:0:0:
204,80,51522,1,8,0:0:0:0:
240,308,51777,1,0,0:0:0:0:
240,308,51904,1,0,0:0:0:0:
240,308,52031,6,0,B|196:352|120:344|120:344|144:304,1,165.000005035401,2|0,0:0|0:0,0:0:0:0:
137,314,52539,1,8,0:0:0:0:
336,228,52794,2,0,P|352:272|356:296,1,55.0000016784668
424,340,53048,2,0,P|428:300|472:232,1,110.000003356934,2|0,0:0|0:0,0:0:0:0:
496,72,53556,1,8,0:0:0:0:
392,168,53811,1,2,0:0:0:0:
256,28,54065,6,0,L|388:20,2,110.000003356934,0|2|8,0:0|0:0|0:0,0:0:0:0:
140,120,54828,1,2,0:0:0:0:
216,220,55082,1,2,0:0:0:0:
256,28,55336,1,0,0:0:0:0:
256,28,55463,1,2,0:0:0:0:
256,28,55590,1,10,0:0:0:0:
36,44,55845,1,2,0:0:0:0:
136,164,56099,6,0,P|128:216|128:332,1,165.000005035401,6|0,0:0|0:0,0:0:0:0:
200,352,56607,2,0,L|316:360,2,110.000003356934,8|0|2,0:0|0:0|0:0,0:0:0:0:
48,356,57370,1,0,0:0:0:0:
256,256,57624,1,8,0:0:0:0:
86,192,57878,2,0,L|32:196,2,55.0000016784668,0|0|2,0:0|0:0|0:0,0:0:0:0:
280,36,58387,5,0,0:0:0:0:
280,36,58514,2,0,L|335:33,1,55.0000016784668,0|8,0:0|0:0,0:0:0:0:
192,80,58768,1,0,0:0:0:0:
192,80,58895,2,0,P|188:124|184:200,1,110.000003356934,0|2,0:0|0:0,0:0:0:0:
92,292,59404,1,0,0:0:0:0:
56,160,59658,1,8,0:0:0:0:
236,316,59912,1,0,0:0:0:0:
76,376,60167,6,0,P|44:364|36:232,1,165.000005035401,6|0,0:0|0:0,0:0:0:0:
20,249,60675,1,8,0:0:0:0:
208,176,60929,1,0,0:0:0:0:
40,112,61183,2,0,P|20:61|36:-16,2,110.000003356934,2|0|8,0:0|0:0|0:0,0:0:0:0:
120,228,61946,1,0,0:0:0:0:
256,88,62200,5,4,0:0:0:0:
144,32,62455,1,0,0:0:0:0:
144,32,62582,1,0,0:0:0:0:
144,32,62709,1,8,0:0:0:0:
220,216,62963,1,2,0:0:0:0:
475,106,63217,5,12,0:0:0:0:
447,103,63345,1,2,0:0:0:0:
420,101,63472,1,2,0:0:0:0:
393,99,63599,1,2,0:0:0:0:
365,97,63726,1,12,0:0:0:0:
338,94,63853,1,0,0:0:0:0:
310,92,63980,1,8,0:0:0:0:
283,90,64107,1,8,0:0:0:0:
256,88,64234,6,0,P|192:88|116:168,1,165.000005035401,4|0,0:0|0:0,0:0:0:0:
120,153,64743,1,8,0:0:0:0:
288,344,64997,1,0,0:0:0:0:
288,344,65251,2,0,P|296:300|280:232,1,110.000003356934,2|0,0:0|0:0,0:0:0:0:
36,176,65760,2,0,P|64:224|136:240,1,110.000003356934,8|0,0:0|0:0,0:0:0:0:
188,216,66141,1,0,0:0:0:0:
188,216,66268,6,0,L|204:52,1,165.000005035401,2|0,0:0|0:0,0:0:0:0:
204,51,66777,2,0,P|248:40|320:48,1,110.000003356934,8|0,0:0|0:0,0:0:0:0:
432,188,67285,2,0,L|440:304,1,110.000003356934,2|0,0:0|0:0,0:0:0:0:
268,344,67794,2,0,L|260:234,1,110.000003356934,8|0,0:0|0:0,0:0:0:0:
260,234,68175,1,0,0:0:0:0:
260,234,68302,6,0,P|188:216|124:284,1,165.000005035401,2|0,0:0|0:0,0:0:0:0:
126,272,68811,1,8,0:0:0:0:
0,120,69065,2,0,L|64:112,1,55.0000016784668,0|0,0:0|0:0,0:0:0:0:
132,108,69319,2,0,P|124:64|144:0,2,110.000003356934,2|0|8,0:0|0:0|0:0,0:0:0:0:
304,148,70082,1,0,0:0:0:0:
304,148,70336,6,0,L|472:136,1,165.000005035401,2|0,0:0|0:0,0:0:0:0:
468,136,70845,2,0,P|471:179|467:247,1,110.000003356934,8|0,0:0|0:0,0:0:0:0:
296,356,71353,1,2,0:0:0:0:
216,216,71607,1,0,0:0:0:0:
244,212,71734,1,2,0:0:0:0:
272,208,71861,1,8,0:0:0:0:
396,64,72116,1,2,0:0:0:0:
368,60,72243,1,0,0:0:0:0:
340,56,72370,6,0,L|164:76,1,165.000005035401,6|0,0:0|0:0,0:0:0:0:
176,74,72878,1,8,0:0:0:0:
24,196,73133,1,0,0:0:0:0:
148,344,73387,2,0,B|116:260|168:260|148:176,1,165.000005035401,2|0,0:0|0:0,0:0:0:0:
108,120,73895,2,0,P|72:96|0:92,1,110.000003356934,8|0,0:0|0:0,0:0:0:0:
216,28,74404,6,0,P|216:72|320:100,1,165.000005035401,2|0,0:0|0:0,0:0:0:0:
380,60,74912,2,0,L|496:60,1,110.000003356934,8|0,0:0|0:0,0:0:0:0:
432,328,75421,1,2,0:0:0:0:
432,328,75675,1,0,0:0:0:0:
436,136,75929,1,8,0:0:0:0:
248,120,76183,1,0,0:0:0:0:
180,280,76438,6,0,P|248:284|360:280,1,165.000005035401,6|2,0:0|0:0,0:0:0:0:
400,228,76946,1,8,0:0:0:0:
104,176,77200,1,2,0:0:0:0:
104,176,77455,2,0,L|96:285,1,110.000003356934,0|2,0:0|0:0,0:0:0:0:
192,360,77963,1,10,0:0:0:0:
312,296,78217,2,0,L|320:164,1,110.000003356934,4|0,0:0|0:0,0:0:0:0:
332,48,78726,5,0,0:0:0:0:
332,48,78853,1,0,0:0:0:0:
332,48,78980,1,8,0:0:0:0:
236,140,79234,1,6,0:0:0:0:
408,72,79489,1,0,0:0:0:0:
208,4,79743,1,8,0:0:0:0:
240,184,79997,1,2,0:0:0:0:
109,64,80251,2,0,L|112:146,1,55.0000016784668
148,216,80506,6,0,P|144:252|144:272,5,50,4|0|0|0|8|0,0:0|0:0|0:0|0:0|0:0|0:0,0:0:0:0:
244,300,81268,2,0,P|248:336|248:356,5,50,4|0|0|0|0|0,0:1|0:0|0:0|0:0|0:0|0:0,0:0:0:0:
352,344,82031,2,0,L|408:352,1,50,8|0,0:0|0:0,0:0:0:0:
484,252,82285,2,0,L|428:260,1,50
352,124,82539,5,4,0:1:0:0:
352,124,82670,1,0,0:0:0:0:
352,124,82802,1,0,0:0:0:0:
352,124,82933,1,2,0:0:0:0:
352,124,83065,2,0,L|360:56,1,50,10|0,0:0|0:0,0:0:0:0:
208,16,83328,1,4,0:1:0:0:
208,16,83460,1,0,0:0:0:0:
208,16,83591,6,0,L|212:72,1,50,2|0,0:0|0:0,0:0:0:0:
212,156,83868,2,0,L|200:224,1,50
160,296,84146,6,0,L|108:316,1,50,2|0,0:0|0:0,0:0:0:0:
12,264,84437,6,0,L|0:212,1,50,2|0,0:0|0:0,0:0:0:0:
96,84,84823,5,4,0:0:0:0:
256,192,85251,12,0,92537,0:0:0:0:
