osu file format v14

[General]
AudioFilename: Garden.mp3
AudioLeadIn: 2000
PreviewTime: 47709
Countdown: 0
SampleSet: Soft
StackLeniency: 0.7
Mode: 0
LetterboxInBreaks: 0
WidescreenStoryboard: 0

[Editor]
DistanceSpacing: 0.6
BeatDivisor: 4
GridSize: 4
TimelineZoom: 1.6

[Metadata]
Title:Gardens
TitleUnicode:Gardens
Artist:Mami Kawada
ArtistUnicode:川田まみ
Creator:Mei
Version:Hard
Source:To LOVEる-とらぶる- ダークネス 2nd
Tags:love-ru -trouble- darkness ending I've Karen Frey
BeatmapID:748474
BeatmapSetID:333313

[Difficulty]
HPDrainRate:6
CircleSize:4
OverallDifficulty:6.2
ApproachRate:7.4
SliderMultiplier:1.6
SliderTickRate:1

[Events]
//Background and Video events
Video,600,"hey.flv"
0,0,"bgg.jpg",0,0
//Break Periods
//Storyboard Layer 0 (Background)
//Storyboard Layer 1 (Fail)
//Storyboard Layer 2 (Pass)
//Storyboard Layer 3 (Foreground)
//Storyboard Sound Samples

[TimingPoints]
1184,508.474576271186,4,2,1,60,1,0
1184,-100,4,2,1,40,0,0
3217,-100,4,2,2,60,0,0
11353,-100,4,2,1,60,0,0
47963,-90.9090909090909,4,2,1,80,0,1
64107,-90.9090909090909,4,2,1,70,0,0
64234,-90.9090909090909,4,2,1,80,0,1
80506,-100,4,2,1,60,0,0
82539,526.315789473684,4,2,1,60,1,0
83591,555.555555555556,4,2,1,60,1,0
84146,582.52427184466,4,2,1,60,1,0
84437,689.655172413793,4,2,1,60,1,0
84609,857.142857142857,4,2,1,60,1,0
84823,857.142857142857,4,2,1,60,1,0
92537,-100,4,2,1,5,0,0

[Colours]
Combo1 : 255,150,45
Combo2 : 243,214,44
Combo3 : 116,45,234
Combo4 : 240,108,135
Combo5 : 138,221,225

[HitObjects]
384,88,1184,6,0,P|332:92|276:100,1,80,2|0,0:0|0:0,0:0:0:0:
268,140,1565,2,0,P|336:148|376:152,1,80,2|0,0:0|0:0,0:0:0:0:
376,176,1946,1,0,0:0:0:0:
324,280,2200,2,0,P|272:272|180:276,1,120,2|2,0:0|0:0,0:0:0:0:
136,304,2709,2,0,L|128:340,6,20
136,304,3217,6,0,B|116:248|116:248|136:164,2,120,4|0|0,0:0|0:0|0:0,0:0:0:0:
236,240,4234,2,0,P|304:232|336:232,1,80
316,352,4743,2,0,P|384:360|416:360,1,80,8|0,0:0|0:0,0:0:0:0:
424,336,5124,1,2,0:0:0:0:
440,300,5251,6,0,L|452:208,1,80,2|0,0:0|0:0,0:0:0:0:
450,220,5633,2,0,P|396:204|304:216,1,120,2|0,0:0|0:0,0:0:0:0:
232,160,6268,2,0,P|220:212|224:264,1,80,2|0,0:0|0:0,0:0:0:0:
320,120,6777,2,0,P|328:80|316:24,1,80,10|2,0:0|0:0,0:0:0:0:
296,24,7158,1,2,0:0:0:0:
260,16,7285,6,0,L|112:16,2,120,6|2|2,0:0|0:0|0:0,0:0:0:0:
500,196,8556,1,0,0:0:0:0:
428,252,8811,2,0,L|424:348,1,80,8|0,3:2|0:0,0:0:0:0:
324,240,9319,6,0,P|332:320|316:372,2,120,6|2|2,0:0|0:0|0:0,0:0:0:0:
200,144,10336,2,0,P|192:64|204:44,1,80,2|2,3:0|0:0,0:0:0:0:
321,67,10845,2,0,P|326:106|312:144,1,80,10|2,3:0|0:0,0:0:0:0:
220,232,11353,6,0,B|156:224|156:224|132:244|132:244|52:232,1,160,4|8,0:1|0:0,0:0:0:0:
188,320,12116,1,0,0:0:0:0:
188,320,12370,2,0,P|240:328|304:228,1,160,2|8,0:0|0:0,0:0:0:0:
304,168,13133,1,0,0:0:0:0:
200,100,13387,6,0,B|248:88|248:88|328:92,1,120,2|0,0:0|0:0,0:0:0:0:
360,96,13895,2,0,P|384:144|396:200,1,80,8|0,0:0|0:0,0:0:0:0:
344,344,14404,2,0,P|328:308|368:240,1,120,2|0,0:0|0:0,0:0:0:0:
400,240,14912,2,0,L|512:236,1,80,8|0,0:0|0:0,0:0:0:0:
312,176,15421,6,0,L|200:172,1,80,2|0,0:0|0:0,0:0:0:0:
100,116,15929,2,0,P|156:104|208:100,1,80,8|0,0:0|0:0,0:0:0:0:
160,216,16438,2,0,P|156:272|156:320,1,80,2|0,0:0|0:0,0:0:0:0:
64,180,16946,1,8,0:0:0:0:
64,180,17200,6,0,P|56:248|52:340,1,160,2|0,0:0|0:0,0:0:0:0:
52,339,17963,1,10,0:0:0:0:
336,208,18472,2,0,L|336:120,1,80,2|2,0:0|0:0,0:0:0:0:
256,168,18980,1,8,0:0:0:0:
288,48,19234,1,0,0:0:0:0:
264,44,19361,1,0,0:0:0:0:
240,40,19489,6,0,L|136:48,1,80,6|0,0:0|0:0,0:0:0:0:
136,48,19870,1,0,0:0:0:0:
136,48,19997,1,8,0:0:0:0:
72,184,20251,2,0,P|120:196|188:104,1,160,2|0,0:0|0:0,0:0:0:0:
72,184,21014,2,0,B|56:220|56:220|64:280,1,80,8|0,0:0|0:0,0:0:0:0:
172,360,21522,5,2,0:0:0:0:
264,284,21777,1,0,0:0:0:0:
288,280,21904,1,0,0:0:0:0:
312,276,22031,1,8,0:0:0:0:
360,184,22285,1,0,0:0:0:0:
360,184,22539,2,0,B|296:172|296:172|224:176,1,120,2|0,0:0|0:0,0:0:0:0:
241,175,23048,2,0,P|236:128|240:80,1,80,8|0,0:0|0:0,0:0:0:0:
340,40,23556,5,2,0:0:0:0:
320,272,23938,1,0,0:0:0:0:
320,272,24065,1,10,0:0:0:0:
448,184,24319,1,2,0:0:0:0:
448,184,24573,5,2,0:0:0:0:
64,184,24955,1,0,0:0:0:0:
64,184,25082,2,0,L|160:180,1,80,10|0,0:0|0:0,0:0:0:0:
328,36,25590,6,0,B|344:80|344:80|320:128,1,80,6|0,0:0|0:0,0:0:0:0:
182,109,26099,1,8,0:0:0:0:
182,109,26226,2,0,B|168:80|168:80|184:36,1,80,0|0,0:0|0:0,0:0:0:0:
208,20,26607,2,0,L|216:204,1,160,6|8,0:0|0:0,0:0:0:0:
124,364,27624,6,0,P|44:352|0:352,1,120,6|0,0:0|0:0,0:0:0:0:
8,304,28133,2,0,L|116:296,1,80,8|0,0:0|0:0,0:0:0:0:
264,228,28641,2,0,L|156:236,1,80,2|0,0:0|0:0,0:0:0:0:
64,124,29150,1,8,0:0:0:0:
92,216,29404,1,0,0:0:0:0:
188,140,29658,6,0,L|328:144,1,120,2|0,0:0|0:0,0:0:0:0:
324,104,30167,2,0,P|368:92|416:92,1,80,8|0,0:0|0:0,0:0:0:0:
392,248,30675,2,0,P|384:207|392:152,1,80,2|0,0:0|0:0,0:0:0:0:
472,200,31183,1,8,0:0:0:0:
472,200,31438,1,0,0:0:0:0:
392,248,31692,6,0,B|328:272|328:272|264:256,1,120,2|0,0:0|0:0,0:0:0:0:
248,252,32200,2,0,L|160:264,1,80,8|0,0:0|0:0,0:0:0:0:
140,116,32709,2,0,B|204:92|204:92|268:108,1,120,2|0,0:0|0:0,0:0:0:0:
284,112,33217,2,0,L|372:100,1,80,8|0,0:0|0:0,0:0:0:0:
468,192,33726,6,0,P|492:256|412:316,2,160,2|8|2,0:0|0:0|0:0,0:0:0:0:
336,256,34997,2,0,L|328:304,2,40,0|0|10,0:0|0:0|0:0,0:0:0:0:
340,160,35506,1,2,0:0:0:0:
252,212,35760,6,0,L|128:208,1,120,6|0,0:0|0:0,0:0:0:0:
104,212,36268,2,0,P|84:260|84:304,2,80,8|0|2,0:0|0:0|0:0,0:0:0:0:
131,83,37031,2,0,P|92:80|55:95,2,80,0|8|0,0:0|0:0|0:0,0:0:0:0:
259,40,37794,2,0,P|266:99|248:156,1,120,6|0,0:0|0:0,0:0:0:0:
240,188,38302,2,0,L|416:180,1,160,8|8,0:0|0:0,0:0:0:0:
436,312,39065,5,12,0:0:0:0:
248,280,39446,1,8,0:0:0:0:
76,356,39828,6,0,P|72:300|80:160,1,160,6|8,0:0|0:0,0:0:0:0:
176,128,40590,1,0,0:0:0:0:
176,128,40845,2,0,P|176:184|172:236,1,80,2|0,0:0|0:0,0:0:0:0:
81,111,41353,2,0,P|79:71|80:32,1,80,8|0,0:0|0:0,0:0:0:0:
192,40,41861,5,2,0:0:0:0:
192,40,42116,2,0,P|232:56|260:100,1,80,0|8,0:0|0:0,0:0:0:0:
256,172,42624,1,0,0:0:0:0:
256,172,42878,2,0,P|252:236|252:276,1,80,2|0,0:0|0:0,0:0:0:0:
352,252,43387,2,0,P|350:212|347:172,1,80,10|0,0:0|0:0,0:0:0:0:
184,144,43895,6,0,B|159:143|132:134|132:134|119:139|119:139|97:127|69:124,2,120,12|8|2,0:0|0:0|0:0,0:0:0:0:
488,32,45167,2,0,L|488:92|488:124,1,80,10|0,0:0|0:0,0:0:0:0:
488,112,45548,1,0,0:0:0:0:
488,112,45675,1,8,0:0:0:0:
396,108,45929,2,0,P|400:164|468:196,1,120,12|2,0:0|0:0,0:0:0:0:
488,212,46438,2,0,P|424:212|376:216,1,80,0|2,0:0|0:0,0:0:0:0:
304,304,46946,5,0,0:0:0:0:
304,304,47073,1,0,0:0:0:0:
304,304,47200,1,0,0:0:0:0:
304,304,47328,1,0,0:0:0:0:
304,304,47455,2,0,P|248:308|152:288,1,120,6|2,3:0|0:0,0:0:0:0:
185,298,47963,6,0,P|184:224|180:152,1,132.00000402832,4|0,0:0|0:0,0:0:0:0:
176,136,48472,1,8,0:0:0:0:
280,192,48726,2,0,P|348:196|456:188,1,176.000005371094,2|0,0:0|0:0,0:0:0:0:
268,96,49489,2,0,P|276:44|272:8,1,88.000002685547,10|0,0:0|0:0,0:0:0:0:
164,44,49997,6,0,P|112:64|88:152,1,132.00000402832,2|0,0:0|0:0,0:0:0:0:
88,152,50506,2,0,L|96:256,1,88.000002685547,8|0,0:0|0:0,0:0:0:0:
196,332,51014,2,0,L|202:244,2,88.000002685547,2|0|8,0:0|0:0|0:0,0:0:0:0:
336,364,51777,2,0,P|364:352|396:352,1,44.0000013427735,0|0,0:0|0:0,0:0:0:0:
444,312,52031,6,0,P|376:312|324:260,1,132.00000402832,2|0,0:0|0:0,0:0:0:0:
328,252,52539,2,0,P|384:232|428:232,2,88.000002685547,8|0|0,0:0|0:0|0:0,0:0:0:0:
232,320,53302,1,0,0:0:0:0:
244,204,53556,1,8,0:0:0:0:
128,192,53811,6,0,P|80:264|148:344,1,176.000005371094,2|0,0:0|0:0,0:0:0:0:
232,320,54573,2,0,P|300:312|348:312,1,88.000002685547,8|0,0:0|0:0,0:0:0:0:
408,352,55082,1,2,0:0:0:0:
376,248,55336,1,0,0:0:0:0:
376,248,55463,1,2,0:0:0:0:
376,248,55590,1,10,0:0:0:0:
468,288,55845,1,2,0:0:0:0:
468,288,56099,6,0,P|472:212|472:136,1,132.00000402832,6|0,0:0|0:0,0:0:0:0:
464,128,56607,1,8,0:0:0:0:
384,56,56861,2,0,B|328:76|328:76|204:44,1,176.000005371094,2|0,0:0|0:0,0:0:0:0:
128,96,57624,2,0,P|148:148|144:196,1,88.000002685547,8|2,0:0|0:0,0:0:0:0:
48,160,58133,5,0,0:0:0:0:
44,296,58387,1,0,0:0:0:0:
44,296,58514,1,0,0:0:0:0:
44,296,58641,2,0,B|88:276|88:276|140:292,1,88.000002685547,8|0,0:0|0:0,0:0:0:0:
224,336,59150,1,2,0:0:0:0:
268,256,59404,2,0,P|306:296|313:343,1,88.000002685547,0|8,0:0|0:0,0:0:0:0:
324,352,59785,2,0,P|376:328|408:332,1,88.000002685547,0|0,0:0|0:0,0:0:0:0:
428,352,60167,6,0,B|392:260|392:260|416:176,1,176.000005371094,6|8,0:0|0:0,0:0:0:0:
444,80,60929,2,0,P|500:72|540:72,1,88.000002685547,0|2,0:0|0:0,0:0:0:0:
360,124,61438,2,0,L|236:116,1,88.000002685547,0|8,0:0|0:0,0:0:0:0:
268,136,61819,2,0,L|144:128,1,88.000002685547,0|0,0:0|0:0,0:0:0:0:
168,144,62200,6,0,P|148:192|248:240,1,176.000005371094,4|8,0:0|0:0,0:0:0:0:
408,120,62963,2,0,L|420:188,1,44.0000013427735,2|0,0:0|0:0,0:0:0:0:
484,216,63217,2,0,L|300:208,1,176.000005371094,12|8,0:0|0:0,0:0:0:0:
304,232,64234,6,0,P|364:212|424:276,1,132.00000402832,4|0,0:0|0:0,0:0:0:0:
424,272,64743,2,0,B|440:320|440:320|416:360,1,88.000002685547,8|0,0:0|0:0,0:0:0:0:
256,332,65251,2,0,L|100:356,1,132.00000402832,2|0,0:0|0:0,0:0:0:0:
88,344,65760,1,8,0:0:0:0:
152,228,66014,2,0,L|156:176,1,44.0000013427735
60,196,66268,6,0,P|52:136|116:88,1,132.00000402832,2|0,0:0|0:0,0:0:0:0:
128,88,66777,2,0,L|216:80,1,88.000002685547,8|0,0:0|0:0,0:0:0:0:
296,168,67285,2,0,P|304:256|300:320,1,132.00000402832,2|0,0:0|0:0,0:0:0:0:
312,324,67794,2,0,P|364:312|424:320,1,88.000002685547,8|0,0:0|0:0,0:0:0:0:
224,296,68302,6,0,P|212:348|128:328,1,132.00000402832,2|0,0:0|0:0,0:0:0:0:
124,332,68811,1,8,0:0:0:0:
40,248,69065,2,0,P|44:192|44:152,2,88.000002685547,0|2|0,0:0|0:0|0:0,0:0:0:0:
140,228,69828,2,0,L|140:132,1,88.000002685547,8|0,0:0|0:0,0:0:0:0:
232,92,70336,6,0,P|284:144|256:212,1,132.00000402832,2|0,0:0|0:0,0:0:0:0:
264,232,70845,2,0,P|256:280|276:336,1,88.000002685547,8|0,0:0|0:0,0:0:0:0:
368,352,71353,1,2,0:0:0:0:
444,272,71607,2,0,L|496:268,2,44.0000013427735,0|2|8,0:0|0:0|0:0,0:0:0:0:
356,192,72116,1,2,0:0:0:0:
356,192,72370,6,0,P|288:184|156:200,2,176.000005371094,6|8|0,0:0|0:0|0:0,0:0:0:0:
256,40,73895,1,8,0:0:0:0:
20,248,74404,6,0,L|28:344,1,88.000002685547,2|0,0:0|0:0,0:0:0:0:
116,368,74912,1,8,0:0:0:0:
188,288,75167,2,0,P|260:276|376:312,1,176.000005371094,0|0,0:0|0:0,0:0:0:0:
496,352,75929,2,0,P|448:360|388:352,1,88.000002685547,10|0,0:0|0:0,0:0:0:0:
464,196,76438,6,0,L|448:292,1,88.000002685547,6|0,0:0|0:0,0:0:0:0:
356,144,76946,2,0,P|344:192|352:240,1,88.000002685547,8|2,0:0|0:0,0:0:0:0:
448,108,77455,2,0,L|552:96,1,88.000002685547,0|2,0:0|0:0,0:0:0:0:
368,32,77963,1,10,0:0:0:0:
368,32,78217,6,0,P|308:72|224:20,1,176.000005371094,4|0,0:0|0:0,0:0:0:0:
128,88,78980,1,8,0:0:0:0:
212,164,79234,2,0,B|196:260|196:260|224:352,1,176.000005371094,6|0,0:0|0:0,0:0:0:0:
108,324,79997,2,0,P|56:352|16:360,1,88.000002685547,8|0,0:0|0:0,0:0:0:0:
40,272,80506,5,4,0:0:0:0:
40,272,80760,2,0,B|32:200|32:200|48:104,2,160,0|4|0,0:0|0:1|0:0,0:0:0:0:
140,336,82031,2,0,P|212:332|240:328,1,80,8|0,0:0|0:0,0:0:0:0:
312,240,82539,6,0,P|240:208|176:272,1,160,4|10,0:0|0:0,0:0:0:0:
112,168,83328,1,4,0:1:0:0:
112,168,83591,6,0,B|120:116|120:116|104:88|104:88|116:12,1,160,2|2,0:0|0:0,0:0:0:0:
264,40,84437,6,0,L|264:88,1,40,2|0,0:0|0:0,0:0:0:0:
268,168,84823,5,4,0:0:0:0:
256,192,85251,12,0,92537,0:0:0:0:
