osu file format v14

[General]
AudioFilename: Contrail.mp3
AudioLeadIn: 1000
PreviewTime: 81864
Countdown: 0
SampleSet: Normal
StackLeniency: 0.7
Mode: 1
LetterboxInBreaks: 0
WidescreenStoryboard: 0

[Editor]
Bookmarks: 147692,338664
DistanceSpacing: 1.1
BeatDivisor: 4
GridSize: 4
TimelineZoom: 1.6

[Metadata]
Title:Contrail ~Kiseki~ (Epsilon Remix)
TitleUnicode:Contrail~軌跡~(Epsilon Remix)
Artist:Mami Kawada
ArtistUnicode:川田まみ
Creator:Charlotte
Version:Taiko Miracle
Source:蒼の彼方のフォーリズム
Tags:ao no kanata four rhythm beyond the sky into the firmament taeyang
BeatmapID:989280
BeatmapSetID:461966

[Difficulty]
HPDrainRate:5
CircleSize:5
OverallDifficulty:6
ApproachRate:7
SliderMultiplier:1.4
SliderTickRate:1

[Events]
//Background and Video events
0,0,"BG.png",0,100
//Break Periods
//Storyboard Layer 0 (Background)
//Storyboard Layer 1 (Fail)
//Storyboard Layer 2 (Pass)
//Storyboard Layer 3 (Foreground)
//Storyboard Sound Samples

[TimingPoints]
950,342.857142857143,4,1,0,65,1,0
11921,-100,4,1,0,80,0,0
81864,-100,4,1,0,80,0,1
103807,-100,4,1,0,80,0,0
184721,-100,4,1,0,80,0,1
206664,-100,4,1,0,80,0,0
260150,-100,4,1,0,40,0,0
261521,-100,4,1,0,60,0,0
264264,-100,4,1,0,70,0,0
267007,-100,4,1,0,80,0,1
283464,-100,4,1,0,80,0,0
346892,-100,4,1,0,65,0,0
348435,-100,4,1,0,50,0,0
348778,-100,4,1,0,45,0,0
349121,-100,4,1,0,40,0,0

[HitObjects]
256,192,950,5,0,0:0:0:0:
256,192,1292,1,8,0:0:0:0:
256,192,1635,1,0,0:0:0:0:
256,192,1978,1,8,0:0:0:0:
256,192,2150,1,8,0:0:0:0:
256,192,2321,1,0,0:0:0:0:
256,192,2664,1,8,0:0:0:0:
256,192,2835,1,0,0:0:0:0:
256,192,3178,1,0,0:0:0:0:
256,192,3350,1,8,0:0:0:0:
256,192,3692,1,0,0:0:0:0:
256,192,4035,1,8,0:0:0:0:
256,192,4378,1,0,0:0:0:0:
256,192,4721,1,0,0:0:0:0:
256,192,4892,1,8,0:0:0:0:
256,192,5064,1,0,0:0:0:0:
256,192,5407,1,0,0:0:0:0:
256,196,5578,1,8,0:0:0:0:
256,192,5921,1,0,0:0:0:0:
256,192,6264,1,8,0:0:0:0:
256,192,6435,1,0,0:0:0:0:
256,192,6778,1,8,0:0:0:0:
256,192,7121,1,0,0:0:0:0:
260,196,7464,1,8,0:0:0:0:
256,192,7635,1,8,0:0:0:0:
264,192,7807,1,0,0:0:0:0:
264,192,8150,1,8,0:0:0:0:
264,192,8321,1,0,0:0:0:0:
256,192,8664,1,0,0:0:0:0:
260,192,8835,1,8,0:0:0:0:
260,196,9178,1,0,0:0:0:0:
264,192,9521,1,8,0:0:0:0:
264,192,9864,1,0,0:0:0:0:
264,192,10207,1,0,0:0:0:0:
264,192,10378,1,8,0:0:0:0:
264,192,10550,1,0,0:0:0:0:
264,192,10892,1,0,0:0:0:0:
264,192,11064,1,8,0:0:0:0:
264,192,11407,1,0,0:0:0:0:
264,192,11750,1,8,0:0:0:0:
264,192,11921,1,4,0:0:0:0:
264,192,12092,1,8,0:0:0:0:
264,192,12264,1,0,0:0:0:0:
264,192,12435,1,8,0:0:0:0:
264,192,12607,1,0,0:0:0:0:
264,192,12950,1,8,0:0:0:0:
268,192,13121,1,8,0:0:0:0:
264,192,13292,1,0,0:0:0:0:
264,192,13635,1,8,0:0:0:0:
264,192,13807,1,0,0:0:0:0:
264,192,14150,1,0,0:0:0:0:
264,192,14321,1,8,0:0:0:0:
264,192,14664,1,0,0:0:0:0:
264,192,14835,1,8,0:0:0:0:
264,192,15007,1,0,0:0:0:0:
264,192,15178,1,8,0:0:0:0:
264,192,15350,1,0,0:0:0:0:
264,192,15692,1,8,0:0:0:0:
264,192,15864,1,8,0:0:0:0:
264,192,16035,1,0,0:0:0:0:
268,196,16378,1,8,0:0:0:0:
268,196,16550,1,0,0:0:0:0:
268,196,16892,1,0,0:0:0:0:
268,196,17064,1,8,0:0:0:0:
268,196,17235,1,8,0:0:0:0:
268,196,17321,1,8,0:0:0:0:
268,196,17407,1,0,0:0:0:0:
268,200,17578,1,8,0:0:0:0:
268,200,17750,1,0,0:0:0:0:
272,200,17835,1,0,0:0:0:0:
268,196,17921,1,8,0:0:0:0:
268,196,18092,1,0,0:0:0:0:
272,200,18264,1,8,0:0:0:0:
272,200,18350,1,8,0:0:0:0:
268,196,18435,1,0,0:0:0:0:
268,196,18521,1,0,0:0:0:0:
268,196,18607,1,8,0:0:0:0:
268,196,18778,1,0,0:0:0:0:
272,196,18950,1,8,0:0:0:0:
272,196,19035,1,0,0:0:0:0:
268,196,19121,1,0,0:0:0:0:
268,196,19292,1,8,0:0:0:0:
272,196,19378,1,8,0:0:0:0:
272,200,19464,1,0,0:0:0:0:
272,196,19635,1,0,0:0:0:0:
268,196,19721,1,8,0:0:0:0:
256,196,19807,1,8,0:0:0:0:
256,196,19892,1,0,0:0:0:0:
256,196,19978,1,8,0:0:0:0:
256,196,20150,1,4,0:0:0:0:
256,196,20321,1,8,0:0:0:0:
256,196,20407,1,0,0:0:0:0:
256,196,20492,1,0,0:0:0:0:
256,196,20664,1,8,0:0:0:0:
256,196,20835,1,8,0:0:0:0:
260,196,20921,1,8,0:0:0:0:
260,196,21007,1,0,0:0:0:0:
260,196,21092,1,0,0:0:0:0:
256,196,21178,1,8,0:0:0:0:
256,196,21264,1,0,0:0:0:0:
256,196,21350,1,8,0:0:0:0:
256,196,21435,1,8,0:0:0:0:
256,192,21521,12,0,22550,0:0:0:0:
256,196,22892,5,4,0:0:0:0:
256,196,23064,1,0,0:0:0:0:
256,196,23150,1,0,0:0:0:0:
256,196,23235,1,8,0:0:0:0:
256,196,23407,1,8,0:0:0:0:
256,196,23578,1,0,0:0:0:0:
256,196,23750,1,8,0:0:0:0:
256,196,23836,1,8,0:0:0:0:
256,196,23921,1,0,0:0:0:0:
256,196,24092,1,8,0:0:0:0:
256,196,24264,1,0,0:0:0:0:
256,196,24435,1,8,0:0:0:0:
256,196,24521,1,0,0:0:0:0:
256,196,24607,1,0,0:0:0:0:
256,196,24778,1,8,0:0:0:0:
256,196,24950,1,0,0:0:0:0:
256,196,25121,1,8,0:0:0:0:
256,196,25207,1,0,0:0:0:0:
256,196,25292,1,8,0:0:0:0:
256,196,25378,1,8,0:0:0:0:
256,196,25464,1,0,0:0:0:0:
256,196,25635,1,4,0:0:0:0:
256,196,25807,1,8,0:0:0:0:
256,196,25892,1,0,0:0:0:0:
256,196,25978,1,0,0:0:0:0:
256,196,26150,1,8,0:0:0:0:
256,196,26321,1,0,0:0:0:0:
256,196,26492,1,8,0:0:0:0:
256,196,26578,1,0,0:0:0:0:
256,196,26664,1,0,0:0:0:0:
256,196,26835,1,8,0:0:0:0:
256,196,27007,1,0,0:0:0:0:
256,196,27178,1,8,0:0:0:0:
256,196,27264,1,8,0:0:0:0:
256,196,27350,1,0,0:0:0:0:
256,196,27521,1,8,0:0:0:0:
256,196,27692,1,0,0:0:0:0:
256,196,27864,1,8,0:0:0:0:
256,196,27949,1,8,0:0:0:0:
256,196,28035,1,0,0:0:0:0:
256,196,28207,1,8,0:0:0:0:
256,196,28378,1,4,0:0:0:0:
256,196,28550,1,0,0:0:0:0:
256,196,28636,1,0,0:0:0:0:
256,196,28721,1,8,0:0:0:0:
256,196,28893,1,8,0:0:0:0:
256,196,29064,1,0,0:0:0:0:
256,196,29236,1,8,0:0:0:0:
256,196,29322,1,8,0:0:0:0:
256,196,29407,1,0,0:0:0:0:
256,196,29578,1,8,0:0:0:0:
256,196,29750,1,0,0:0:0:0:
256,196,29921,1,8,0:0:0:0:
256,196,30007,1,0,0:0:0:0:
256,196,30093,1,0,0:0:0:0:
256,196,30264,1,8,0:0:0:0:
256,196,30436,1,0,0:0:0:0:
256,196,30607,1,8,0:0:0:0:
256,196,30693,1,0,0:0:0:0:
256,196,30778,1,8,0:0:0:0:
256,196,30864,1,8,0:0:0:0:
256,196,30950,1,0,0:0:0:0:
260,196,31121,1,4,0:0:0:0:
256,196,31292,1,0,0:0:0:0:
256,196,31378,1,0,0:0:0:0:
256,196,31464,1,8,0:0:0:0:
256,196,31635,1,0,0:0:0:0:
256,196,31807,1,8,0:0:0:0:
256,196,31978,1,0,0:0:0:0:
256,196,32064,1,8,0:0:0:0:
256,196,32150,1,0,0:0:0:0:
256,196,32321,1,8,0:0:0:0:
256,196,32492,1,0,0:0:0:0:
256,196,32664,1,8,0:0:0:0:
256,196,32750,1,8,0:0:0:0:
260,196,32835,1,0,0:0:0:0:
256,196,33007,1,8,0:0:0:0:
256,196,33092,1,8,0:0:0:0:
256,196,33178,1,0,0:0:0:0:
256,196,33350,1,8,0:0:0:0:
256,196,33521,1,4,0:0:0:0:
256,196,33864,1,4,0:0:0:0:
256,196,34035,1,0,0:0:0:0:
256,196,34207,1,8,0:0:0:0:
256,196,34378,1,8,0:0:0:0:
256,196,34464,1,8,0:0:0:0:
256,196,34550,1,0,0:0:0:0:
256,196,34721,1,0,0:0:0:0:
256,196,34807,1,0,0:0:0:0:
256,196,34893,1,8,0:0:0:0:
256,196,35064,1,0,0:0:0:0:
256,196,35235,1,8,0:0:0:0:
256,196,35321,1,0,0:0:0:0:
256,196,35407,1,8,0:0:0:0:
256,196,35492,1,0,0:0:0:0:
256,196,35578,1,8,0:0:0:0:
256,196,35750,1,0,0:0:0:0:
256,196,35921,1,8,0:0:0:0:
256,196,36092,1,0,0:0:0:0:
256,196,36178,1,0,0:0:0:0:
256,196,36264,1,8,0:0:0:0:
256,196,36435,1,8,0:0:0:0:
256,192,36607,1,0,0:0:0:0:
260,192,36778,1,0,0:0:0:0:
260,196,36950,1,8,0:0:0:0:
260,196,37121,1,8,0:0:0:0:
260,200,37207,1,8,0:0:0:0:
260,196,37292,1,0,0:0:0:0:
256,196,37464,1,0,0:0:0:0:
260,200,37550,1,8,0:0:0:0:
264,196,37635,1,8,0:0:0:0:
264,200,37807,1,8,0:0:0:0:
256,196,37978,1,0,0:0:0:0:
264,200,38064,1,0,0:0:0:0:
264,200,38150,1,8,0:0:0:0:
264,200,38235,1,8,0:0:0:0:
264,200,38321,1,0,0:0:0:0:
260,196,38492,1,8,0:0:0:0:
260,196,38664,1,0,0:0:0:0:
260,196,38750,1,8,0:0:0:0:
260,196,38835,1,0,0:0:0:0:
260,200,39007,1,8,0:0:0:0:
256,196,39178,1,8,0:0:0:0:
256,196,39350,1,0,0:0:0:0:
264,196,39521,1,0,0:0:0:0:
264,200,39692,1,8,0:0:0:0:
264,200,39864,1,8,0:0:0:0:
264,200,39950,1,8,0:0:0:0:
264,200,40035,1,0,0:0:0:0:
264,200,40207,1,0,0:0:0:0:
264,200,40292,1,0,0:0:0:0:
264,200,40378,1,8,0:0:0:0:
264,200,40550,1,0,0:0:0:0:
260,200,40721,1,8,0:0:0:0:
260,200,40807,1,0,0:0:0:0:
264,200,40892,1,8,0:0:0:0:
264,200,40978,1,0,0:0:0:0:
264,200,41064,1,8,0:0:0:0:
256,196,41235,1,0,0:0:0:0:
256,196,41406,1,8,0:0:0:0:
256,196,41577,1,0,0:0:0:0:
256,196,41663,1,0,0:0:0:0:
256,196,41749,1,8,0:0:0:0:
256,196,41920,1,8,0:0:0:0:
256,192,42092,1,8,0:0:0:0:
260,192,42178,1,0,0:0:0:0:
260,196,42264,1,8,0:0:0:0:
264,192,42350,1,8,0:0:0:0:
264,192,42435,1,0,0:0:0:0:
264,192,42521,1,0,0:0:0:0:
264,192,42607,1,8,0:0:0:0:
264,192,42692,1,0,0:0:0:0:
264,192,42778,1,8,0:0:0:0:
260,192,42864,1,8,0:0:0:0:
256,196,42950,1,0,0:0:0:0:
256,196,43035,1,0,0:0:0:0:
256,196,43121,1,8,0:0:0:0:
256,196,43207,1,0,0:0:0:0:
256,196,43292,1,8,0:0:0:0:
256,196,43378,1,0,0:0:0:0:
256,196,43464,1,0,0:0:0:0:
256,196,43550,1,0,0:0:0:0:
256,196,43635,1,8,0:0:0:0:
260,196,43721,1,0,0:0:0:0:
260,196,43807,1,8,0:0:0:0:
260,196,43892,1,0,0:0:0:0:
260,192,43978,1,0,0:0:0:0:
260,196,44035,1,0,0:0:0:0:
260,196,44092,1,0,0:0:0:0:
264,192,44150,1,8,0:0:0:0:
256,192,44321,1,0,0:0:0:0:
256,192,44492,1,12,0:0:0:0:
256,196,44835,1,4,0:0:0:0:
256,196,45007,1,8,0:0:0:0:
260,196,45092,1,8,0:0:0:0:
260,192,45178,1,0,0:0:0:0:
260,196,45350,1,0,0:0:0:0:
260,196,45521,1,8,0:0:0:0:
260,196,45692,1,0,0:0:0:0:
260,192,45778,1,0,0:0:0:0:
260,196,45864,1,8,0:0:0:0:
260,196,46035,1,0,0:0:0:0:
260,196,46207,1,8,0:0:0:0:
260,196,46292,1,0,0:0:0:0:
260,196,46378,1,8,0:0:0:0:
256,196,46464,1,8,0:0:0:0:
264,192,46550,1,0,0:0:0:0:
264,192,46721,1,8,0:0:0:0:
264,192,46892,1,0,0:0:0:0:
260,192,46978,1,0,0:0:0:0:
260,196,47064,1,8,0:0:0:0:
260,196,47235,1,0,0:0:0:0:
260,196,47407,1,8,0:0:0:0:
260,192,47578,1,0,0:0:0:0:
264,192,47750,1,8,0:0:0:0:
260,196,47835,1,8,0:0:0:0:
260,196,47921,1,0,0:0:0:0:
264,192,48092,1,8,0:0:0:0:
264,192,48178,1,0,0:0:0:0:
264,192,48264,1,0,0:0:0:0:
264,192,48435,1,0,0:0:0:0:
264,192,48607,1,8,0:0:0:0:
264,192,48778,1,0,0:0:0:0:
264,192,48950,1,8,0:0:0:0:
264,192,49035,1,8,0:0:0:0:
264,192,49121,1,0,0:0:0:0:
264,192,49207,1,0,0:0:0:0:
268,192,49292,1,8,0:0:0:0:
264,192,49464,1,8,0:0:0:0:
268,192,49635,1,0,0:0:0:0:
268,192,49721,1,0,0:0:0:0:
268,192,49807,1,8,0:0:0:0:
268,192,49892,1,8,0:0:0:0:
268,192,49978,1,0,0:0:0:0:
264,192,50150,1,12,0:0:0:0:
264,192,50492,1,8,0:0:0:0:
264,192,50578,1,8,0:0:0:0:
264,192,50664,1,0,0:0:0:0:
268,192,50835,1,8,0:0:0:0:
264,192,51007,1,0,0:0:0:0:
268,192,51092,1,0,0:0:0:0:
264,192,51178,1,8,0:0:0:0:
268,192,51350,1,0,0:0:0:0:
268,192,51521,1,8,0:0:0:0:
268,192,51607,1,8,0:0:0:0:
264,192,51692,1,0,0:0:0:0:
264,192,51864,1,8,0:0:0:0:
264,192,52035,1,0,0:0:0:0:
264,192,52121,1,8,0:0:0:0:
264,192,52207,1,8,0:0:0:0:
264,192,52378,1,0,0:0:0:0:
268,192,52464,1,0,0:0:0:0:
268,192,52550,1,8,0:0:0:0:
264,192,52635,1,8,0:0:0:0:
264,192,52721,1,0,0:0:0:0:
268,192,52892,1,8,0:0:0:0:
264,188,53235,1,8,0:0:0:0:
268,192,53321,1,8,0:0:0:0:
268,192,53407,1,0,0:0:0:0:
264,192,53578,1,8,0:0:0:0:
264,192,53750,1,0,0:0:0:0:
264,192,53835,1,8,0:0:0:0:
264,192,53921,1,8,0:0:0:0:
264,192,54007,1,8,0:0:0:0:
268,192,54092,1,0,0:0:0:0:
268,192,54264,1,8,0:0:0:0:
268,192,54350,1,0,0:0:0:0:
268,192,54435,1,0,0:0:0:0:
260,188,54607,1,8,0:0:0:0:
264,188,54778,1,0,0:0:0:0:
260,188,54864,1,8,0:0:0:0:
264,188,54950,1,0,0:0:0:0:
264,188,55035,1,0,0:0:0:0:
268,192,55121,1,8,0:0:0:0:
268,192,55207,1,8,0:0:0:0:
268,192,55292,1,0,0:0:0:0:
264,192,55464,1,12,0:0:0:0:
268,192,55807,1,4,0:0:0:0:
256,196,55978,1,8,0:0:0:0:
260,196,56063,1,8,0:0:0:0:
260,192,56149,1,0,0:0:0:0:
260,196,56321,1,0,0:0:0:0:
260,196,56492,1,8,0:0:0:0:
260,196,56663,1,0,0:0:0:0:
260,192,56749,1,0,0:0:0:0:
260,196,56835,1,8,0:0:0:0:
260,196,57006,1,0,0:0:0:0:
260,196,57178,1,8,0:0:0:0:
260,196,57263,1,8,0:0:0:0:
260,196,57349,1,0,0:0:0:0:
256,196,57435,1,0,0:0:0:0:
264,192,57521,1,8,0:0:0:0:
264,192,57692,1,0,0:0:0:0:
264,192,57863,1,8,0:0:0:0:
260,192,57949,1,0,0:0:0:0:
260,196,58035,1,0,0:0:0:0:
260,196,58206,1,8,0:0:0:0:
260,196,58378,1,8,0:0:0:0:
260,192,58550,1,0,0:0:0:0:
264,192,58721,1,8,0:0:0:0:
260,196,58806,1,8,0:0:0:0:
260,196,58892,1,0,0:0:0:0:
264,192,59063,1,0,0:0:0:0:
264,192,59149,1,0,0:0:0:0:
264,192,59235,1,8,0:0:0:0:
264,192,59406,1,0,0:0:0:0:
264,192,59578,1,8,0:0:0:0:
264,192,59749,1,8,0:0:0:0:
264,192,59921,1,8,0:0:0:0:
264,192,60006,1,0,0:0:0:0:
264,192,60092,1,0,0:0:0:0:
264,192,60178,1,8,0:0:0:0:
268,192,60263,1,8,0:0:0:0:
264,192,60435,1,8,0:0:0:0:
268,192,60606,1,8,0:0:0:0:
268,192,60692,1,0,0:0:0:0:
268,192,60778,1,0,0:0:0:0:
268,192,60863,1,8,0:0:0:0:
268,192,60949,1,0,0:0:0:0:
264,192,61121,1,12,0:0:0:0:
264,192,61464,1,8,0:0:0:0:
264,192,61550,1,8,0:0:0:0:
264,192,61636,1,0,0:0:0:0:
268,192,61807,1,8,0:0:0:0:
264,192,61979,1,0,0:0:0:0:
268,192,62064,1,8,0:0:0:0:
264,192,62150,1,8,0:0:0:0:
268,192,62321,1,0,0:0:0:0:
268,192,62493,1,8,0:0:0:0:
268,192,62579,1,8,0:0:0:0:
264,192,62664,1,0,0:0:0:0:
264,192,62836,1,8,0:0:0:0:
264,192,63007,1,0,0:0:0:0:
264,192,63093,1,0,0:0:0:0:
264,192,63179,1,8,0:0:0:0:
264,192,63350,1,0,0:0:0:0:
268,192,63436,1,8,0:0:0:0:
268,192,63522,1,8,0:0:0:0:
264,192,63607,1,8,0:0:0:0:
264,192,63693,1,0,0:0:0:0:
268,192,63864,1,8,0:0:0:0:
264,188,64207,1,8,0:0:0:0:
268,192,64293,1,8,0:0:0:0:
268,192,64379,1,0,0:0:0:0:
264,192,64550,1,8,0:0:0:0:
264,192,64722,1,0,0:0:0:0:
264,192,64807,1,8,0:0:0:0:
264,192,64893,1,8,0:0:0:0:
264,192,64978,1,0,0:0:0:0:
268,192,65064,1,0,0:0:0:0:
268,192,65236,1,8,0:0:0:0:
268,192,65321,1,0,0:0:0:0:
268,192,65407,1,8,0:0:0:0:
260,188,65579,1,8,0:0:0:0:
264,188,65750,1,0,0:0:0:0:
260,188,65836,1,8,0:0:0:0:
264,188,65922,1,0,0:0:0:0:
264,188,66007,1,8,0:0:0:0:
268,192,66092,1,8,0:0:0:0:
268,192,66179,1,8,0:0:0:0:
268,192,66264,1,0,0:0:0:0:
264,192,66436,1,12,0:0:0:0:
264,192,66778,1,4,0:0:0:0:
268,192,67121,1,0,0:0:0:0:
264,192,67292,1,0,0:0:0:0:
264,188,67464,1,8,0:0:0:0:
264,188,67635,1,0,0:0:0:0:
264,188,67807,1,8,0:0:0:0:
268,192,67978,1,8,0:0:0:0:
264,192,68150,1,0,0:0:0:0:
264,192,68492,1,0,0:0:0:0:
268,192,68835,1,8,0:0:0:0:
268,188,69178,1,0,0:0:0:0:
268,188,69350,1,8,0:0:0:0:
264,188,69521,1,0,0:0:0:0:
268,192,69692,1,8,0:0:0:0:
268,192,69778,1,8,0:0:0:0:
264,192,69864,1,0,0:0:0:0:
264,192,70035,1,8,0:0:0:0:
268,188,70207,1,0,0:0:0:0:
264,192,70378,1,8,0:0:0:0:
268,192,70550,1,8,0:0:0:0:
264,192,70607,1,8,0:0:0:0:
268,188,70664,1,8,0:0:0:0:
268,188,70721,1,8,0:0:0:0:
268,188,70892,1,4,0:0:0:0:
268,188,71235,1,4,0:0:0:0:
272,188,71578,1,12,0:0:0:0:
264,192,71750,1,0,0:0:0:0:
264,192,71835,1,0,0:0:0:0:
280,192,71921,1,8,0:0:0:0:
280,188,72007,1,8,0:0:0:0:
280,188,72092,1,8,0:0:0:0:
280,188,72178,1,8,0:0:0:0:
268,188,72607,1,12,0:0:0:0:
268,188,72778,1,0,0:0:0:0:
276,192,72864,1,0,0:0:0:0:
268,188,72950,1,8,0:0:0:0:
272,188,73121,1,0,0:0:0:0:
272,188,73292,1,8,0:0:0:0:
276,188,73464,1,8,0:0:0:0:
272,192,73550,1,8,0:0:0:0:
272,188,73635,1,0,0:0:0:0:
272,184,73807,1,0,0:0:0:0:
272,184,73892,1,0,0:0:0:0:
272,184,73978,1,8,0:0:0:0:
272,188,74150,1,0,0:0:0:0:
272,188,74321,1,8,0:0:0:0:
272,184,74492,1,0,0:0:0:0:
272,184,74578,1,0,0:0:0:0:
272,184,74664,1,8,0:0:0:0:
272,184,74750,1,8,0:0:0:0:
272,184,74835,1,8,0:0:0:0:
276,188,75007,1,4,0:0:0:0:
272,184,75178,1,0,0:0:0:0:
272,184,75264,1,0,0:0:0:0:
272,184,75350,1,8,0:0:0:0:
272,184,75521,1,8,0:0:0:0:
272,184,75607,1,0,0:0:0:0:
272,184,75692,1,0,0:0:0:0:
272,184,75778,1,8,0:0:0:0:
272,188,75864,1,0,0:0:0:0:
272,188,76035,1,8,0:0:0:0:
272,188,76121,1,0,0:0:0:0:
272,184,76207,1,8,0:0:0:0:
272,184,76378,1,0,0:0:0:0:
264,184,76721,1,0,0:0:0:0:
260,184,76892,1,8,0:0:0:0:
264,184,76978,1,8,0:0:0:0:
260,184,77064,1,0,0:0:0:0:
260,184,77235,1,0,0:0:0:0:
264,184,77321,1,8,0:0:0:0:
260,184,77407,1,8,0:0:0:0:
272,184,77578,1,8,0:0:0:0:
268,180,77750,1,4,0:0:0:0:
268,184,77921,1,8,0:0:0:0:
268,180,78092,1,0,0:0:0:0:
256,184,78178,1,0,0:0:0:0:
264,184,78264,1,8,0:0:0:0:
264,184,78435,1,0,0:0:0:0:
264,180,78607,1,8,0:0:0:0:
264,184,78778,1,0,0:0:0:0:
260,184,78864,1,0,0:0:0:0:
264,180,78950,1,8,0:0:0:0:
264,184,79121,1,0,0:0:0:0:
264,184,79292,1,0,0:0:0:0:
264,184,79464,1,0,0:0:0:0:
264,184,79635,1,0,0:0:0:0:
264,184,79807,1,0,0:0:0:0:
264,184,79892,1,0,0:0:0:0:
264,184,79978,1,0,0:0:0:0:
268,180,80064,1,0,0:0:0:0:
268,180,80150,1,8,0:0:0:0:
264,184,80235,1,0,0:0:0:0:
264,180,80321,1,8,0:0:0:0:
264,180,80407,1,8,0:0:0:0:
272,184,80492,1,0,0:0:0:0:
272,184,80664,1,0,0:0:0:0:
272,184,80750,1,0,0:0:0:0:
268,184,80835,1,8,0:0:0:0:
264,184,81007,1,8,0:0:0:0:
264,180,81092,1,0,0:0:0:0:
264,184,81178,1,8,0:0:0:0:
264,184,81264,1,8,0:0:0:0:
264,184,81350,1,0,0:0:0:0:
264,176,81521,1,12,0:0:0:0:
268,180,81864,1,4,0:0:0:0:
264,184,82035,1,8,0:0:0:0:
268,184,82121,1,8,0:0:0:0:
264,180,82207,1,0,0:0:0:0:
272,184,82378,1,8,0:0:0:0:
260,176,82550,1,0,0:0:0:0:
260,176,82635,1,0,0:0:0:0:
260,176,82721,1,8,0:0:0:0:
264,180,82892,1,8,0:0:0:0:
256,176,82978,1,0,0:0:0:0:
264,184,83064,1,8,0:0:0:0:
264,180,83150,1,8,0:0:0:0:
264,180,83235,1,0,0:0:0:0:
252,172,83407,1,8,0:0:0:0:
252,172,83578,1,0,0:0:0:0:
260,172,83664,1,8,0:0:0:0:
264,184,83750,1,0,0:0:0:0:
260,176,83835,1,0,0:0:0:0:
264,180,83921,1,8,0:0:0:0:
256,176,84007,1,8,0:0:0:0:
256,176,84092,1,0,0:0:0:0:
256,176,84178,1,8,0:0:0:0:
260,176,84264,1,0,0:0:0:0:
244,172,84435,1,0,0:0:0:0:
244,172,84521,1,0,0:0:0:0:
244,172,84607,1,8,0:0:0:0:
260,176,84778,1,0,0:0:0:0:
264,180,84950,1,8,0:0:0:0:
264,180,85035,1,0,0:0:0:0:
264,176,85207,1,0,0:0:0:0:
260,176,85292,1,8,0:0:0:0:
252,172,85378,1,8,0:0:0:0:
260,172,85464,1,0,0:0:0:0:
260,172,85550,1,0,0:0:0:0:
252,176,85635,1,8,0:0:0:0:
264,184,85807,1,0,0:0:0:0:
264,184,85978,1,8,0:0:0:0:
260,172,86150,1,0,0:0:0:0:
260,172,86235,1,8,0:0:0:0:
260,172,86321,1,8,0:0:0:0:
260,176,86492,1,8,0:0:0:0:
260,176,86578,1,0,0:0:0:0:
264,180,86664,1,0,0:0:0:0:
256,176,86835,1,8,0:0:0:0:
256,176,86921,1,8,0:0:0:0:
256,176,87007,1,0,0:0:0:0:
260,176,87092,1,0,0:0:0:0:
260,172,87178,1,8,0:0:0:0:
264,172,87350,1,4,0:0:0:0:
260,172,87521,1,0,0:0:0:0:
260,168,87692,1,8,0:0:0:0:
260,172,87864,1,0,0:0:0:0:
260,172,87950,1,0,0:0:0:0:
260,172,88035,1,8,0:0:0:0:
260,168,88207,1,0,0:0:0:0:
264,168,88378,1,8,0:0:0:0:
264,168,88464,1,0,0:0:0:0:
264,168,88550,1,8,0:0:0:0:
256,168,88635,1,8,0:0:0:0:
264,168,88721,1,0,0:0:0:0:
260,168,88892,1,8,0:0:0:0:
260,172,88978,1,0,0:0:0:0:
260,168,89064,1,0,0:0:0:0:
260,172,89235,1,8,0:0:0:0:
268,168,89407,1,8,0:0:0:0:
264,168,89492,1,8,0:0:0:0:
264,168,89578,1,8,0:0:0:0:
264,168,89664,1,8,0:0:0:0:
264,168,89750,1,0,0:0:0:0:
272,172,89921,1,8,0:0:0:0:
272,172,90092,1,0,0:0:0:0:
272,172,90264,1,0,0:0:0:0:
272,172,90350,1,0,0:0:0:0:
272,172,90435,1,8,0:0:0:0:
272,168,90607,1,8,0:0:0:0:
272,168,90692,1,8,0:0:0:0:
272,168,90778,1,0,0:0:0:0:
272,168,90950,1,8,0:0:0:0:
268,168,91121,1,0,0:0:0:0:
272,172,91207,1,8,0:0:0:0:
264,168,91292,1,8,0:0:0:0:
272,172,91464,1,0,0:0:0:0:
260,168,91635,1,8,0:0:0:0:
260,168,91721,1,0,0:0:0:0:
260,168,91807,1,8,0:0:0:0:
260,168,91978,1,0,0:0:0:0:
252,168,92064,1,8,0:0:0:0:
260,168,92150,1,0,0:0:0:0:
264,168,92235,1,0,0:0:0:0:
264,168,92321,1,8,0:0:0:0:
264,168,92492,1,0,0:0:0:0:
256,168,92664,1,8,0:0:0:0:
260,168,92835,1,4,0:0:0:0:
264,168,93007,1,8,0:0:0:0:
264,168,93092,1,8,0:0:0:0:
264,168,93178,1,0,0:0:0:0:
264,168,93350,1,8,0:0:0:0:
264,168,93521,1,0,0:0:0:0:
260,164,93607,1,0,0:0:0:0:
260,168,93692,1,8,0:0:0:0:
256,164,93864,1,8,0:0:0:0:
256,164,93950,1,8,0:0:0:0:
256,160,94035,1,0,0:0:0:0:
256,160,94121,1,8,0:0:0:0:
256,160,94207,1,8,0:0:0:0:
264,164,94378,1,0,0:0:0:0:
260,160,94550,1,8,0:0:0:0:
256,160,94635,1,0,0:0:0:0:
256,160,94721,1,0,0:0:0:0:
256,160,94892,1,8,0:0:0:0:
256,160,95064,1,0,0:0:0:0:
256,160,95150,1,8,0:0:0:0:
256,160,95235,1,0,0:0:0:0:
264,160,95407,1,8,0:0:0:0:
264,160,95492,1,0,0:0:0:0:
264,160,95578,1,8,0:0:0:0:
256,164,95750,1,0,0:0:0:0:
256,160,95921,1,8,0:0:0:0:
256,160,96007,1,0,0:0:0:0:
264,164,96178,1,0,0:0:0:0:
268,160,96264,1,8,0:0:0:0:
264,160,96435,1,8,0:0:0:0:
264,160,96521,1,8,0:0:0:0:
264,160,96607,1,0,0:0:0:0:
256,160,96692,1,0,0:0:0:0:
256,160,96778,1,8,0:0:0:0:
256,160,96950,1,0,0:0:0:0:
264,160,97121,1,8,0:0:0:0:
264,160,97207,1,8,0:0:0:0:
264,160,97292,1,0,0:0:0:0:
272,164,97464,1,8,0:0:0:0:
272,164,97550,1,0,0:0:0:0:
284,172,97721,1,0,0:0:0:0:
280,168,97807,1,8,0:0:0:0:
260,168,97892,1,8,0:0:0:0:
260,168,97978,1,0,0:0:0:0:
260,168,98150,1,8,0:0:0:0:
280,168,98321,1,4,0:0:0:0:
264,172,98492,1,8,0:0:0:0:
264,172,98578,1,0,0:0:0:0:
264,172,98664,1,0,0:0:0:0:
268,172,98835,1,0,0:0:0:0:
256,188,99007,1,8,0:0:0:0:
256,188,99178,1,8,0:0:0:0:
256,188,99264,1,8,0:0:0:0:
256,188,99350,1,0,0:0:0:0:
256,176,99521,1,8,0:0:0:0:
256,176,99692,1,0,0:0:0:0:
256,176,99778,1,0,0:0:0:0:
272,188,99864,1,8,0:0:0:0:
260,180,100035,1,8,0:0:0:0:
260,180,100207,1,0,0:0:0:0:
260,184,100292,1,0,0:0:0:0:
264,184,100378,1,8,0:0:0:0:
264,184,100464,1,0,0:0:0:0:
264,184,100550,1,8,0:0:0:0:
264,184,100721,1,0,0:0:0:0:
256,176,100807,1,8,0:0:0:0:
256,176,100892,1,0,0:0:0:0:
260,184,101064,1,8,0:0:0:0:
260,184,101235,1,8,0:0:0:0:
260,184,101321,1,8,0:0:0:0:
260,184,101407,1,0,0:0:0:0:
256,180,101578,1,8,0:0:0:0:
256,180,101664,1,0,0:0:0:0:
256,184,101835,1,0,0:0:0:0:
256,184,101921,1,8,0:0:0:0:
252,184,102007,1,8,0:0:0:0:
252,184,102092,1,0,0:0:0:0:
256,184,102264,1,8,0:0:0:0:
252,184,102435,1,0,0:0:0:0:
252,184,102607,1,8,0:0:0:0:
256,184,102692,1,8,0:0:0:0:
252,184,102778,1,0,0:0:0:0:
256,176,102950,1,0,0:0:0:0:
260,184,103035,1,0,0:0:0:0:
260,184,103121,1,8,0:0:0:0:
260,180,103292,1,8,0:0:0:0:
256,180,103378,1,8,0:0:0:0:
256,180,103464,1,0,0:0:0:0:
256,180,103550,1,0,0:0:0:0:
260,180,103635,1,8,0:0:0:0:
260,180,103807,1,4,0:0:0:0:
260,180,104150,1,12,0:0:0:0:
256,184,104321,1,0,0:0:0:0:
260,184,104407,1,0,0:0:0:0:
256,176,104492,1,8,0:0:0:0:
260,184,104664,1,0,0:0:0:0:
260,184,104750,1,0,0:0:0:0:
260,184,104835,1,8,0:0:0:0:
260,180,105007,1,8,0:0:0:0:
256,180,105178,1,0,0:0:0:0:
256,184,105350,1,8,0:0:0:0:
252,180,105435,1,8,0:0:0:0:
252,180,105521,1,0,0:0:0:0:
244,188,105607,1,8,0:0:0:0:
244,184,105692,1,0,0:0:0:0:
240,184,105778,1,0,0:0:0:0:
240,184,105864,1,8,0:0:0:0:
240,184,105950,1,8,0:0:0:0:
240,180,106035,1,0,0:0:0:0:
240,180,106121,1,8,0:0:0:0:
244,180,106292,1,8,0:0:0:0:
244,180,106378,1,0,0:0:0:0:
240,180,106550,1,0,0:0:0:0:
236,180,106721,1,0,0:0:0:0:
236,180,106807,1,0,0:0:0:0:
240,184,106892,1,8,0:0:0:0:
236,180,107064,1,0,0:0:0:0:
236,180,107150,1,8,0:0:0:0:
236,180,107235,1,8,0:0:0:0:
232,184,107321,1,0,0:0:0:0:
232,176,107407,1,8,0:0:0:0:
232,176,107492,1,0,0:0:0:0:
232,176,107578,1,8,0:0:0:0:
240,184,107750,1,8,0:0:0:0:
240,180,107921,1,0,0:0:0:0:
232,184,108092,1,8,0:0:0:0:
232,184,108178,1,8,0:0:0:0:
232,184,108264,1,0,0:0:0:0:
228,176,108435,1,8,0:0:0:0:
228,176,108521,1,0,0:0:0:0:
228,176,108607,1,0,0:0:0:0:
240,184,108692,1,8,0:0:0:0:
236,180,108778,1,8,0:0:0:0:
228,180,108864,1,0,0:0:0:0:
232,180,108950,1,8,0:0:0:0:
232,184,109121,1,0,0:0:0:0:
236,180,109292,1,8,0:0:0:0:
224,184,109464,1,0,0:0:0:0:
224,184,109550,1,0,0:0:0:0:
224,184,109635,1,8,0:0:0:0:
224,184,109807,1,8,0:0:0:0:
224,184,109892,1,0,0:0:0:0:
228,192,109978,1,0,0:0:0:0:
224,184,110150,1,8,0:0:0:0:
224,188,110321,1,0,0:0:0:0:
224,188,110492,1,0,0:0:0:0:
224,188,110578,1,8,0:0:0:0:
224,188,110664,1,8,0:0:0:0:
224,188,110835,1,8,0:0:0:0:
224,188,110921,1,8,0:0:0:0:
224,188,111007,1,0,0:0:0:0:
224,184,111178,1,0,0:0:0:0:
224,184,111350,1,8,0:0:0:0:
224,184,111435,1,8,0:0:0:0:
224,184,111521,1,8,0:0:0:0:
224,184,111607,1,8,0:0:0:0:
232,184,111692,1,0,0:0:0:0:
232,184,111864,1,8,0:0:0:0:
228,184,112035,1,0,0:0:0:0:
232,184,112207,1,8,0:0:0:0:
228,184,112292,1,8,0:0:0:0:
228,184,112378,1,0,0:0:0:0:
228,184,112550,1,0,0:0:0:0:
228,184,112635,1,8,0:0:0:0:
232,184,112721,1,8,0:0:0:0:
232,184,112892,1,0,0:0:0:0:
232,184,113064,1,8,0:0:0:0:
236,184,113235,1,0,0:0:0:0:
232,184,113321,1,0,0:0:0:0:
236,184,113407,1,8,0:0:0:0:
232,184,113492,1,0,0:0:0:0:
232,184,113578,1,8,0:0:0:0:
240,184,113664,1,8,0:0:0:0:
236,184,113750,1,0,0:0:0:0:
232,184,113921,1,0,0:0:0:0:
232,184,114007,1,0,0:0:0:0:
232,184,114092,1,8,0:0:0:0:
240,184,114264,1,8,0:0:0:0:
240,184,114350,1,0,0:0:0:0:
240,184,114435,1,8,0:0:0:0:
240,184,114521,1,8,0:0:0:0:
240,184,114607,1,0,0:0:0:0:
240,184,114778,1,12,0:0:0:0:
240,184,115121,1,8,0:0:0:0:
240,184,115292,1,0,0:0:0:0:
240,184,115464,1,0,0:0:0:0:
240,176,115550,1,0,0:0:0:0:
240,176,115635,1,8,0:0:0:0:
240,176,115807,1,8,0:0:0:0:
240,176,115892,1,8,0:0:0:0:
240,176,115978,1,0,0:0:0:0:
240,176,116064,1,8,0:0:0:0:
244,180,116150,1,0,0:0:0:0:
244,180,116321,1,8,0:0:0:0:
240,184,116492,1,8,0:0:0:0:
240,180,116664,1,0,0:0:0:0:
240,180,116750,1,0,0:0:0:0:
240,184,116835,1,8,0:0:0:0:
240,184,117007,1,0,0:0:0:0:
240,184,117178,1,8,0:0:0:0:
244,184,117264,1,0,0:0:0:0:
248,180,117350,1,0,0:0:0:0:
248,180,117435,1,8,0:0:0:0:
244,180,117521,1,8,0:0:0:0:
240,176,117692,1,8,0:0:0:0:
240,176,117778,1,8,0:0:0:0:
240,176,117864,1,0,0:0:0:0:
256,184,118035,1,8,0:0:0:0:
244,180,118121,1,0,0:0:0:0:
248,184,118207,1,8,0:0:0:0:
244,184,118378,1,8,0:0:0:0:
244,184,118550,1,0,0:0:0:0:
248,184,118635,1,0,0:0:0:0:
244,180,118721,1,8,0:0:0:0:
244,180,118807,1,8,0:0:0:0:
244,180,118893,1,0,0:0:0:0:
252,176,119064,1,0,0:0:0:0:
248,180,119150,1,0,0:0:0:0:
248,180,119235,1,8,0:0:0:0:
256,180,119407,1,0,0:0:0:0:
256,180,119578,1,12,0:0:0:0:
256,184,119835,1,12,0:0:0:0:
256,184,120092,1,12,0:0:0:0:
256,184,120264,1,4,0:0:0:0:
252,184,120435,1,0,0:0:0:0:
256,184,120607,1,8,0:0:0:0:
256,180,120778,1,0,0:0:0:0:
256,180,120864,1,8,0:0:0:0:
256,180,120950,1,8,0:0:0:0:
260,180,121121,1,0,0:0:0:0:
260,180,121292,1,8,0:0:0:0:
256,184,121464,1,0,0:0:0:0:
260,180,121550,1,8,0:0:0:0:
260,184,121635,1,0,0:0:0:0:
260,176,121807,1,8,0:0:0:0:
252,180,121978,1,0,0:0:0:0:
252,180,122064,1,0,0:0:0:0:
252,184,122150,1,8,0:0:0:0:
268,180,122321,1,0,0:0:0:0:
248,180,122492,1,8,0:0:0:0:
248,180,122578,1,8,0:0:0:0:
248,180,122663,1,0,0:0:0:0:
248,180,122749,1,0,0:0:0:0:
248,180,122835,1,8,0:0:0:0:
264,184,123007,1,0,0:0:0:0:
256,176,123093,1,0,0:0:0:0:
256,176,123178,1,8,0:0:0:0:
260,184,123350,1,0,0:0:0:0:
260,184,123521,1,8,0:0:0:0:
260,184,123607,1,8,0:0:0:0:
260,184,123693,1,0,0:0:0:0:
256,180,123864,1,8,0:0:0:0:
256,180,124035,1,8,0:0:0:0:
256,184,124121,1,0,0:0:0:0:
256,184,124207,1,8,0:0:0:0:
252,184,124378,1,0,0:0:0:0:
260,184,124464,1,0,0:0:0:0:
256,184,124550,1,8,0:0:0:0:
252,184,124721,1,8,0:0:0:0:
252,176,124807,1,0,0:0:0:0:
256,184,124892,1,8,0:0:0:0:
256,184,124978,1,8,0:0:0:0:
252,184,125064,1,0,0:0:0:0:
260,184,125150,1,8,0:0:0:0:
256,176,125236,1,0,0:0:0:0:
260,184,125321,1,0,0:0:0:0:
260,184,125407,1,8,0:0:0:0:
260,184,125492,1,0,0:0:0:0:
260,180,125578,1,8,0:0:0:0:
260,180,125750,1,4,0:0:0:0:
256,196,126092,1,0,0:0:0:0:
248,192,126264,1,8,0:0:0:0:
256,196,126435,1,0,0:0:0:0:
256,196,126607,1,0,0:0:0:0:
256,196,126693,1,0,0:0:0:0:
256,196,126778,1,8,0:0:0:0:
256,196,126949,1,8,0:0:0:0:
256,196,127121,1,0,0:0:0:0:
256,196,127292,1,8,0:0:0:0:
256,196,127378,1,8,0:0:0:0:
256,196,127464,1,0,0:0:0:0:
256,196,127635,1,8,0:0:0:0:
256,196,127807,1,0,0:0:0:0:
256,196,127978,1,8,0:0:0:0:
256,196,128064,1,0,0:0:0:0:
256,196,128149,1,8,0:0:0:0:
256,196,128235,1,8,0:0:0:0:
256,196,128321,1,0,0:0:0:0:
256,196,128492,1,4,0:0:0:0:
256,196,128664,1,8,0:0:0:0:
256,196,128750,1,0,0:0:0:0:
256,196,128835,1,0,0:0:0:0:
256,196,129007,1,8,0:0:0:0:
256,196,129178,1,0,0:0:0:0:
256,196,129349,1,8,0:0:0:0:
256,196,129435,1,0,0:0:0:0:
256,196,129521,1,0,0:0:0:0:
256,196,129692,1,8,0:0:0:0:
256,196,129864,1,0,0:0:0:0:
256,196,130035,1,8,0:0:0:0:
256,196,130121,1,8,0:0:0:0:
256,196,130207,1,0,0:0:0:0:
256,196,130378,1,8,0:0:0:0:
256,196,130549,1,0,0:0:0:0:
256,196,130721,1,8,0:0:0:0:
256,196,130806,1,8,0:0:0:0:
256,196,130892,1,0,0:0:0:0:
256,196,131064,1,8,0:0:0:0:
256,196,131235,1,4,0:0:0:0:
256,196,131407,1,8,0:0:0:0:
256,196,131492,1,0,0:0:0:0:
256,196,131578,1,0,0:0:0:0:
256,196,131750,1,8,0:0:0:0:
256,196,131921,1,0,0:0:0:0:
256,196,132093,1,0,0:0:0:0:
256,196,132179,1,0,0:0:0:0:
256,196,132264,1,8,0:0:0:0:
256,196,132435,1,8,0:0:0:0:
256,196,132607,1,0,0:0:0:0:
256,196,132778,1,8,0:0:0:0:
256,196,132864,1,0,0:0:0:0:
256,196,132950,1,0,0:0:0:0:
256,196,133121,1,8,0:0:0:0:
256,196,133293,1,0,0:0:0:0:
256,196,133464,1,8,0:0:0:0:
256,196,133550,1,8,0:0:0:0:
256,196,133635,1,0,0:0:0:0:
256,196,133721,1,0,0:0:0:0:
256,196,133807,1,8,0:0:0:0:
260,196,133978,1,4,0:0:0:0:
256,196,134149,1,0,0:0:0:0:
256,196,134235,1,0,0:0:0:0:
256,196,134321,1,8,0:0:0:0:
256,196,134492,1,8,0:0:0:0:
256,196,134664,1,0,0:0:0:0:
256,196,134835,1,8,0:0:0:0:
256,196,134921,1,8,0:0:0:0:
256,196,135007,1,0,0:0:0:0:
256,196,135178,1,8,0:0:0:0:
256,196,135349,1,0,0:0:0:0:
256,196,135521,1,8,0:0:0:0:
256,196,135607,1,0,0:0:0:0:
260,196,135692,1,0,0:0:0:0:
256,196,135864,1,0,0:0:0:0:
256,196,135949,1,8,0:0:0:0:
256,196,136035,1,8,0:0:0:0:
256,196,136207,1,8,0:0:0:0:
256,196,136378,1,4,0:0:0:0:
256,196,136721,1,4,0:0:0:0:
256,196,136892,1,0,0:0:0:0:
256,196,137064,1,8,0:0:0:0:
256,196,137235,1,8,0:0:0:0:
256,196,137321,1,8,0:0:0:0:
256,196,137407,1,0,0:0:0:0:
256,196,137578,1,0,0:0:0:0:
256,196,137664,1,0,0:0:0:0:
256,196,137750,1,8,0:0:0:0:
256,196,137921,1,0,0:0:0:0:
256,196,138092,1,8,0:0:0:0:
256,196,138178,1,0,0:0:0:0:
256,196,138264,1,0,0:0:0:0:
256,196,138349,1,8,0:0:0:0:
256,196,138435,1,8,0:0:0:0:
256,196,138607,1,0,0:0:0:0:
256,196,138778,1,8,0:0:0:0:
256,196,138949,1,0,0:0:0:0:
256,196,139035,1,0,0:0:0:0:
256,196,139121,1,8,0:0:0:0:
256,196,139292,1,8,0:0:0:0:
256,192,139464,1,0,0:0:0:0:
260,192,139635,1,0,0:0:0:0:
260,196,139807,1,8,0:0:0:0:
260,196,139978,1,8,0:0:0:0:
260,200,140064,1,8,0:0:0:0:
260,196,140149,1,0,0:0:0:0:
256,196,140321,1,0,0:0:0:0:
260,200,140407,1,8,0:0:0:0:
264,196,140492,1,8,0:0:0:0:
256,196,140664,1,0,0:0:0:0:
264,200,140835,1,8,0:0:0:0:
264,200,140921,1,0,0:0:0:0:
264,200,141007,1,0,0:0:0:0:
264,200,141092,1,8,0:0:0:0:
264,200,141178,1,0,0:0:0:0:
256,200,141264,1,8,0:0:0:0:
260,196,141349,1,8,0:0:0:0:
260,196,141521,1,0,0:0:0:0:
260,196,141607,1,0,0:0:0:0:
260,196,141692,1,8,0:0:0:0:
260,200,141864,1,0,0:0:0:0:
256,196,142035,1,8,0:0:0:0:
256,196,142207,1,0,0:0:0:0:
264,196,142378,1,0,0:0:0:0:
264,200,142549,1,8,0:0:0:0:
264,200,142721,1,8,0:0:0:0:
264,200,142807,1,8,0:0:0:0:
264,200,142892,1,0,0:0:0:0:
264,200,143064,1,0,0:0:0:0:
264,200,143149,1,0,0:0:0:0:
264,200,143235,1,8,0:0:0:0:
264,200,143407,1,0,0:0:0:0:
260,200,143578,1,8,0:0:0:0:
260,200,143664,1,0,0:0:0:0:
264,200,143749,1,0,0:0:0:0:
264,200,143835,1,8,0:0:0:0:
264,200,143921,1,8,0:0:0:0:
256,196,144092,1,0,0:0:0:0:
256,196,144263,1,8,0:0:0:0:
256,196,144350,1,0,0:0:0:0:
256,196,144434,1,0,0:0:0:0:
256,196,144520,1,0,0:0:0:0:
256,196,144606,1,8,0:0:0:0:
256,196,144692,1,8,0:0:0:0:
256,196,144778,1,0,0:0:0:0:
264,200,144950,1,12,0:0:0:0:
264,200,145121,1,4,0:0:0:0:
264,200,145464,1,12,0:0:0:0:
264,200,145635,1,4,0:0:0:0:
264,200,145978,1,12,0:0:0:0:
264,200,146149,1,4,0:0:0:0:
264,200,146492,1,12,0:0:0:0:
264,200,146663,1,4,0:0:0:0:
264,200,147007,1,12,0:0:0:0:
264,200,147178,1,4,0:0:0:0:
264,200,147350,1,12,0:0:0:0:
256,196,147692,1,4,0:0:0:0:
256,196,147864,1,8,0:0:0:0:
260,196,147949,1,8,0:0:0:0:
260,192,148035,1,0,0:0:0:0:
260,196,148207,1,0,0:0:0:0:
260,196,148378,1,8,0:0:0:0:
260,196,148550,1,0,0:0:0:0:
260,192,148635,1,0,0:0:0:0:
260,196,148721,1,8,0:0:0:0:
260,196,148892,1,0,0:0:0:0:
260,196,149064,1,8,0:0:0:0:
260,196,149149,1,0,0:0:0:0:
260,196,149235,1,8,0:0:0:0:
256,196,149321,1,8,0:0:0:0:
264,192,149407,1,8,0:0:0:0:
264,192,149578,1,0,0:0:0:0:
264,192,149749,1,0,0:0:0:0:
260,192,149835,1,0,0:0:0:0:
260,196,149921,1,8,0:0:0:0:
260,196,150092,1,0,0:0:0:0:
260,196,150264,1,8,0:0:0:0:
260,196,150350,1,8,0:0:0:0:
260,192,150435,1,0,0:0:0:0:
264,192,150607,1,8,0:0:0:0:
260,196,150778,1,0,0:0:0:0:
260,196,150864,1,0,0:0:0:0:
264,192,150950,1,8,0:0:0:0:
264,192,151035,1,0,0:0:0:0:
264,192,151121,1,8,0:0:0:0:
268,196,151207,1,8,0:0:0:0:
264,192,151292,1,0,0:0:0:0:
264,192,151464,1,8,0:0:0:0:
264,192,151635,1,8,0:0:0:0:
264,192,151807,1,0,0:0:0:0:
264,192,151892,1,8,0:0:0:0:
264,192,151978,1,0,0:0:0:0:
264,192,152064,1,0,0:0:0:0:
268,192,152149,1,8,0:0:0:0:
264,192,152321,1,0,0:0:0:0:
268,192,152492,1,8,0:0:0:0:
268,192,152578,1,8,0:0:0:0:
268,192,152664,1,0,0:0:0:0:
268,192,152749,1,8,0:0:0:0:
268,192,152835,1,0,0:0:0:0:
264,192,153007,1,12,0:0:0:0:
264,192,153349,1,8,0:0:0:0:
264,192,153435,1,0,0:0:0:0:
264,192,153521,1,0,0:0:0:0:
268,192,153692,1,8,0:0:0:0:
264,192,153864,1,0,0:0:0:0:
268,192,153949,1,0,0:0:0:0:
264,192,154035,1,8,0:0:0:0:
268,192,154207,1,0,0:0:0:0:
268,192,154378,1,8,0:0:0:0:
268,192,154464,1,8,0:0:0:0:
264,192,154549,1,0,0:0:0:0:
264,192,154721,1,8,0:0:0:0:
264,192,154892,1,0,0:0:0:0:
264,192,154978,1,8,0:0:0:0:
264,192,155064,1,8,0:0:0:0:
264,192,155235,1,8,0:0:0:0:
268,192,155321,1,0,0:0:0:0:
268,192,155407,1,0,0:0:0:0:
264,192,155492,1,8,0:0:0:0:
264,192,155578,1,0,0:0:0:0:
268,192,155750,1,8,0:0:0:0:
264,188,156092,1,8,0:0:0:0:
268,192,156178,1,8,0:0:0:0:
268,192,156264,1,0,0:0:0:0:
264,192,156435,1,8,0:0:0:0:
264,192,156607,1,0,0:0:0:0:
264,192,156692,1,0,0:0:0:0:
264,192,156778,1,8,0:0:0:0:
264,192,156864,1,8,0:0:0:0:
268,192,156949,1,0,0:0:0:0:
268,192,157121,1,8,0:0:0:0:
268,192,157207,1,0,0:0:0:0:
268,192,157292,1,8,0:0:0:0:
260,188,157464,1,8,0:0:0:0:
264,188,157635,1,0,0:0:0:0:
260,188,157721,1,8,0:0:0:0:
264,188,157807,1,0,0:0:0:0:
264,188,157892,1,8,0:0:0:0:
268,192,157978,1,8,0:0:0:0:
268,192,158064,1,0,0:0:0:0:
268,192,158149,1,0,0:0:0:0:
264,192,158321,1,12,0:0:0:0:
268,192,158664,1,4,0:0:0:0:
256,196,158835,1,8,0:0:0:0:
260,196,158920,1,8,0:0:0:0:
260,192,159006,1,0,0:0:0:0:
260,196,159178,1,0,0:0:0:0:
260,196,159349,1,8,0:0:0:0:
260,196,159520,1,0,0:0:0:0:
260,192,159606,1,0,0:0:0:0:
260,196,159692,1,8,0:0:0:0:
260,196,159863,1,0,0:0:0:0:
260,196,160035,1,8,0:0:0:0:
260,196,160120,1,8,0:0:0:0:
260,196,160207,1,8,0:0:0:0:
256,196,160292,1,0,0:0:0:0:
264,192,160378,1,8,0:0:0:0:
264,192,160549,1,0,0:0:0:0:
264,192,160720,1,0,0:0:0:0:
260,192,160806,1,0,0:0:0:0:
260,196,160892,1,8,0:0:0:0:
260,196,161063,1,0,0:0:0:0:
260,196,161235,1,8,0:0:0:0:
264,192,161321,1,8,0:0:0:0:
260,192,161407,1,0,0:0:0:0:
260,196,161578,1,8,0:0:0:0:
260,196,161749,1,0,0:0:0:0:
260,196,161835,1,8,0:0:0:0:
264,192,161920,1,8,0:0:0:0:
264,192,162006,1,0,0:0:0:0:
264,192,162092,1,0,0:0:0:0:
264,192,162178,1,8,0:0:0:0:
264,192,162263,1,0,0:0:0:0:
264,192,162435,1,8,0:0:0:0:
264,192,162606,1,8,0:0:0:0:
264,192,162778,1,0,0:0:0:0:
264,192,162863,1,8,0:0:0:0:
264,192,162949,1,0,0:0:0:0:
264,192,163035,1,8,0:0:0:0:
268,192,163120,1,8,0:0:0:0:
264,192,163292,1,0,0:0:0:0:
268,192,163463,1,8,0:0:0:0:
268,192,163549,1,0,0:0:0:0:
268,192,163635,1,8,0:0:0:0:
268,192,163720,1,0,0:0:0:0:
268,192,163806,1,0,0:0:0:0:
264,192,163978,1,12,0:0:0:0:
264,192,164321,1,8,0:0:0:0:
264,192,164407,1,8,0:0:0:0:
264,192,164493,1,0,0:0:0:0:
268,192,164664,1,8,0:0:0:0:
264,192,164836,1,0,0:0:0:0:
268,192,164921,1,0,0:0:0:0:
264,192,165007,1,8,0:0:0:0:
268,192,165178,1,0,0:0:0:0:
268,192,165350,1,8,0:0:0:0:
268,192,165436,1,0,0:0:0:0:
264,192,165521,1,0,0:0:0:0:
264,192,165693,1,8,0:0:0:0:
264,192,165864,1,0,0:0:0:0:
264,192,165950,1,0,0:0:0:0:
264,192,166036,1,8,0:0:0:0:
264,192,166207,1,0,0:0:0:0:
268,192,166293,1,8,0:0:0:0:
268,192,166379,1,8,0:0:0:0:
264,192,166464,1,0,0:0:0:0:
264,192,166550,1,0,0:0:0:0:
268,192,166721,1,8,0:0:0:0:
264,188,167064,1,8,0:0:0:0:
268,192,167150,1,8,0:0:0:0:
268,192,167236,1,0,0:0:0:0:
264,192,167407,1,8,0:0:0:0:
264,192,167578,1,8,0:0:0:0:
264,192,167664,1,0,0:0:0:0:
264,192,167750,1,8,0:0:0:0:
264,192,167835,1,8,0:0:0:0:
268,192,167921,1,0,0:0:0:0:
268,192,168093,1,0,0:0:0:0:
268,192,168178,1,0,0:0:0:0:
268,192,168264,1,8,0:0:0:0:
260,188,168436,1,8,0:0:0:0:
264,188,168607,1,8,0:0:0:0:
260,188,168693,1,8,0:0:0:0:
264,188,168779,1,0,0:0:0:0:
264,188,168864,1,8,0:0:0:0:
268,192,168949,1,0,0:0:0:0:
268,192,169036,1,0,0:0:0:0:
268,192,169121,1,0,0:0:0:0:
264,192,169293,1,12,0:0:0:0:
264,192,169635,1,4,0:0:0:0:
268,192,169978,1,0,0:0:0:0:
264,192,170149,1,0,0:0:0:0:
264,188,170321,1,8,0:0:0:0:
264,188,170492,1,0,0:0:0:0:
264,188,170664,1,8,0:0:0:0:
268,192,170835,1,8,0:0:0:0:
264,192,171007,1,0,0:0:0:0:
264,192,171349,1,0,0:0:0:0:
268,192,171692,1,8,0:0:0:0:
268,188,172035,1,0,0:0:0:0:
268,188,172207,1,8,0:0:0:0:
264,188,172378,1,0,0:0:0:0:
268,192,172549,1,8,0:0:0:0:
264,192,172635,1,8,0:0:0:0:
264,192,172721,1,0,0:0:0:0:
264,192,172892,1,8,0:0:0:0:
268,188,173064,1,0,0:0:0:0:
264,192,173235,1,8,0:0:0:0:
268,192,173407,1,8,0:0:0:0:
264,192,173464,1,8,0:0:0:0:
268,188,173521,1,8,0:0:0:0:
268,188,173578,1,8,0:0:0:0:
268,188,173749,1,4,0:0:0:0:
268,188,174092,1,4,0:0:0:0:
272,188,174435,1,12,0:0:0:0:
264,192,174607,1,0,0:0:0:0:
264,192,174692,1,0,0:0:0:0:
280,192,174778,1,8,0:0:0:0:
280,188,174864,1,8,0:0:0:0:
280,188,174949,1,8,0:0:0:0:
280,188,175035,1,8,0:0:0:0:
268,188,175464,1,12,0:0:0:0:
268,188,175635,1,0,0:0:0:0:
276,192,175721,1,0,0:0:0:0:
268,188,175807,1,8,0:0:0:0:
272,188,175978,1,0,0:0:0:0:
272,188,176149,1,8,0:0:0:0:
276,188,176321,1,8,0:0:0:0:
272,192,176407,1,8,0:0:0:0:
272,188,176492,1,0,0:0:0:0:
272,184,176578,1,0,0:0:0:0:
272,188,176664,1,8,0:0:0:0:
272,184,176749,1,0,0:0:0:0:
272,184,176835,1,8,0:0:0:0:
272,188,177007,1,0,0:0:0:0:
272,188,177178,1,8,0:0:0:0:
272,184,177349,1,0,0:0:0:0:
272,184,177435,1,0,0:0:0:0:
272,184,177521,1,8,0:0:0:0:
272,184,177607,1,8,0:0:0:0:
272,184,177692,1,8,0:0:0:0:
276,188,177864,1,4,0:0:0:0:
272,184,178035,1,0,0:0:0:0:
272,184,178121,1,0,0:0:0:0:
272,184,178207,1,8,0:0:0:0:
272,184,178378,1,8,0:0:0:0:
272,184,178464,1,0,0:0:0:0:
272,184,178549,1,8,0:0:0:0:
272,184,178635,1,8,0:0:0:0:
272,188,178721,1,0,0:0:0:0:
272,188,178892,1,8,0:0:0:0:
272,188,178978,1,0,0:0:0:0:
272,184,179064,1,8,0:0:0:0:
272,184,179235,1,0,0:0:0:0:
264,184,179578,1,0,0:0:0:0:
260,184,179749,1,8,0:0:0:0:
264,184,179835,1,8,0:0:0:0:
260,184,179921,1,0,0:0:0:0:
260,184,180092,1,0,0:0:0:0:
264,184,180178,1,0,0:0:0:0:
260,184,180264,1,8,0:0:0:0:
272,184,180435,1,8,0:0:0:0:
268,180,180607,1,4,0:0:0:0:
268,184,180778,1,8,0:0:0:0:
256,184,180864,1,8,0:0:0:0:
268,180,180949,1,0,0:0:0:0:
264,184,181121,1,8,0:0:0:0:
264,184,181292,1,0,0:0:0:0:
264,180,181464,1,8,0:0:0:0:
260,184,181550,1,8,0:0:0:0:
264,184,181635,1,0,0:0:0:0:
264,180,181807,1,8,0:0:0:0:
264,184,181978,1,0,0:0:0:0:
264,184,182149,1,0,0:0:0:0:
264,184,182321,1,0,0:0:0:0:
264,184,182492,1,0,0:0:0:0:
264,184,182664,1,0,0:0:0:0:
264,184,182749,1,0,0:0:0:0:
264,184,182835,1,0,0:0:0:0:
268,180,182921,1,0,0:0:0:0:
268,180,183007,1,8,0:0:0:0:
264,184,183092,1,0,0:0:0:0:
264,180,183178,1,0,0:0:0:0:
264,180,183264,1,8,0:0:0:0:
272,184,183349,1,0,0:0:0:0:
272,184,183521,1,0,0:0:0:0:
272,184,183607,1,0,0:0:0:0:
268,184,183692,1,8,0:0:0:0:
264,184,183864,1,8,0:0:0:0:
264,180,183950,1,0,0:0:0:0:
264,184,184035,1,8,0:0:0:0:
264,184,184121,1,8,0:0:0:0:
264,184,184207,1,0,0:0:0:0:
264,176,184378,1,12,0:0:0:0:
264,188,184721,1,4,0:0:0:0:
264,184,184892,1,8,0:0:0:0:
268,184,184978,1,8,0:0:0:0:
264,180,185064,1,0,0:0:0:0:
272,184,185235,1,8,0:0:0:0:
260,176,185407,1,0,0:0:0:0:
260,176,185492,1,0,0:0:0:0:
260,176,185578,1,8,0:0:0:0:
264,180,185750,1,8,0:0:0:0:
256,176,185835,1,0,0:0:0:0:
264,184,185921,1,0,0:0:0:0:
264,180,186007,1,8,0:0:0:0:
264,180,186092,1,0,0:0:0:0:
252,172,186264,1,8,0:0:0:0:
252,172,186435,1,8,0:0:0:0:
260,172,186521,1,0,0:0:0:0:
264,184,186607,1,8,0:0:0:0:
256,180,186692,1,8,0:0:0:0:
264,180,186778,1,0,0:0:0:0:
264,180,186864,1,0,0:0:0:0:
256,176,186949,1,8,0:0:0:0:
256,176,187035,1,8,0:0:0:0:
260,176,187121,1,0,0:0:0:0:
244,172,187292,1,0,0:0:0:0:
264,180,187378,1,0,0:0:0:0:
244,172,187464,1,8,0:0:0:0:
260,176,187635,1,0,0:0:0:0:
264,180,187807,1,8,0:0:0:0:
264,180,187892,1,0,0:0:0:0:
264,176,188064,1,0,0:0:0:0:
260,176,188149,1,8,0:0:0:0:
252,172,188235,1,0,0:0:0:0:
260,172,188321,1,8,0:0:0:0:
252,176,188407,1,0,0:0:0:0:
252,176,188492,1,8,0:0:0:0:
264,184,188664,1,0,0:0:0:0:
264,184,188835,1,8,0:0:0:0:
260,172,189007,1,0,0:0:0:0:
260,172,189092,1,8,0:0:0:0:
260,172,189178,1,8,0:0:0:0:
260,176,189349,1,8,0:0:0:0:
260,176,189435,1,8,0:0:0:0:
264,180,189521,1,0,0:0:0:0:
256,176,189692,1,0,0:0:0:0:
256,176,189778,1,8,0:0:0:0:
256,176,189864,1,0,0:0:0:0:
260,176,189949,1,0,0:0:0:0:
260,172,190035,1,8,0:0:0:0:
264,172,190207,1,4,0:0:0:0:
260,172,190378,1,0,0:0:0:0:
260,168,190549,1,8,0:0:0:0:
260,172,190721,1,0,0:0:0:0:
260,172,190807,1,0,0:0:0:0:
260,172,190892,1,8,0:0:0:0:
260,168,191064,1,0,0:0:0:0:
264,168,191235,1,8,0:0:0:0:
264,168,191321,1,0,0:0:0:0:
264,168,191407,1,8,0:0:0:0:
256,168,191492,1,0,0:0:0:0:
264,168,191578,1,8,0:0:0:0:
252,164,191664,1,8,0:0:0:0:
260,168,191749,1,0,0:0:0:0:
260,172,191835,1,8,0:0:0:0:
260,168,191921,1,0,0:0:0:0:
260,172,192092,1,8,0:0:0:0:
268,168,192264,1,8,0:0:0:0:
264,168,192349,1,0,0:0:0:0:
264,168,192435,1,8,0:0:0:0:
264,168,192521,1,8,0:0:0:0:
264,168,192607,1,0,0:0:0:0:
272,172,192778,1,8,0:0:0:0:
272,172,192949,1,0,0:0:0:0:
272,172,193121,1,0,0:0:0:0:
272,172,193207,1,8,0:0:0:0:
272,172,193292,1,8,0:0:0:0:
272,168,193464,1,8,0:0:0:0:
272,168,193549,1,0,0:0:0:0:
272,168,193635,1,0,0:0:0:0:
272,168,193807,1,8,0:0:0:0:
268,168,193978,1,0,0:0:0:0:
272,172,194064,1,8,0:0:0:0:
264,168,194149,1,0,0:0:0:0:
272,172,194321,1,8,0:0:0:0:
260,168,194492,1,0,0:0:0:0:
260,168,194578,1,0,0:0:0:0:
260,168,194664,1,8,0:0:0:0:
260,168,194835,1,8,0:0:0:0:
252,168,194921,1,8,0:0:0:0:
260,168,195007,1,0,0:0:0:0:
264,168,195092,1,0,0:0:0:0:
264,168,195178,1,8,0:0:0:0:
264,168,195264,1,8,0:0:0:0:
264,168,195349,1,0,0:0:0:0:
256,168,195521,1,8,0:0:0:0:
260,168,195692,1,4,0:0:0:0:
264,168,195864,1,8,0:0:0:0:
264,168,195949,1,8,0:0:0:0:
264,168,196035,1,0,0:0:0:0:
264,168,196207,1,8,0:0:0:0:
264,168,196378,1,0,0:0:0:0:
260,164,196464,1,0,0:0:0:0:
260,168,196549,1,8,0:0:0:0:
256,164,196721,1,8,0:0:0:0:
256,164,196807,1,8,0:0:0:0:
256,160,196892,1,8,0:0:0:0:
256,160,196978,1,0,0:0:0:0:
256,160,197064,1,8,0:0:0:0:
264,164,197235,1,0,0:0:0:0:
260,160,197407,1,8,0:0:0:0:
256,160,197492,1,8,0:0:0:0:
256,160,197578,1,0,0:0:0:0:
256,160,197749,1,8,0:0:0:0:
256,160,197921,1,0,0:0:0:0:
256,160,198007,1,8,0:0:0:0:
256,160,198092,1,0,0:0:0:0:
264,160,198178,1,0,0:0:0:0:
264,160,198264,1,8,0:0:0:0:
264,160,198349,1,0,0:0:0:0:
264,160,198435,1,8,0:0:0:0:
264,160,198521,1,8,0:0:0:0:
256,164,198607,1,0,0:0:0:0:
256,160,198778,1,8,0:0:0:0:
256,160,198864,1,0,0:0:0:0:
264,164,199035,1,0,0:0:0:0:
268,160,199121,1,8,0:0:0:0:
264,160,199292,1,8,0:0:0:0:
264,160,199378,1,0,0:0:0:0:
264,160,199464,1,0,0:0:0:0:
256,160,199549,1,8,0:0:0:0:
256,160,199635,1,8,0:0:0:0:
256,160,199807,1,0,0:0:0:0:
264,160,199978,1,8,0:0:0:0:
264,160,200064,1,0,0:0:0:0:
264,160,200149,1,0,0:0:0:0:
272,164,200321,1,8,0:0:0:0:
272,164,200407,1,0,0:0:0:0:
284,172,200578,1,8,0:0:0:0:
280,168,200664,1,8,0:0:0:0:
260,168,200750,1,8,0:0:0:0:
260,168,200835,1,0,0:0:0:0:
260,168,201007,1,8,0:0:0:0:
280,168,201178,1,4,0:0:0:0:
264,172,201349,1,8,0:0:0:0:
264,172,201435,1,0,0:0:0:0:
264,172,201521,1,0,0:0:0:0:
268,172,201692,1,0,0:0:0:0:
256,188,201864,1,8,0:0:0:0:
256,188,202035,1,0,0:0:0:0:
256,188,202121,1,8,0:0:0:0:
256,188,202207,1,8,0:0:0:0:
256,176,202378,1,8,0:0:0:0:
256,176,202549,1,0,0:0:0:0:
256,176,202635,1,0,0:0:0:0:
272,188,202721,1,8,0:0:0:0:
260,180,202892,1,8,0:0:0:0:
272,184,202978,1,0,0:0:0:0:
260,180,203064,1,8,0:0:0:0:
260,184,203149,1,8,0:0:0:0:
264,184,203235,1,0,0:0:0:0:
264,184,203321,1,0,0:0:0:0:
264,184,203407,1,8,0:0:0:0:
256,176,203578,1,0,0:0:0:0:
264,184,203664,1,0,0:0:0:0:
256,176,203749,1,8,0:0:0:0:
260,184,203921,1,0,0:0:0:0:
260,184,204092,1,8,0:0:0:0:
260,184,204178,1,8,0:0:0:0:
260,184,204264,1,0,0:0:0:0:
256,180,204435,1,8,0:0:0:0:
256,180,204521,1,0,0:0:0:0:
256,184,204692,1,0,0:0:0:0:
256,184,204778,1,8,0:0:0:0:
252,184,204864,1,8,0:0:0:0:
252,184,204949,1,0,0:0:0:0:
256,184,205121,1,8,0:0:0:0:
252,184,205292,1,0,0:0:0:0:
252,184,205464,1,8,0:0:0:0:
256,184,205549,1,0,0:0:0:0:
252,184,205635,1,0,0:0:0:0:
256,176,205807,1,0,0:0:0:0:
260,184,205892,1,0,0:0:0:0:
260,184,205978,1,8,0:0:0:0:
260,180,206149,1,0,0:0:0:0:
256,180,206235,1,8,0:0:0:0:
256,180,206321,1,0,0:0:0:0:
256,180,206407,1,0,0:0:0:0:
260,180,206492,1,8,0:0:0:0:
260,180,206664,1,4,0:0:0:0:
260,180,207007,1,12,0:0:0:0:
256,180,207178,1,8,0:0:0:0:
256,180,207264,1,8,0:0:0:0:
256,184,207350,1,0,0:0:0:0:
260,180,207521,1,0,0:0:0:0:
260,180,207607,1,0,0:0:0:0:
260,184,207692,1,8,0:0:0:0:
260,180,207864,1,8,0:0:0:0:
256,180,208035,1,0,0:0:0:0:
256,180,208207,1,8,0:0:0:0:
260,180,208292,1,8,0:0:0:0:
260,180,208378,1,0,0:0:0:0:
260,180,208464,1,8,0:0:0:0:
260,180,208550,1,8,0:0:0:0:
260,180,208635,1,0,0:0:0:0:
260,180,208721,1,8,0:0:0:0:
260,180,208807,1,8,0:0:0:0:
264,184,208892,1,0,0:0:0:0:
264,180,208978,1,8,0:0:0:0:
264,184,209150,1,8,0:0:0:0:
260,180,209235,1,0,0:0:0:0:
268,184,209407,1,0,0:0:0:0:
268,184,209578,1,0,0:0:0:0:
268,184,209664,1,0,0:0:0:0:
268,184,209750,1,8,0:0:0:0:
268,188,209921,1,0,0:0:0:0:
268,188,210007,1,8,0:0:0:0:
268,188,210092,1,8,0:0:0:0:
268,188,210178,1,0,0:0:0:0:
268,188,210264,1,8,0:0:0:0:
272,188,210350,1,0,0:0:0:0:
272,188,210435,1,0,0:0:0:0:
272,184,210521,1,8,0:0:0:0:
268,184,210607,1,8,0:0:0:0:
272,184,210778,1,0,0:0:0:0:
276,192,210950,1,8,0:0:0:0:
276,192,211035,1,8,0:0:0:0:
280,188,211121,1,0,0:0:0:0:
284,188,211292,1,8,0:0:0:0:
284,188,211464,1,0,0:0:0:0:
280,188,211550,1,0,0:0:0:0:
276,188,211635,1,8,0:0:0:0:
276,188,211721,1,0,0:0:0:0:
276,188,211892,1,0,0:0:0:0:
276,188,211978,1,8,0:0:0:0:
272,188,212150,1,4,0:0:0:0:
276,188,212492,1,12,0:0:0:0:
272,184,212663,1,8,0:0:0:0:
280,184,212749,1,8,0:0:0:0:
272,184,212834,1,0,0:0:0:0:
272,184,213006,1,0,0:0:0:0:
272,184,213092,1,0,0:0:0:0:
272,184,213177,1,8,0:0:0:0:
280,188,213349,1,8,0:0:0:0:
276,184,213520,1,0,0:0:0:0:
272,184,213692,1,8,0:0:0:0:
276,188,213778,1,0,0:0:0:0:
276,188,213863,1,0,0:0:0:0:
276,188,213949,1,8,0:0:0:0:
276,188,214034,1,8,0:0:0:0:
276,188,214120,1,0,0:0:0:0:
276,188,214206,1,8,0:0:0:0:
272,188,214292,1,8,0:0:0:0:
272,184,214377,1,0,0:0:0:0:
272,184,214463,1,8,0:0:0:0:
272,188,214635,1,8,0:0:0:0:
272,188,214720,1,0,0:0:0:0:
272,184,214892,1,8,0:0:0:0:
272,184,215064,1,0,0:0:0:0:
288,188,215150,1,8,0:0:0:0:
288,188,215235,1,0,0:0:0:0:
272,184,215407,1,0,0:0:0:0:
272,184,215492,1,0,0:0:0:0:
276,188,215578,1,8,0:0:0:0:
276,188,215664,1,0,0:0:0:0:
276,188,215750,1,8,0:0:0:0:
276,188,215835,1,8,0:0:0:0:
268,192,215921,1,0,0:0:0:0:
272,184,216007,1,0,0:0:0:0:
272,188,216092,1,8,0:0:0:0:
272,184,216264,1,0,0:0:0:0:
272,188,216435,1,0,0:0:0:0:
272,188,216521,1,8,0:0:0:0:
264,188,216607,1,8,0:0:0:0:
272,184,216778,1,0,0:0:0:0:
272,184,216950,1,8,0:0:0:0:
276,184,217035,1,0,0:0:0:0:
268,192,217121,1,8,0:0:0:0:
272,184,217207,1,8,0:0:0:0:
272,188,217292,1,0,0:0:0:0:
268,192,217378,1,8,0:0:0:0:
276,188,217464,1,8,0:0:0:0:
276,188,217635,1,12,0:0:0:0:
272,184,217978,1,4,0:0:0:0:
272,188,218150,1,8,0:0:0:0:
272,188,218235,1,8,0:0:0:0:
272,188,218321,1,0,0:0:0:0:
272,184,218492,1,8,0:0:0:0:
272,184,218578,1,8,0:0:0:0:
272,184,218664,1,0,0:0:0:0:
272,184,218835,1,0,0:0:0:0:
272,184,219007,1,8,0:0:0:0:
272,184,219178,1,0,0:0:0:0:
272,184,219264,1,0,0:0:0:0:
272,184,219350,1,8,0:0:0:0:
272,184,219435,1,0,0:0:0:0:
272,184,219521,1,8,0:0:0:0:
272,184,219607,1,8,0:0:0:0:
272,184,219692,1,0,0:0:0:0:
272,184,219778,1,8,0:0:0:0:
272,180,219864,1,8,0:0:0:0:
272,176,219950,1,0,0:0:0:0:
276,180,220035,1,0,0:0:0:0:
276,180,220121,1,8,0:0:0:0:
276,180,220207,1,8,0:0:0:0:
276,180,220378,1,0,0:0:0:0:
272,184,220550,1,8,0:0:0:0:
272,184,220635,1,8,0:0:0:0:
272,184,220721,1,0,0:0:0:0:
272,184,220892,1,0,0:0:0:0:
272,184,220978,1,0,0:0:0:0:
272,184,221064,1,8,0:0:0:0:
272,184,221150,1,0,0:0:0:0:
272,184,221235,1,0,0:0:0:0:
272,184,221321,1,8,0:0:0:0:
272,184,221407,1,8,0:0:0:0:
272,184,221492,1,8,0:0:0:0:
272,184,221578,1,0,0:0:0:0:
276,184,221664,1,0,0:0:0:0:
276,184,221750,1,8,0:0:0:0:
276,184,221921,1,8,0:0:0:0:
276,184,222007,1,8,0:0:0:0:
276,184,222092,1,0,0:0:0:0:
276,180,222178,1,0,0:0:0:0:
278,182,222264,1,8,0:0:0:0:
278,182,222435,1,4,0:0:0:0:
272,184,222692,1,4,0:0:0:0:
272,184,222950,1,12,0:0:0:0:
272,184,223121,1,4,0:0:0:0:
272,184,223292,1,0,0:0:0:0:
272,184,223378,1,0,0:0:0:0:
276,184,223464,1,8,0:0:0:0:
276,184,223635,1,8,0:0:0:0:
276,184,223721,1,8,0:0:0:0:
276,184,223807,1,0,0:0:0:0:
276,184,223892,1,8,0:0:0:0:
281,185,223978,1,0,0:0:0:0:
281,186,224064,1,8,0:0:0:0:
281,185,224150,1,8,0:0:0:0:
281,187,224235,1,0,0:0:0:0:
281,187,224321,1,0,0:0:0:0:
282,185,224407,1,8,0:0:0:0:
272,184,224492,1,8,0:0:0:0:
272,184,224664,1,0,0:0:0:0:
277,185,224750,1,8,0:0:0:0:
272,184,224921,1,8,0:0:0:0:
272,184,225007,1,0,0:0:0:0:
282,187,225178,1,0,0:0:0:0:
282,188,225264,1,0,0:0:0:0:
282,188,225350,1,8,0:0:0:0:
283,188,225435,1,0,0:0:0:0:
283,188,225521,1,8,0:0:0:0:
283,188,225607,1,0,0:0:0:0:
283,187,225692,1,0,0:0:0:0:
281,185,225778,1,0,0:0:0:0:
281,186,225864,1,8,0:0:0:0:
284,192,225950,1,8,0:0:0:0:
281,187,226035,1,0,0:0:0:0:
285,191,226207,1,8,0:0:0:0:
285,192,226292,1,0,0:0:0:0:
285,191,226464,1,0,0:0:0:0:
281,192,226550,1,8,0:0:0:0:
270,189,226635,1,0,0:0:0:0:
270,190,226721,1,0,0:0:0:0:
277,189,226807,1,8,0:0:0:0:
270,190,226892,1,8,0:0:0:0:
270,190,226978,1,0,0:0:0:0:
280,198,227064,1,0,0:0:0:0:
273,195,227150,1,8,0:0:0:0:
256,189,227235,1,8,0:0:0:0:
275,192,227321,1,0,0:0:0:0:
275,192,227407,1,8,0:0:0:0:
260,196,227578,1,0,0:0:0:0:
260,195,227664,1,8,0:0:0:0:
260,195,227750,1,0,0:0:0:0:
265,197,227835,1,0,0:0:0:0:
256,192,227921,1,8,0:0:0:0:
262,190,228607,1,4,0:0:0:0:
260,196,229292,1,8,0:0:0:0:
254,195,229978,1,0,0:0:0:0:
254,201,230321,1,8,0:0:0:0:
248,197,230492,1,0,0:0:0:0:
254,195,230578,1,0,0:0:0:0:
254,200,230664,1,8,0:0:0:0:
252,194,230835,1,8,0:0:0:0:
252,194,230921,1,8,0:0:0:0:
252,194,231007,1,8,0:0:0:0:
252,194,231092,1,0,0:0:0:0:
259,203,231178,1,8,0:0:0:0:
260,200,231350,1,0,0:0:0:0:
254,195,231521,1,8,0:0:0:0:
254,195,231607,1,8,0:0:0:0:
254,195,231692,1,0,0:0:0:0:
251,197,231864,1,0,0:0:0:0:
254,201,232035,1,0,0:0:0:0:
254,201,232121,1,0,0:0:0:0:
248,197,232207,1,0,0:0:0:0:
248,197,232292,1,0,0:0:0:0:
248,197,232378,1,8,0:0:0:0:
254,200,232464,1,8,0:0:0:0:
256,202,232550,1,8,0:0:0:0:
256,202,232721,1,4,0:0:0:0:
260,200,233064,1,4,0:0:0:0:
254,195,233407,1,12,0:0:0:0:
263,198,233750,1,0,0:0:0:0:
263,198,233921,1,8,0:0:0:0:
248,197,234092,2,0,L|327:197,4,70
254,195,235121,5,0,0:0:0:0:
267,203,235292,1,8,0:0:0:0:
263,198,235464,1,4,0:0:0:0:
263,198,235635,1,0,0:0:0:0:
263,198,235721,1,0,0:0:0:0:
263,198,235807,1,8,0:0:0:0:
265,200,235978,1,8,0:0:0:0:
264,203,236150,1,8,0:0:0:0:
254,195,236235,1,0,0:0:0:0:
268,202,236321,1,8,0:0:0:0:
260,201,236407,1,8,0:0:0:0:
260,200,236492,1,0,0:0:0:0:
260,200,236578,1,0,0:0:0:0:
262,195,236664,1,8,0:0:0:0:
260,200,236835,1,4,0:0:0:0:
263,198,237178,1,8,0:0:0:0:
272,204,237350,1,8,0:0:0:0:
263,198,237521,1,0,0:0:0:0:
265,200,237692,1,0,0:0:0:0:
265,200,237778,1,0,0:0:0:0:
264,203,237864,1,8,0:0:0:0:
264,203,237950,1,8,0:0:0:0:
265,206,238035,1,8,0:0:0:0:
265,205,238121,1,8,0:0:0:0:
265,205,238207,1,0,0:0:0:0:
267,205,238550,1,0,0:0:0:0:
265,203,238892,1,8,0:0:0:0:
270,206,239235,1,0,0:0:0:0:
270,206,239407,1,0,0:0:0:0:
270,206,239578,1,8,0:0:0:0:
265,210,239750,1,0,0:0:0:0:
265,206,239835,1,0,0:0:0:0:
265,205,239921,1,8,0:0:0:0:
267,205,240092,1,8,0:0:0:0:
273,209,240264,1,0,0:0:0:0:
265,203,240435,1,8,0:0:0:0:
270,206,240778,1,8,0:0:0:0:
270,206,241121,1,0,0:0:0:0:
260,177,241292,1,8,0:0:0:0:
284,209,241464,1,0,0:0:0:0:
257,198,241635,1,8,0:0:0:0:
257,198,241721,1,8,0:0:0:0:
258,198,241807,1,8,0:0:0:0:
258,198,241892,1,8,0:0:0:0:
258,198,241978,1,0,0:0:0:0:
258,198,242064,1,0,0:0:0:0:
258,198,242150,1,8,0:0:0:0:
259,198,242321,1,4,0:0:0:0:
263,198,242492,1,8,0:0:0:0:
256,195,242664,1,0,0:0:0:0:
254,192,242835,1,8,0:0:0:0:
262,201,242921,1,0,0:0:0:0:
262,201,243007,1,8,0:0:0:0:
262,201,243178,1,0,0:0:0:0:
262,201,243350,1,8,0:0:0:0:
260,195,243435,1,8,0:0:0:0:
257,198,243521,1,8,0:0:0:0:
258,198,243607,1,8,0:0:0:0:
258,198,243692,1,0,0:0:0:0:
259,198,244035,1,0,0:0:0:0:
258,198,244378,1,8,0:0:0:0:
256,198,244721,1,0,0:0:0:0:
256,198,244892,1,8,0:0:0:0:
260,195,245064,2,0,L|334:195,4,70
258,198,246092,5,0,0:0:0:0:
255,205,246264,1,8,0:0:0:0:
255,205,246435,1,0,0:0:0:0:
257,203,246607,1,0,0:0:0:0:
257,203,246692,1,0,0:0:0:0:
257,203,246778,1,8,0:0:0:0:
257,210,246950,1,8,0:0:0:0:
256,206,247121,1,0,0:0:0:0:
249,204,247292,1,8,0:0:0:0:
258,198,247378,1,8,0:0:0:0:
251,203,247464,1,0,0:0:0:0:
251,203,247550,1,0,0:0:0:0:
251,203,247635,1,8,0:0:0:0:
251,202,247807,1,0,0:0:0:0:
268,184,247978,1,8,0:0:0:0:
268,180,248149,1,0,0:0:0:0:
256,184,248235,1,0,0:0:0:0:
264,184,248321,1,8,0:0:0:0:
264,184,248492,1,0,0:0:0:0:
264,180,248664,1,8,0:0:0:0:
264,184,248835,1,0,0:0:0:0:
260,184,248921,1,0,0:0:0:0:
264,180,249007,1,8,0:0:0:0:
264,184,249178,1,0,0:0:0:0:
264,184,249349,1,8,0:0:0:0:
264,180,249435,1,8,0:0:0:0:
264,184,249521,1,0,0:0:0:0:
264,184,249692,1,8,0:0:0:0:
259,183,249864,1,0,0:0:0:0:
256,184,250035,1,8,0:0:0:0:
258,182,250121,1,8,0:0:0:0:
258,182,250207,1,0,0:0:0:0:
258,182,250378,1,8,0:0:0:0:
258,182,250550,1,0,0:0:0:0:
260,184,250721,1,8,0:0:0:0:
262,186,250807,1,0,0:0:0:0:
264,184,250892,1,8,0:0:0:0:
264,184,251064,1,0,0:0:0:0:
264,184,251150,1,0,0:0:0:0:
264,180,251235,1,8,0:0:0:0:
264,184,251321,1,8,0:0:0:0:
264,181,251407,1,0,0:0:0:0:
264,184,251492,1,8,0:0:0:0:
259,183,251578,1,0,0:0:0:0:
265,182,251750,1,8,0:0:0:0:
263,182,251921,1,0,0:0:0:0:
262,182,252092,1,8,0:0:0:0:
269,183,252178,1,8,0:0:0:0:
268,183,252264,1,0,0:0:0:0:
270,184,252435,1,0,0:0:0:0:
270,184,252521,1,8,0:0:0:0:
270,184,252607,1,0,0:0:0:0:
270,184,252692,1,0,0:0:0:0:
270,184,252778,1,8,0:0:0:0:
270,184,252864,1,8,0:0:0:0:
270,184,252950,1,0,0:0:0:0:
264,184,253121,1,8,0:0:0:0:
264,184,253292,1,0,0:0:0:0:
272,186,253464,1,8,0:0:0:0:
272,187,253550,1,8,0:0:0:0:
272,187,253635,1,0,0:0:0:0:
262,187,253807,1,8,0:0:0:0:
263,187,253978,1,0,0:0:0:0:
263,187,254064,1,0,0:0:0:0:
280,188,254150,1,8,0:0:0:0:
277,189,254235,1,8,0:0:0:0:
277,189,254321,1,0,0:0:0:0:
273,188,254492,1,8,0:0:0:0:
273,188,254664,1,0,0:0:0:0:
278,187,254835,1,8,0:0:0:0:
278,188,254921,1,0,0:0:0:0:
278,188,255007,1,8,0:0:0:0:
272,186,255178,1,8,0:0:0:0:
272,186,255264,1,0,0:0:0:0:
270,192,255350,1,0,0:0:0:0:
286,187,255435,1,8,0:0:0:0:
286,187,255521,1,8,0:0:0:0:
286,187,255607,1,0,0:0:0:0:
286,186,255692,1,0,0:0:0:0:
287,185,255864,1,8,0:0:0:0:
288,185,256035,1,0,0:0:0:0:
277,189,256121,1,0,0:0:0:0:
280,192,256207,1,8,0:0:0:0:
280,192,256292,1,0,0:0:0:0:
280,192,256378,1,8,0:0:0:0:
280,192,256464,1,8,0:0:0:0:
279,192,256550,1,0,0:0:0:0:
279,192,256635,1,8,0:0:0:0:
278,188,256721,1,0,0:0:0:0:
278,188,256807,1,0,0:0:0:0:
279,191,256892,1,8,0:0:0:0:
279,191,256978,1,8,0:0:0:0:
280,191,257064,1,0,0:0:0:0:
280,191,257150,1,0,0:0:0:0:
280,191,257235,1,8,0:0:0:0:
281,195,257578,1,4,0:0:0:0:
281,194,257750,1,4,0:0:0:0:
280,193,257921,1,4,0:0:0:0:
257,194,260150,1,8,0:0:0:0:
262,198,260835,1,0,0:0:0:0:
262,198,261007,1,0,0:0:0:0:
264,198,261178,1,8,0:0:0:0:
265,198,261350,1,8,0:0:0:0:
265,198,261521,1,0,0:0:0:0:
270,203,261864,1,0,0:0:0:0:
270,202,262035,1,8,0:0:0:0:
270,202,262207,1,0,0:0:0:0:
270,205,262550,1,8,0:0:0:0:
269,204,262721,1,0,0:0:0:0:
269,204,263064,1,0,0:0:0:0:
269,204,263235,1,8,0:0:0:0:
278,207,263578,1,8,0:0:0:0:
278,207,263750,1,0,0:0:0:0:
278,207,263921,1,8,0:0:0:0:
278,207,264092,1,8,0:0:0:0:
278,207,264264,1,0,0:0:0:0:
275,208,264435,1,0,0:0:0:0:
275,208,264607,1,8,0:0:0:0:
275,208,264778,1,0,0:0:0:0:
275,208,264950,1,0,0:0:0:0:
278,207,265121,1,0,0:0:0:0:
278,207,265292,1,8,0:0:0:0:
278,207,265464,1,8,0:0:0:0:
278,207,265635,1,0,0:0:0:0:
271,206,265721,1,0,0:0:0:0:
284,207,265807,1,8,0:0:0:0:
284,207,265892,1,8,0:0:0:0:
284,207,265978,1,0,0:0:0:0:
283,207,266064,1,8,0:0:0:0:
283,207,266150,1,8,0:0:0:0:
283,207,266235,1,0,0:0:0:0:
283,207,266321,1,8,0:0:0:0:
286,208,266407,1,8,0:0:0:0:
286,207,266492,1,0,0:0:0:0:
286,207,266550,1,0,0:0:0:0:
286,207,266607,1,0,0:0:0:0:
288,210,266664,1,8,0:0:0:0:
278,207,266835,1,8,0:0:0:0:
278,207,267007,1,4,0:0:0:0:
260,172,267178,1,8,0:0:0:0:
260,168,267264,1,8,0:0:0:0:
260,172,267350,1,0,0:0:0:0:
260,172,267521,1,0,0:0:0:0:
260,172,267607,1,0,0:0:0:0:
260,172,267692,1,8,0:0:0:0:
260,168,267864,1,0,0:0:0:0:
264,168,268035,1,8,0:0:0:0:
264,168,268121,1,0,0:0:0:0:
264,168,268207,1,8,0:0:0:0:
256,168,268292,1,8,0:0:0:0:
264,168,268378,1,0,0:0:0:0:
270,168,268464,1,0,0:0:0:0:
260,168,268549,1,8,0:0:0:0:
260,172,268635,1,8,0:0:0:0:
260,168,268721,1,0,0:0:0:0:
260,172,268892,1,8,0:0:0:0:
268,168,269064,1,8,0:0:0:0:
264,168,269150,1,0,0:0:0:0:
264,168,269235,1,8,0:0:0:0:
264,168,269321,1,8,0:0:0:0:
264,168,269407,1,0,0:0:0:0:
272,172,269578,1,8,0:0:0:0:
272,168,269664,1,8,0:0:0:0:
272,172,269749,1,0,0:0:0:0:
272,172,269921,1,0,0:0:0:0:
272,172,270007,1,0,0:0:0:0:
272,172,270092,1,8,0:0:0:0:
277,169,270178,1,0,0:0:0:0:
272,168,270264,1,8,0:0:0:0:
272,168,270349,1,8,0:0:0:0:
272,168,270435,1,0,0:0:0:0:
272,168,270607,1,8,0:0:0:0:
268,168,270778,1,0,0:0:0:0:
272,172,270864,1,8,0:0:0:0:
264,168,270949,1,8,0:0:0:0:
272,172,271121,1,0,0:0:0:0:
260,168,271292,1,8,0:0:0:0:
260,168,271378,1,0,0:0:0:0:
260,168,271464,1,0,0:0:0:0:
260,168,271635,1,8,0:0:0:0:
252,168,271721,1,8,0:0:0:0:
260,168,271807,1,0,0:0:0:0:
264,168,271892,1,8,0:0:0:0:
264,168,271978,1,8,0:0:0:0:
261,171,272064,1,8,0:0:0:0:
264,168,272149,1,0,0:0:0:0:
261,171,272235,1,0,0:0:0:0:
256,168,272321,1,8,0:0:0:0:
260,168,272492,1,4,0:0:0:0:
264,168,272664,1,8,0:0:0:0:
264,168,272749,1,8,0:0:0:0:
264,168,272835,1,0,0:0:0:0:
264,168,273007,1,8,0:0:0:0:
264,168,273178,1,0,0:0:0:0:
260,164,273264,1,0,0:0:0:0:
260,168,273349,1,8,0:0:0:0:
256,164,273521,1,8,0:0:0:0:
256,164,273607,1,0,0:0:0:0:
256,160,273692,1,0,0:0:0:0:
256,160,273778,1,8,0:0:0:0:
256,160,273864,1,8,0:0:0:0:
264,164,274035,1,0,0:0:0:0:
260,160,274207,1,8,0:0:0:0:
256,160,274292,1,8,0:0:0:0:
256,160,274378,1,0,0:0:0:0:
256,160,274549,1,8,0:0:0:0:
256,160,274721,1,0,0:0:0:0:
256,160,274807,1,0,0:0:0:0:
256,160,274892,1,8,0:0:0:0:
259,165,274978,1,0,0:0:0:0:
264,160,275064,1,8,0:0:0:0:
264,160,275149,1,8,0:0:0:0:
264,160,275235,1,0,0:0:0:0:
256,164,275321,1,8,0:0:0:0:
256,164,275407,1,8,0:0:0:0:
249,164,275492,1,0,0:0:0:0:
256,160,275578,1,8,0:0:0:0:
256,160,275664,1,0,0:0:0:0:
264,164,275835,1,0,0:0:0:0:
268,160,275921,1,8,0:0:0:0:
260,160,276007,1,0,0:0:0:0:
264,160,276092,1,8,0:0:0:0:
264,160,276178,1,8,0:0:0:0:
264,160,276264,1,0,0:0:0:0:
256,160,276349,1,0,0:0:0:0:
256,160,276435,1,8,0:0:0:0:
256,160,276607,1,0,0:0:0:0:
264,160,276778,1,8,0:0:0:0:
264,160,276864,1,8,0:0:0:0:
264,160,276949,1,0,0:0:0:0:
267,163,277035,1,0,0:0:0:0:
272,164,277121,1,8,0:0:0:0:
272,164,277207,1,0,0:0:0:0:
284,172,277378,1,0,0:0:0:0:
280,168,277464,1,8,0:0:0:0:
260,168,277549,1,8,0:0:0:0:
260,168,277635,1,0,0:0:0:0:
272,164,277721,1,0,0:0:0:0:
260,168,277807,1,8,0:0:0:0:
280,168,277978,1,4,0:0:0:0:
264,172,278149,1,8,0:0:0:0:
264,172,278235,1,0,0:0:0:0:
264,172,278321,1,0,0:0:0:0:
268,172,278492,1,0,0:0:0:0:
256,188,278664,1,8,0:0:0:0:
256,188,278835,1,8,0:0:0:0:
256,188,278921,1,8,0:0:0:0:
256,188,279007,1,0,0:0:0:0:
256,176,279178,1,8,0:0:0:0:
256,176,279349,1,0,0:0:0:0:
256,176,279435,1,0,0:0:0:0:
272,188,279521,1,8,0:0:0:0:
260,180,279692,1,0,0:0:0:0:
257,185,279778,1,8,0:0:0:0:
260,180,279864,1,8,0:0:0:0:
260,184,279949,1,0,0:0:0:0:
264,184,280035,1,0,0:0:0:0:
264,184,280121,1,8,0:0:0:0:
264,184,280207,1,8,0:0:0:0:
264,184,280378,1,0,0:0:0:0:
256,176,280464,1,0,0:0:0:0:
256,176,280549,1,8,0:0:0:0:
260,184,280721,1,0,0:0:0:0:
260,184,280892,1,8,0:0:0:0:
260,184,280978,1,8,0:0:0:0:
260,184,281064,1,0,0:0:0:0:
256,176,281150,1,0,0:0:0:0:
256,180,281235,1,8,0:0:0:0:
256,180,281321,1,8,0:0:0:0:
256,184,281492,1,0,0:0:0:0:
256,184,281578,1,8,0:0:0:0:
252,184,281664,1,8,0:0:0:0:
252,184,281749,1,0,0:0:0:0:
260,184,281835,1,8,0:0:0:0:
256,184,281921,1,8,0:0:0:0:
252,184,282092,1,0,0:0:0:0:
252,184,282264,1,8,0:0:0:0:
256,184,282349,1,8,0:0:0:0:
252,184,282435,1,0,0:0:0:0:
256,176,282607,1,0,0:0:0:0:
260,184,282692,1,0,0:0:0:0:
260,184,282778,1,8,0:0:0:0:
260,180,282949,1,8,0:0:0:0:
256,180,283035,1,8,0:0:0:0:
256,180,283121,1,0,0:0:0:0:
256,180,283207,1,0,0:0:0:0:
260,180,283292,1,8,0:0:0:0:
260,180,283464,1,4,0:0:0:0:
260,180,283807,1,12,0:0:0:0:
256,184,283978,1,0,0:0:0:0:
260,184,284064,1,0,0:0:0:0:
256,176,284149,1,8,0:0:0:0:
260,184,284321,1,0,0:0:0:0:
260,184,284407,1,0,0:0:0:0:
260,184,284492,1,8,0:0:0:0:
260,180,284664,1,8,0:0:0:0:
256,180,284835,1,0,0:0:0:0:
256,184,285007,1,8,0:0:0:0:
252,180,285092,1,8,0:0:0:0:
252,180,285178,1,0,0:0:0:0:
244,188,285264,1,8,0:0:0:0:
244,184,285349,1,8,0:0:0:0:
240,184,285435,1,0,0:0:0:0:
240,184,285521,1,8,0:0:0:0:
240,184,285607,1,0,0:0:0:0:
240,180,285692,1,0,0:0:0:0:
240,180,285778,1,8,0:0:0:0:
244,180,285949,1,8,0:0:0:0:
244,180,286035,1,0,0:0:0:0:
240,180,286207,1,0,0:0:0:0:
236,180,286378,1,0,0:0:0:0:
236,180,286464,1,0,0:0:0:0:
240,184,286549,1,8,0:0:0:0:
236,180,286721,1,0,0:0:0:0:
236,180,286807,1,8,0:0:0:0:
236,180,286892,1,0,0:0:0:0:
232,184,286978,1,0,0:0:0:0:
232,176,287064,1,8,0:0:0:0:
232,176,287149,1,8,0:0:0:0:
232,176,287235,1,8,0:0:0:0:
248,176,287321,1,0,0:0:0:0:
240,184,287407,1,8,0:0:0:0:
240,180,287578,1,0,0:0:0:0:
232,184,287749,1,8,0:0:0:0:
232,184,287835,1,8,0:0:0:0:
232,184,287921,1,0,0:0:0:0:
228,176,288092,1,8,0:0:0:0:
228,176,288178,1,0,0:0:0:0:
228,176,288264,1,0,0:0:0:0:
240,184,288349,1,8,0:0:0:0:
236,180,288435,1,8,0:0:0:0:
228,180,288521,1,0,0:0:0:0:
232,180,288607,1,8,0:0:0:0:
236,180,288692,1,8,0:0:0:0:
232,184,288778,1,0,0:0:0:0:
236,180,288949,1,8,0:0:0:0:
224,184,289121,1,0,0:0:0:0:
224,184,289207,1,0,0:0:0:0:
224,184,289292,1,8,0:0:0:0:
224,184,289464,1,8,0:0:0:0:
224,184,289549,1,8,0:0:0:0:
228,192,289635,1,0,0:0:0:0:
236,192,289721,1,0,0:0:0:0:
224,184,289807,1,8,0:0:0:0:
224,188,289978,1,0,0:0:0:0:
224,188,290149,1,0,0:0:0:0:
224,188,290235,1,8,0:0:0:0:
224,188,290321,1,8,0:0:0:0:
224,188,290492,1,8,0:0:0:0:
224,188,290578,1,8,0:0:0:0:
224,188,290664,1,0,0:0:0:0:
224,184,290835,1,0,0:0:0:0:
224,184,291007,1,8,0:0:0:0:
224,184,291092,1,0,0:0:0:0:
224,184,291178,1,8,0:0:0:0:
224,184,291264,1,8,0:0:0:0:
232,184,291349,1,0,0:0:0:0:
232,184,291521,1,8,0:0:0:0:
228,184,291692,1,0,0:0:0:0:
232,184,291864,1,8,0:0:0:0:
228,184,291949,1,0,0:0:0:0:
228,184,292035,1,0,0:0:0:0:
228,184,292207,1,0,0:0:0:0:
228,184,292292,1,0,0:0:0:0:
232,184,292378,1,8,0:0:0:0:
232,184,292549,1,0,0:0:0:0:
232,184,292721,1,8,0:0:0:0:
232,180,292807,1,8,0:0:0:0:
236,184,292892,1,0,0:0:0:0:
232,184,292978,1,0,0:0:0:0:
236,184,293064,1,8,0:0:0:0:
232,184,293149,1,0,0:0:0:0:
232,184,293235,1,8,0:0:0:0:
240,184,293321,1,8,0:0:0:0:
236,184,293407,1,0,0:0:0:0:
232,184,293578,1,0,0:0:0:0:
232,184,293664,1,0,0:0:0:0:
232,184,293749,1,8,0:0:0:0:
240,184,293921,1,8,0:0:0:0:
240,184,294007,1,8,0:0:0:0:
240,184,294092,1,0,0:0:0:0:
240,184,294178,1,8,0:0:0:0:
240,184,294264,1,0,0:0:0:0:
240,184,294435,1,12,0:0:0:0:
240,184,294778,1,8,0:0:0:0:
240,184,294949,1,0,0:0:0:0:
240,184,295121,1,0,0:0:0:0:
240,176,295207,1,0,0:0:0:0:
240,176,295292,1,8,0:0:0:0:
240,176,295464,1,8,0:0:0:0:
240,176,295549,1,8,0:0:0:0:
240,176,295635,1,0,0:0:0:0:
240,176,295721,1,8,0:0:0:0:
244,180,295807,1,8,0:0:0:0:
248,184,295892,1,0,0:0:0:0:
244,180,295978,1,8,0:0:0:0:
240,184,296149,1,8,0:0:0:0:
240,180,296321,1,0,0:0:0:0:
240,180,296407,1,0,0:0:0:0:
240,184,296492,1,8,0:0:0:0:
240,184,296664,1,0,0:0:0:0:
240,184,296835,1,8,0:0:0:0:
244,184,296921,1,0,0:0:0:0:
248,180,297007,1,0,0:0:0:0:
248,180,297092,1,8,0:0:0:0:
244,180,297178,1,8,0:0:0:0:
240,176,297349,1,8,0:0:0:0:
240,176,297435,1,8,0:0:0:0:
240,176,297521,1,0,0:0:0:0:
256,184,297692,1,8,0:0:0:0:
244,180,297778,1,0,0:0:0:0:
248,184,297864,1,8,0:0:0:0:
240,184,297950,1,0,0:0:0:0:
244,184,298035,1,8,0:0:0:0:
244,184,298207,1,8,0:0:0:0:
248,184,298292,1,0,0:0:0:0:
244,180,298378,1,8,0:0:0:0:
244,180,298464,1,8,0:0:0:0:
244,180,298550,1,0,0:0:0:0:
252,176,298721,1,0,0:0:0:0:
248,180,298807,1,0,0:0:0:0:
248,180,298892,1,8,0:0:0:0:
256,180,299064,1,0,0:0:0:0:
256,180,299235,1,12,0:0:0:0:
256,184,299492,1,12,0:0:0:0:
256,184,299749,1,12,0:0:0:0:
256,184,299921,1,4,0:0:0:0:
252,184,300092,1,0,0:0:0:0:
260,180,300178,1,0,0:0:0:0:
256,184,300264,1,8,0:0:0:0:
256,180,300435,1,0,0:0:0:0:
256,180,300521,1,8,0:0:0:0:
256,180,300607,1,8,0:0:0:0:
260,180,300778,1,0,0:0:0:0:
260,180,300949,1,8,0:0:0:0:
256,180,301035,1,0,0:0:0:0:
256,184,301121,1,8,0:0:0:0:
260,180,301207,1,8,0:0:0:0:
260,184,301292,1,0,0:0:0:0:
256,184,301378,1,0,0:0:0:0:
260,176,301464,1,8,0:0:0:0:
252,180,301635,1,0,0:0:0:0:
252,180,301721,1,8,0:0:0:0:
252,184,301807,1,8,0:0:0:0:
268,180,301978,1,0,0:0:0:0:
248,180,302149,1,8,0:0:0:0:
248,180,302235,1,0,0:0:0:0:
248,180,302320,1,8,0:0:0:0:
248,180,302406,1,8,0:0:0:0:
248,180,302492,1,0,0:0:0:0:
264,184,302664,1,0,0:0:0:0:
256,176,302750,1,0,0:0:0:0:
256,176,302835,1,8,0:0:0:0:
260,184,303007,1,0,0:0:0:0:
260,184,303178,1,8,0:0:0:0:
260,184,303264,1,8,0:0:0:0:
260,184,303350,1,0,0:0:0:0:
252,180,303435,1,8,0:0:0:0:
256,180,303521,1,8,0:0:0:0:
240,180,303607,1,0,0:0:0:0:
256,180,303692,1,0,0:0:0:0:
256,184,303778,1,0,0:0:0:0:
256,184,303864,1,8,0:0:0:0:
252,184,304035,1,0,0:0:0:0:
260,184,304121,1,0,0:0:0:0:
256,184,304207,1,8,0:0:0:0:
260,184,304292,1,0,0:0:0:0:
252,184,304378,1,8,0:0:0:0:
252,176,304464,1,0,0:0:0:0:
256,184,304550,1,8,0:0:0:0:
256,184,304635,1,8,0:0:0:0:
252,184,304721,1,0,0:0:0:0:
256,180,304807,1,8,0:0:0:0:
256,176,304893,1,8,0:0:0:0:
260,184,304978,1,8,0:0:0:0:
260,184,305064,1,0,0:0:0:0:
260,184,305149,1,0,0:0:0:0:
260,180,305235,1,8,0:0:0:0:
260,180,305407,1,4,0:0:0:0:
256,196,305750,1,0,0:0:0:0:
248,192,305922,1,8,0:0:0:0:
256,196,306093,1,0,0:0:0:0:
256,196,306265,1,0,0:0:0:0:
256,196,306351,1,0,0:0:0:0:
256,196,306436,1,8,0:0:0:0:
256,196,306607,1,8,0:0:0:0:
256,196,306779,1,0,0:0:0:0:
256,196,306950,1,8,0:0:0:0:
256,196,307036,1,8,0:0:0:0:
256,196,307122,1,0,0:0:0:0:
256,196,307293,1,8,0:0:0:0:
256,196,307465,1,0,0:0:0:0:
256,196,307636,1,8,0:0:0:0:
256,196,307722,1,8,0:0:0:0:
256,196,307807,1,0,0:0:0:0:
256,196,307893,1,0,0:0:0:0:
256,196,307979,1,8,0:0:0:0:
256,196,308150,1,4,0:0:0:0:
256,196,308322,1,8,0:0:0:0:
256,196,308408,1,0,0:0:0:0:
256,196,308493,1,0,0:0:0:0:
256,196,308665,1,8,0:0:0:0:
256,196,308836,1,0,0:0:0:0:
256,196,309007,1,8,0:0:0:0:
256,196,309093,1,0,0:0:0:0:
256,196,309179,1,0,0:0:0:0:
256,196,309350,1,8,0:0:0:0:
256,196,309522,1,0,0:0:0:0:
256,196,309693,1,8,0:0:0:0:
256,196,309779,1,8,0:0:0:0:
256,196,309865,1,0,0:0:0:0:
256,196,310036,1,8,0:0:0:0:
256,196,310207,1,0,0:0:0:0:
256,196,310379,1,8,0:0:0:0:
256,196,310464,1,8,0:0:0:0:
256,196,310550,1,0,0:0:0:0:
256,196,310722,1,8,0:0:0:0:
256,196,310893,1,4,0:0:0:0:
256,196,311065,1,8,0:0:0:0:
256,196,311151,1,0,0:0:0:0:
256,196,311236,1,0,0:0:0:0:
256,196,311408,1,8,0:0:0:0:
256,196,311579,1,0,0:0:0:0:
256,196,311751,1,0,0:0:0:0:
256,196,311835,1,0,0:0:0:0:
256,196,311922,1,8,0:0:0:0:
256,196,312093,1,8,0:0:0:0:
256,196,312265,1,0,0:0:0:0:
256,196,312436,1,8,0:0:0:0:
256,196,312522,1,8,0:0:0:0:
256,196,312608,1,0,0:0:0:0:
256,196,312779,1,8,0:0:0:0:
256,196,312951,1,0,0:0:0:0:
256,196,313122,1,0,0:0:0:0:
256,196,313208,1,8,0:0:0:0:
256,196,313293,1,8,0:0:0:0:
256,196,313378,1,0,0:0:0:0:
256,196,313465,1,8,0:0:0:0:
260,196,313636,1,4,0:0:0:0:
256,196,313807,1,0,0:0:0:0:
256,196,313893,1,0,0:0:0:0:
256,196,313979,1,8,0:0:0:0:
256,196,314150,1,8,0:0:0:0:
256,196,314322,1,0,0:0:0:0:
256,196,314493,1,8,0:0:0:0:
256,196,314579,1,8,0:0:0:0:
256,196,314665,1,0,0:0:0:0:
256,196,314750,1,0,0:0:0:0:
256,196,314836,1,8,0:0:0:0:
256,196,315007,1,0,0:0:0:0:
256,196,315179,1,8,0:0:0:0:
256,196,315265,1,0,0:0:0:0:
260,196,315350,1,0,0:0:0:0:
256,196,315522,1,8,0:0:0:0:
256,196,315607,1,0,0:0:0:0:
256,196,315693,1,8,0:0:0:0:
256,196,315865,1,8,0:0:0:0:
256,196,316036,1,4,0:0:0:0:
256,196,316379,1,4,0:0:0:0:
256,196,316550,1,0,0:0:0:0:
256,196,316722,1,8,0:0:0:0:
256,196,316893,1,8,0:0:0:0:
256,196,316979,1,8,0:0:0:0:
256,196,317065,1,0,0:0:0:0:
256,196,317236,1,0,0:0:0:0:
256,196,317322,1,8,0:0:0:0:
256,196,317408,1,8,0:0:0:0:
256,196,317579,1,0,0:0:0:0:
256,196,317750,1,8,0:0:0:0:
256,196,317836,1,8,0:0:0:0:
256,196,317922,1,0,0:0:0:0:
256,196,318007,1,8,0:0:0:0:
256,196,318093,1,8,0:0:0:0:
256,196,318265,1,0,0:0:0:0:
256,196,318436,1,8,0:0:0:0:
256,196,318607,1,0,0:0:0:0:
256,196,318693,1,0,0:0:0:0:
256,196,318779,1,8,0:0:0:0:
256,196,318950,1,8,0:0:0:0:
256,192,319122,1,0,0:0:0:0:
260,192,319293,1,0,0:0:0:0:
260,196,319465,1,8,0:0:0:0:
260,196,319636,1,8,0:0:0:0:
260,200,319722,1,8,0:0:0:0:
260,196,319807,1,0,0:0:0:0:
256,196,319979,1,0,0:0:0:0:
260,200,320065,1,0,0:0:0:0:
264,196,320150,1,8,0:0:0:0:
256,196,320322,1,0,0:0:0:0:
264,200,320493,1,8,0:0:0:0:
264,200,320579,1,0,0:0:0:0:
264,200,320665,1,8,0:0:0:0:
264,200,320750,1,8,0:0:0:0:
264,200,320836,1,0,0:0:0:0:
256,200,320922,1,8,0:0:0:0:
260,196,321007,1,8,0:0:0:0:
260,196,321179,1,0,0:0:0:0:
260,196,321265,1,0,0:0:0:0:
260,196,321350,1,8,0:0:0:0:
260,200,321522,1,0,0:0:0:0:
256,196,321693,1,8,0:0:0:0:
256,196,321865,1,0,0:0:0:0:
264,196,322036,1,0,0:0:0:0:
264,200,322207,1,8,0:0:0:0:
264,200,322379,1,8,0:0:0:0:
264,200,322465,1,8,0:0:0:0:
264,200,322550,1,0,0:0:0:0:
264,200,322722,1,0,0:0:0:0:
264,200,322807,1,8,0:0:0:0:
264,200,322893,1,8,0:0:0:0:
264,200,323065,1,0,0:0:0:0:
260,200,323236,1,8,0:0:0:0:
260,200,323322,1,8,0:0:0:0:
264,200,323407,1,0,0:0:0:0:
264,200,323493,1,8,0:0:0:0:
264,200,323579,1,8,0:0:0:0:
256,196,323750,1,0,0:0:0:0:
256,196,323921,1,8,0:0:0:0:
256,196,324008,1,0,0:0:0:0:
256,196,324092,1,0,0:0:0:0:
256,196,324178,1,8,0:0:0:0:
256,196,324264,1,8,0:0:0:0:
256,196,324350,1,8,0:0:0:0:
256,196,324436,1,0,0:0:0:0:
264,200,324608,1,12,0:0:0:0:
264,200,324779,1,4,0:0:0:0:
264,200,325122,1,12,0:0:0:0:
264,200,325293,1,4,0:0:0:0:
264,200,325636,1,12,0:0:0:0:
264,200,325807,1,4,0:0:0:0:
264,200,326150,1,12,0:0:0:0:
264,200,326321,1,4,0:0:0:0:
264,200,326665,1,12,0:0:0:0:
264,200,326836,1,4,0:0:0:0:
264,200,327008,1,12,0:0:0:0:
264,200,327350,1,8,0:0:0:0:
256,192,327692,1,4,0:0:0:0:
248,188,327864,1,8,0:0:0:0:
256,192,328035,1,0,0:0:0:0:
256,192,328207,1,8,0:0:0:0:
256,192,328378,1,0,0:0:0:0:
248,196,328721,1,8,0:0:0:0:
256,192,328892,1,0,0:0:0:0:
256,192,329064,1,8,0:0:0:0:
248,192,329235,1,0,0:0:0:0:
256,192,329407,1,8,0:0:0:0:
256,192,329750,1,8,0:0:0:0:
256,192,329921,1,0,0:0:0:0:
256,192,330092,1,0,0:0:0:0:
260,192,330435,1,0,0:0:0:0:
260,192,330607,1,8,0:0:0:0:
256,192,330778,1,0,0:0:0:0:
256,192,330950,1,8,0:0:0:0:
256,192,331121,1,0,0:0:0:0:
260,192,331464,1,8,0:0:0:0:
256,192,331635,1,8,0:0:0:0:
256,192,331806,1,0,0:0:0:0:
260,192,331978,1,8,0:0:0:0:
256,192,332149,1,0,0:0:0:0:
256,196,332320,1,8,0:0:0:0:
256,192,332664,1,8,0:0:0:0:
256,192,332834,1,0,0:0:0:0:
256,192,333177,1,0,0:0:0:0:
256,192,333350,1,8,0:0:0:0:
256,192,333521,1,0,0:0:0:0:
256,192,333692,1,8,0:0:0:0:
260,196,333864,1,0,0:0:0:0:
256,192,334207,1,8,0:0:0:0:
264,192,334379,1,0,0:0:0:0:
264,192,334550,1,8,0:0:0:0:
256,192,334721,1,0,0:0:0:0:
264,192,334892,1,8,0:0:0:0:
256,192,335235,1,8,0:0:0:0:
260,196,335407,1,0,0:0:0:0:
260,192,335578,1,0,0:0:0:0:
264,192,335921,1,0,0:0:0:0:
264,192,336092,1,8,0:0:0:0:
264,192,336264,1,0,0:0:0:0:
264,192,336435,1,8,0:0:0:0:
264,192,336606,1,0,0:0:0:0:
264,192,336949,1,8,0:0:0:0:
264,192,337120,1,8,0:0:0:0:
264,192,337292,1,0,0:0:0:0:
264,192,337464,1,8,0:0:0:0:
264,192,337634,1,0,0:0:0:0:
264,192,337806,1,8,0:0:0:0:
264,192,338150,1,8,0:0:0:0:
264,192,338321,1,4,0:0:0:0:
256,192,338664,1,0,0:0:0:0:
248,188,338836,1,8,0:0:0:0:
256,192,339007,1,0,0:0:0:0:
256,192,339179,1,8,0:0:0:0:
256,192,339350,1,0,0:0:0:0:
248,196,339693,1,8,0:0:0:0:
256,192,340036,1,8,0:0:0:0:
248,192,340207,1,0,0:0:0:0:
256,192,340379,1,8,0:0:0:0:
256,192,340721,1,8,0:0:0:0:
256,192,340893,1,0,0:0:0:0:
256,192,341064,1,0,0:0:0:0:
260,192,341407,1,0,0:0:0:0:
260,192,341579,1,8,0:0:0:0:
256,192,341750,1,0,0:0:0:0:
256,192,341922,1,8,0:0:0:0:
256,192,342093,1,0,0:0:0:0:
260,192,342436,1,8,0:0:0:0:
256,192,342778,1,0,0:0:0:0:
260,192,342950,1,8,0:0:0:0:
256,192,343121,1,0,0:0:0:0:
256,196,343292,1,8,0:0:0:0:
256,192,343636,1,8,0:0:0:0:
256,192,343806,1,0,0:0:0:0:
256,192,344149,1,0,0:0:0:0:
256,192,344322,1,8,0:0:0:0:
256,192,344493,1,0,0:0:0:0:
256,192,344664,1,8,0:0:0:0:
260,196,344836,1,0,0:0:0:0:
256,192,345179,1,8,0:0:0:0:
264,192,345522,1,8,0:0:0:0:
256,192,345693,1,0,0:0:0:0:
264,192,345864,1,8,0:0:0:0:
256,192,346207,1,8,0:0:0:0:
260,196,346379,1,0,0:0:0:0:
260,192,346550,1,0,0:0:0:0:
264,196,346892,1,0,0:0:0:0:
256,192,347064,1,8,0:0:0:0:
256,188,347235,1,0,0:0:0:0:
256,192,347407,1,8,0:0:0:0:
256,188,347578,1,0,0:0:0:0:
256,192,347921,1,8,0:0:0:0:
260,196,348092,1,0,0:0:0:0:
256,192,348435,1,8,0:0:0:0:
256,192,348778,1,0,0:0:0:0:
256,188,349121,1,0,0:0:0:0:
