osu file format v14

[General]
AudioFilename: OP.mp3
AudioLeadIn: 0
PreviewTime: 61175
Countdown: 0
SampleSet: Soft
StackLeniency: 0.7
Mode: 0
LetterboxInBreaks: 0
WidescreenStoryboard: 1

[Editor]
Bookmarks: 51379,71022
DistanceSpacing: 1
BeatDivisor: 4
GridSize: 4
TimelineZoom: 2.799999

[Metadata]
Title:Contrail ~Kiseki~
TitleUnicode:Contrail〜軌跡〜
Artist:Mami Kawada
ArtistUnicode:川田まみ
Creator:CXu
Version:Normal
Source:蒼の彼方のフォーリズム
Tags:Aokana Ao no Kanata no Four Rhythm Across the Blue Opening xChippy MillhioreF Millhiore
BeatmapID:878904
BeatmapSetID:403894

[Difficulty]
HPDrainRate:3
CircleSize:3
OverallDifficulty:4
ApproachRate:5
SliderMultiplier:1.1
SliderTickRate:2

[Events]
//Background and Video events
0,0,"0034_2DJ_00031.png",0,0
Video,0,"OP.avi"
//Break Periods
//Storyboard Layer 0 (Background)
//Storyboard Layer 1 (Fail)
//Storyboard Layer 2 (Pass)
//Storyboard Layer 3 (Foreground)
//Storyboard Sound Samples

[TimingPoints]
461,357.142857142857,4,2,3,30,1,0
461,-100,4,2,3,30,0,0
5282,-100,4,2,3,30,0,0
6175,-100,4,2,3,40,0,0
9925,-100,4,2,3,30,0,0
10282,-100,4,2,4,50,0,0
11532,-100,4,2,4,50,0,0
11710,-100,4,2,4,50,0,0
11889,-100,4,2,4,60,0,1
11978,-100,4,2,4,60,0,0
23318,-100,4,2,3,30,0,0
28853,-100,4,2,4,50,0,0
34746,-100,4,2,4,50,0,0
40282,-100,4,2,4,50,0,0
46175,-100,4,2,4,40,0,0
51532,-100,4,2,4,30,0,0
51710,-100,4,2,4,5,0,0
52246,-100,4,2,4,65,0,0
52603,-100,4,2,4,65,0,0
57603,-100,4,2,4,65,0,0
61889,-100,4,2,4,80,0,1
76175,-100,4,2,4,80,0,1
79032,-100,4,2,4,80,0,1
84746,-100,4,2,4,80,0,0
87603,-100,4,2,4,5,0,0

[Colours]
Combo1 : 255,255,62
Combo2 : 128,255,0
Combo3 : 56,173,255
Combo4 : 255,90,60

[HitObjects]
40,40,461,6,0,P|103:18|201:40,1,165,2|2,0:0|0:0,0:0:0:0:
257,101,1353,1,2,0:0:0:0:
322,159,1710,2,0,P|374:159|426:127,2,110,2|2|2,0:0|0:0|0:0,0:0:0:0:
472,344,3318,6,0,P|409:366|311:344,1,165,2|2,0:0|0:0,0:0:0:0:
255,283,4210,1,2,0:0:0:0:
190,225,4567,2,0,P|138:225|86:257,1,110,2|2,0:0|0:0,0:0:0:0:
162,316,5282,6,0,P|275:275|243:146,1,275,2|4,0:0|0:0,0:0:0:0:
137,123,6532,6,0,P|105:136|83:156,1,55,2|2,0:0|0:0,0:0:0:0:
59,195,6889,2,0,L|71:268,1,55,2|2,0:0|0:0,0:0:0:0:
131,339,7425,1,2,0:0:0:0:
233,296,7782,1,0,0:0:0:0:
233,296,7960,2,0,L|289:296,1,55,2|2,0:0|0:0,0:0:0:0:
324,337,8317,2,0,L|400:332,1,55,2|2,0:0|0:0,0:0:0:0:
440,179,9032,6,0,P|442:139|393:79,1,110,2|2,0:0|0:0,0:0:0:0:
297,114,9746,2,0,L|236:114,1,55,2|2,0:0|0:0,0:0:0:0:
140,156,10282,5,10,0:0:0:0:
82,249,10639,1,8,0:0:0:0:
98,301,10818,1,8,0:0:0:0:
114,353,10996,1,8,0:0:0:0:
205,292,11353,6,0,P|236:283|328:316,1,110,2|0,0:0|0:0,0:0:0:0:
354,340,11889,6,0,P|415:345|457:313,1,110,4|8,0:0|0:0,0:0:0:0:
477,269,12425,2,0,L|475:144,1,110,0|0,0:0|0:0,0:0:0:0:
473,104,12960,1,8,0:0:0:0:
377,49,13318,6,0,P|318:46|251:73,1,110,2|8,0:0|0:0,0:0:0:0:
226,94,13853,1,0,0:0:0:0:
128,43,14210,1,0,0:0:0:0:
128,43,14389,1,8,0:0:0:0:
53,123,14746,6,0,P|46:183|55:238,1,110,2|8,0:0|0:0,0:0:0:0:
74,282,15282,2,0,L|191:324,1,110,0|0,0:0|0:0,0:0:0:0:
227,341,15818,1,8,0:0:0:0:
319,281,16175,6,0,P|383:293|421:333,1,110,2|8,0:0|0:0,0:0:0:0:
441,370,16710,1,0,0:0:0:0:
487,269,17068,1,0,0:0:0:0:
487,269,17246,1,8,0:0:0:0:
461,162,17603,6,0,P|443:106|454:38,1,110,4|8,0:0|0:0,0:0:0:0:
394,72,18139,2,0,P|348:98|287:96,1,110
248,63,18675,1,8,0:0:0:0:
144,24,19032,6,0,P|83:39|38:83,1,110,2|8,0:0|0:0,0:0:0:0:
32,120,19568,1,0,0:0:0:0:
74,226,19925,1,0,0:0:0:0:
74,226,20103,1,8,0:0:0:0:
18,321,20460,6,0,P|46:333|91:333,1,55,12|2,0:0|0:0,0:0:0:0:
178,358,20996,2,0,P|208:354|247:331,1,55,8|2,0:0|0:0,0:0:0:0:
335,310,21532,2,0,P|359:291|381:252,1,55,8|2,0:0|0:0,0:0:0:0:
446,189,22068,2,0,P|458:161|458:116,1,55,8|2,0:0|0:0,0:0:0:0:
350,128,22603,6,0,P|337:100|337:55,2,55,6|2|12,0:0|0:0|0:0,0:0:0:0:
254,182,23318,6,0,P|200:185|141:135,1,110,2|2,0:0|0:0,0:0:0:0:
95,63,24032,1,2,0:0:0:0:
22,145,24389,1,2,0:0:0:0:
95,226,24746,6,0,P|166:271|269:274,2,165,2|2|2,0:0|0:0|0:0,0:0:0:0:
79,335,26175,2,0,P|138:364|256:378,2,165,2|2|2,0:0|0:0|0:0,0:0:0:0:
256,192,27425,12,4,28853,0:0:0:0:
405,93,29389,6,0,P|327:96|296:75,1,110,8|0,0:0|0:0,0:0:0:0:
260,44,29925,1,2,0:0:0:0:
161,92,30282,6,0,L|140:210,1,110,2|2,0:0|0:0,0:0:0:0:
169,248,30818,2,0,L|172:316,1,55,8|0,0:0|0:0,0:0:0:0:
213,338,31175,2,0,P|243:346|278:340,1,55,2|2,0:0|0:0,0:0:0:0:
368,302,31710,6,0,P|387:260|380:181,1,110,2|2,0:0|0:0,0:0:0:0:
347,156,32246,2,0,L|284:154,1,55,8|0,0:0|0:0,0:0:0:0:
236,154,32603,1,2,0:0:0:0:
236,154,32782,1,2,0:0:0:0:
154,79,33139,6,0,P|127:130|136:198,1,110,2|2,0:0|0:0,0:0:0:0:
158,227,33675,1,8,0:0:0:0:
125,271,33853,2,0,P|91:293|8:285,1,110,2|2,0:0|0:0,0:0:0:0:
12,238,34389,2,0,L|4:177,1,55,8|2,0:0|0:0,0:0:0:0:
8,128,34746,6,0,P|33:83|47:69,1,55,4|0,0:0|0:0,0:0:0:0:
84,56,35103,1,8,0:0:0:0:
180,108,35460,2,0,L|254:110,1,55,2|2,0:0|0:0,0:0:0:0:
284,84,35818,1,8,0:0:0:0:
387,121,36175,6,0,P|403:176|392:244,1,110,2|8,0:0|0:0,0:0:0:0:
355,263,36710,2,0,L|240:295,1,110,0|2,0:0|0:0,0:0:0:0:
195,306,37246,1,8,0:0:0:0:
107,238,37603,6,0,L|54:134,1,110,2|8,0:0|0:0,0:0:0:0:
77,88,38139,2,0,L|130:192,1,110,0|2,0:0|0:0,0:0:0:0:
179,201,38675,1,8,0:0:0:0:
179,201,38853,2,0,P|243:202|297:173,1,110,0|0,0:0|0:0,0:0:0:0:
327,149,39389,1,8,0:0:0:0:
404,71,39746,1,2,0:0:0:0:
404,71,39925,1,2,0:0:0:0:
451,170,40282,6,0,P|465:240|452:299,1,110,4|2,0:0|0:0,0:0:0:0:
425,320,40818,1,8,0:0:0:0:
319,289,41175,1,2,0:0:0:0:
319,289,41353,1,2,0:0:0:0:
224,345,41710,6,0,L|111:348,1,110,2|2,0:0|0:0,0:0:0:0:
58,347,42246,1,8,0:0:0:0:
12,247,42603,1,2,0:0:0:0:
12,247,42782,1,2,0:0:0:0:
59,147,43139,6,0,P|98:127|186:135,1,110,2|2,0:0|0:0,0:0:0:0:
206,160,43675,1,8,0:0:0:0:
297,99,44032,1,2,0:0:0:0:
297,99,44210,1,2,0:0:0:0:
386,163,44568,6,0,P|407:212|396:278,1,110,4|2,0:0|0:0,0:0:0:0:
364,308,45103,1,8,0:0:0:0:
314,332,45282,2,0,L|203:338,1,110,2|2,0:0|0:0,0:0:0:0:
167,296,45818,2,0,L|100:320,1,55,8|2,0:0|0:0,0:0:0:0:
64,336,46175,6,0,P|23:320|15:212,1,165,4|8,0:0|0:0,0:0:0:0:
111,160,47068,2,0,L|112:80,1,55,2|2,0:0|0:0,0:0:0:0:
149,64,47425,2,0,P|202:42|315:71,1,165,0|0,0:0|0:0,0:0:0:0:
357,159,48318,1,8,0:0:0:0:
413,64,48675,2,0,P|435:79|450:102,1,55,2|0,0:0|0:0,0:0:0:0:
459,156,49032,6,0,P|446:222|347:256,1,165,2|8,0:0|0:0,0:0:0:0:
203,217,50103,2,0,L|133:217,1,55,8|0,0:0|0:0,0:0:0:0:
92,216,50460,2,0,P|57:165|63:100,1,110,2|0,0:0|0:0,0:0:0:0:
165,133,51175,2,0,P|203:83|193:22,2,110,8|0|0,0:0|0:0|0:0,0:0:0:0:
260,187,52246,6,0,L|386:188,1,110,4|2,0:0|0:0,0:0:0:0:
416,217,52782,2,0,P|418:252|410:281,1,55,2|8,0:0|0:0,0:0:0:0:
392,322,53139,2,0,P|346:352|278:350,1,110,2|2,0:0|0:0,0:0:0:0:
238,343,53675,1,8,0:0:0:0:
147,280,54032,1,2,0:0:0:0:
58,345,54389,1,8,0:0:0:0:
7,247,54746,6,0,P|-5:177|18:122,1,110,4|8,0:0|0:0,0:0:0:0:
45,102,55282,2,0,P|100:78|162:81,1,110,4|2,0:0|0:0,0:0:0:0:
198,102,55818,1,8,0:0:0:0:
247,125,55996,2,0,P|301:123|351:100,1,110,4|2,0:0|0:0,0:0:0:0:
392,64,56532,5,8,0:0:0:0:
428,167,56889,1,2,0:0:0:0:
460,272,57246,1,8,0:0:0:0:
370,335,57603,6,0,L|305:349,1,55,12|2,0:0|0:0,0:0:0:0:
273,311,57960,2,0,L|207:301,1,55,8|2,0:0|0:0,0:0:0:0:
190,256,58318,2,0,L|131:224,1,55,8|2,0:0|0:0,0:0:0:0:
131,175,58675,2,0,L|86:125,1,55,8|4,0:0|0:0,0:0:0:0:
26,47,59210,5,2,0:0:0:0:
26,47,59389,1,8,0:0:0:0:
133,23,59746,1,2,0:0:0:0:
133,23,59925,2,0,P|180:23|245:53,1,110,8|2,0:0|0:0,0:0:0:0:
264,96,60460,5,12,0:0:0:0:
320,96,60639,1,8,0:0:0:0:
376,96,60818,1,8,0:0:0:0:
432,96,60996,1,8,0:0:0:0:
471,292,61889,6,0,P|414:309|359:289,1,110,4|8,0:0|0:0,0:0:0:0:
280,227,62603,2,0,P|227:212|176:229,1,110,2|8,0:0|0:0,0:0:0:0:
137,269,63139,2,0,L|95:157,1,110,0|0,0:0|0:0,0:0:0:0:
79,114,63675,1,8,0:0:0:0:
26,210,64032,2,0,L|62:314,1,110,2|8,0:0|0:0,0:0:0:0:
101,352,64568,6,0,P|160:357|225:263,1,165,0|8,0:0|0:0,0:0:0:0:
284,190,65460,1,2,0:0:0:0:
344,281,65818,1,8,0:0:0:0:
344,281,65996,2,0,L|460:281,1,110,0|0,0:0|0:0,0:0:0:0:
505,182,66710,2,0,L|391:190,1,110,0|0,0:0|0:0,0:0:0:0:
344,167,67246,2,0,P|337:132|338:106,1,55,8|0,0:0|0:0,0:0:0:0:
360,62,67603,6,0,P|327:23|256:21,1,110,4|8,0:0|0:0,0:0:0:0:
233,56,68139,2,0,P|182:65|145:125,1,110,0|0,0:0|0:0,0:0:0:0:
56,170,68853,2,0,L|54:292,1,110,0|0,0:0|0:0,0:0:0:0:
88,323,69389,1,8,0:0:0:0:
128,360,69568,2,0,B|204:360|204:304|296:304,1,165,0|8,0:0|0:0,0:0:0:0:
336,304,70282,6,0,P|354:255|337:193,1,110,0|0,0:0|0:0,0:0:0:0:
301,162,70818,2,0,P|283:113|300:51,1,110,8|2,0:0|0:0,0:0:0:0:
338,24,71353,1,0,0:0:0:0:
408,108,71710,2,0,L|218:110,1,165,4|8,0:0|0:0,0:0:0:0:
195,138,72425,6,0,P|183:192|201:248,1,110,4|2,0:0|0:0,0:0:0:0:
238,281,72960,1,8,0:0:0:0:
290,297,73139,1,2,0:0:0:0:
345,296,73318,6,0,P|400:313|437:358,1,110,4|8,0:0|0:0,0:0:0:0:
474,249,74032,2,0,L|484:119,1,110,2|8,0:0|0:0,0:0:0:0:
473,84,74568,2,0,P|418:72|361:87,1,110
330,125,75103,1,8,0:0:0:0:
264,36,75460,1,0,0:0:0:0:
155,16,75818,2,0,P|129:27|111:56,1,55,8|0,0:0|0:0,0:0:0:0:
121,101,76175,6,0,P|148:174|127:217,1,110,4|8,0:0|0:0,0:0:0:0:
120,252,76710,2,0,P|160:292|227:293,1,110,4|4,0:0|0:0,0:0:0:0:
256,264,77246,1,8,0:0:0:0:
300,297,77425,2,0,P|354:290|392:252,1,110,4|2,0:0|0:0,0:0:0:0:
373,201,77960,2,0,P|364:147|391:101,1,110,8|2,0:0|0:0,0:0:0:0:
309,26,78675,1,8,0:0:0:0:
201,26,79032,1,4,0:0:0:0:
100,70,79389,6,0,P|81:125|95:179,1,110,8|2,0:0|0:0,0:0:0:0:
56,216,79925,2,0,L|166:216,1,110,0|0,0:0|0:0,0:0:0:0:
200,258,80460,6,0,L|266:246,1,55,2|0,0:0|0:0,0:0:0:0:
307,233,80818,2,0,P|351:261|366:322,1,110,8|2,0:0|0:0,0:0:0:0:
348,365,81353,2,0,L|448:319,1,110,0|0,0:0|0:0,0:0:0:0:
498,297,81889,5,4,0:0:0:0:
424,214,82246,2,0,P|408:163|413:89,1,110,8|2,0:0|0:0,0:0:0:0:
367,143,82782,2,0,L|285:236,1,110,0|0,0:0|0:0,0:0:0:0:
256,264,83318,5,2,0:0:0:0:
328,328,83675,1,8,0:0:0:0:
328,328,83853,2,0,P|252:360|180:324,1,165,0|8,0:0|0:0,0:0:0:0:
256,192,84746,12,0,87603,0:0:0:0:
