osu file format v5

[General]
AudioFilename: Mami Kawada - Aozora to Taiyou.mp3
AudioLeadIn: 0
PreviewTime: -1
Countdown: 0
SampleSet: Normal
StackLeniency: 0.7
Mode: 0
LetterboxInBreaks: 1

[Metadata]
Title:Aozora to Taiyou
Artist:Mami Kawada
Creator:Al-Azif
Version:Hard
Source:
Tags:

[Difficulty]
HPDrainRate:5
CircleSize:4
OverallDifficulty:7
SliderMultiplier:1.6
SliderTickRate:2

[Events]
//Background and Video events
0,0,"BG.jpg"
//Break Periods
2,99386,112604
2,168453,185535
//Storyboard Layer 0 (Background)
//Storyboard Layer 1 (Failing)
//Storyboard Layer 2 (Passing)
//Storyboard Layer 3 (Foreground)
//Storyboard Sound Samples
//Background Colour Transformations
3,100,255,255,255

[TimingPoints]
15525,454.545454545455,4,1,0,100,1
223479,-100,4,1,0,80,0

[Colours]
Combo1 : 255,191,223
Combo2 : 128,214,255
Combo3 : 255,255,128

[HitObjects]
88,96,31661,1,0
88,96,31775,1,0
88,96,31888,2,0,B|116:140|80:192,1,80
128,240,32343,1,0
208,232,32570,2,0,B|211:332|80:320,1,160
424,288,33479,5,0
424,288,33593,1,0
424,288,33706,2,0,B|396:244|432:192,1,80
384,144,34161,1,0
304,152,34388,2,0,B|301:52|432:64,1,160
448,216,35297,5,0
392,272,35525,2,0,B|303:240|232:312,1,160,0|0
176,344,36206,2,0,B|63:285|45:188|82:96|152:48|272:40|320:88|360:144|360:208,1,560
456,48,38934,5,0
456,48,39047,1,0
456,48,39161,1,0
376,48,39388,2,0,B|288:48,1,80,0|0
288,128,39843,2,0,B|261:213|160:240,1,160
48,336,40752,5,0
48,336,40865,1,0
48,336,40979,1,0
128,336,41206,2,0,B|216:336,1,80,0|0
216,256,41661,2,0,B|243:171|344:144,1,160
368,304,42570,1,0
424,248,42797,2,0,B|480:177|440:80,1,160,0|0
376,48,43479,2,0,B|278:49|224:104|256:264|168:304|72:296,1,400
16,280,44843,5,0
80,240,45070,1,0
152,216,45297,1,0
152,216,45411,1,0
152,216,45524,1,0
232,216,45752,1,0
312,232,45979,1,0
376,272,46206,5,0
376,272,46320,1,0
376,272,46434,2,0,B|341:311|280:312,1,80,4|0
224,312,46888,1,0
160,256,47115,2,0,B|185:199|264:239|312:152,1,160
328,104,47797,5,0
264,56,48024,5,0
264,56,48138,1,0
264,56,48252,2,0,B|204:52|168:104,1,80
136,136,48706,1,0
72,192,48934,2,0,B|128:264|88:352,2,160
136,136,50070,2,0,B|216:93|304:128,1,160
368,152,50752,2,0,B|355:312|184:248,1,240,0|0
48,208,51888,5,0
232,56,52343,1,0
288,288,52797,1,0
472,128,53252,1,0
472,128,53479,5,0
472,128,53593,1,0
472,128,53706,1,0
392,136,53934,2,0,B|384:232,1,80,0|0
312,240,54388,2,0,B|276:156|344:56,1,160,0|0
256,40,55070,5,0
256,40,55297,5,0
256,40,55411,1,0
256,40,55524,1,0
232,112,55752,2,0,B|136:120,1,80,0|0
128,192,56206,2,0,B|215:231|312:152,1,160,0|0
448,336,57115,1,0
448,336,57343,2,0,B|367:290|272:352,1,160
216,336,58024,2,0,C|233:223|102:224|168:80,1,400
440,56,60297,5,0
432,136,60524,1,0
424,216,60752,2,0,C|416:280|384:280,1,80,0|4
64,328,61661,5,0
120,272,61888,2,0,B|173:213|280:216,1,160,0|0
344,232,62570,2,0,B|201:202|208:56,1,240,0|0
344,56,63934,2,0,B|456:56,1,80,0|0
480,112,64388,2,0,B|452:199|352:216,1,160
288,216,65070,1,0
304,296,65297,2,0,C|304:360|264:360,1,80
80,360,65979,1,0
80,360,66206,2,0,B|26:292|123:200|48:112,1,240
288,56,67570,5,0
216,88,67797,1,0
216,168,68024,2,4,C|296:224,1,80
64,336,68934,1,0
120,280,69161,1,0
200,256,69388,1,0
280,272,69615,1,0
352,312,69843,2,0,B|391:236|349:135|264:112,1,240,0|0
56,48,71206,5,0
24,120,71434,1,0
96,144,71661,2,0,B|204:168|168:288,1,160,0|0
152,336,72343,1,0
80,368,72570,1,0
32,304,72797,2,0,B|44:214|136:168,1,160,0|0
192,152,73479,2,0,B|232:216|168:272|168:336|248:408,1,240,0|0
456,56,74843,5,0
384,96,75070,1,0
312,136,75297,2,0,B|320:224,1,80
272,280,75752,2,0,C|176:256,1,80
184,184,76206,1,0
112,152,76434,1,0
48,200,76661,2,0,B|56:384,1,160,0|0
256,344,77570,1,0
456,360,78024,1,0
256,192,78138,12,4,79161
136,72,79615,5,0
296,72,80070,2,0,B|400:72|488:72,1,160,2|2
368,320,80979,1,0
208,320,81434,2,0,B|96:320|16:320,3,160,0|2|2|0
144,192,83252,1,0
424,216,83706,2,0,C|369:250|367:291|312:320,1,160,2|2
240,320,84388,2,0,B|245:225|160:160,1,160,0|0
112,136,85070,2,0,C|64:200,1,80
440,64,85752,5,8
440,64,85979,1,8
280,88,86206,5,0
296,168,86434,2,0,B|240:240,1,80
192,288,86888,1,0
112,280,87115,2,0,B|120:176,2,80,0|0|0
440,88,88024,1,0
360,88,88252,1,0
280,88,88479,1,0
200,88,88706,1,0
120,88,88934,1,0
72,240,89388,6,0,B|88:336,1,80
85,318,89843,1,0
440,240,90297,2,0,B|424:336,1,80
426,318,90752,1,0
344,304,90979,1,0
264,304,91206,1,0
184,320,91434,1,0
104,344,91661,2,0,C|264:352|240:200|272:120,1,400
80,48,93934,5,0
152,72,94161,1,0
200,136,94388,1,0
200,216,94615,1,0
144,280,94843,1,0
64,288,95070,1,0
64,288,95297,1,0
256,192,95411,12,0,98706
256,192,99161,5,4
112,56,113479,5,0
112,56,113593,1,0
112,56,113706,1,4
184,80,113934,1,0
256,40,114161,1,0
320,88,114388,2,0,B|405:40|504:88,1,160
408,328,115297,5,0
408,328,115411,1,0
408,328,115525,1,0
336,304,115752,1,0
264,344,115979,1,0
200,296,116206,2,0,B|115:344|16:296,1,160
192,160,117115,1,0
192,160,117343,2,0,B|207:261|336:240,1,160,0|0
376,208,118025,2,0,B|344:67|168:80,1,240,0|0
88,192,119161,5,2
256,344,119615,1,2
424,192,120070,1,2
256,40,120525,1,2
176,64,120752,5,0
176,64,120865,1,0
176,64,120979,2,0,B|200:160,2,80,0|0|0
144,136,121661,2,0,B|148:234|64:296,1,160
152,320,122343,5,4
224,280,122570,6,0,B|296:328,2,80,0|0|0
152,240,123252,1,0
80,200,123479,1,0
256,88,123934,1,0
440,168,124388,1,0
440,168,124615,2,0,B|381:224|360:328,1,160,0|0
280,312,125297,2,0,B|320:184|240:72,1,240,0|0
96,136,126434,5,0
48,200,126661,1,0
64,280,126888,1,2
128,328,127115,1,0
128,328,127229,1,0
128,328,127343,1,2
192,280,127570,5,0
272,272,127797,1,2
344,304,128025,1,0
344,304,128138,1,0
344,304,128252,1,4
448,88,128934,1,0
472,160,129161,2,0,B|496:269|400:312,1,160,0|0
344,280,129843,2,0,B|208:224|104:336,1,240,0|0
56,64,131206,6,0,B|152:64,1,80
208,96,131661,2,0,C|254:168|224:264,1,160
192,304,132343,1,0
112,312,132570,1,0
48,264,132797,2,0,C|54:180|128:120,1,160,0|0
184,96,133479,2,0,C|287:72|272:208,1,240,0|0
464,344,134843,5,0
384,320,135070,1,0
304,296,135297,2,4,C|344:208,1,80
48,48,136206,1,0
48,48,136320,1,0
48,48,136434,1,0
120,72,136661,1,0
200,96,136888,1,0
272,120,137115,2,0,B|224:200|192:240|256:352,1,240
456,168,138479,5,0
480,240,138706,1,0
400,224,138934,2,0,B|316:195|216:232,1,160
160,240,139615,1,0
88,280,139843,1,0
160,320,140070,1,0
232,288,140297,1,0
264,216,140525,1,0
248,136,140752,2,0,B|224:48,1,80,0|0
88,192,141434,5,0
224,344,141888,6,0,B|320:368,1,80
288,280,142343,1,0
368,272,142570,2,0,B|456:274|496:184,1,160,0|0
424,152,143252,1,0
416,72,143479,2,0,B|328:70|288:160,2,160
456,224,144843,1,0
336,336,145297,1,0
184,288,145752,5,0
136,224,145979,5,2
136,224,146093,1,2
160,152,146320,1,2
160,152,146434,1,2
232,184,146661,1,0
304,152,146888,1,2
304,152,147002,1,2
376,120,147229,1,2
376,120,147343,1,2
400,192,147570,1,0
400,192,147684,1,0
400,192,147797,1,2
416,272,148024,6,0,B|392:352,1,80,0|4
312,368,148479,2,0,B|200:336,1,80,0|0
200,272,148934,2,0,B|152:176,1,80,0|0
216,136,149388,2,0,B|328:136,1,80
352,192,149843,2,0,B|336:272,1,80
256,288,150297,2,0,B|288:376,2,80
136,56,151206,6,0,B|40:56,1,80
56,56,151661,1,0
376,56,152115,2,0,B|472:56,1,80
456,56,152570,1,0
344,288,153024,1,0
264,272,153252,1,0
264,272,153479,2,0,B|88:320,1,160,0|0
111,314,154161,1,0
32,336,154388,1,0
256,40,154843,5,8
256,40,155070,1,8
168,176,155297,5,0
216,240,155524,1,4
272,296,155752,2,0,B|352:256,1,80
416,224,156206,1,0
488,264,156434,2,0,B|496:368,1,80
176,336,157115,1,0
232,280,157343,1,0
224,200,157570,1,0
152,160,157797,1,0
72,176,158024,1,0
400,72,158479,6,0,B|424:160,1,80
420,149,158934,1,0
264,184,159388,2,0,B|296:296,1,80
208,280,159843,2,0,B|135:218|184:96,1,160,0|0
200,56,160524,1,0
280,64,160752,2,0,B|376:80|351:204|504:216,1,240,0|0
376,344,161888,5,2
376,344,162002,1,2
296,344,162229,1,2
296,344,162343,1,2
216,344,162570,1,0
136,344,162797,1,4
56,344,163024,6,0,B|56:240,1,80,0|0
112,208,163479,1,0
184,168,163706,2,0,B|184:288,1,80
256,224,164161,1,0
312,168,164388,2,0,B|304:280|432:312|488:232,1,240,0|0
472,88,165524,5,0
320,40,165979,1,0
168,96,166434,1,2
168,96,166547,1,2
216,160,166774,1,2
216,160,166888,1,2
136,184,167115,1,0
128,264,167343,1,2
128,264,167456,1,2
192,304,167684,1,2
192,304,167797,1,2
256,344,168024,1,0
256,344,168138,1,0
256,344,168252,1,4
408,80,186434,5,0
408,304,186888,1,0
104,304,187343,1,0
104,80,187797,1,0
256,280,188252,5,0
256,280,188365,1,0
304,216,188593,1,0
304,216,188706,1,0
280,136,188934,1,4
248,64,189161,1,0
248,64,189274,1,0
168,48,189502,1,0
168,48,189615,1,0
112,104,189843,6,0,B|112:192,1,80,0|4
184,160,190297,2,0,B|288:160,1,80,0|0
224,232,190752,2,0,C|224:328,2,80
296,256,191434,1,0
376,256,191661,2,0,B|480:256,1,80,0|0
416,184,192115,2,0,C|416:80,2,80
56,336,193024,6,0,B|152:336,1,80
136,336,193479,1,0
456,48,193934,2,0,B|344:48,1,80
376,48,194388,1,0
64,48,194843,1,0
128,96,195070,1,0
112,176,195297,1,0
448,336,195752,1,0
384,288,195979,1,0
384,208,196206,1,0
256,192,196661,5,8
256,192,196888,1,8
160,64,197115,6,0,B|256:64,1,80,0|4
208,136,197570,2,0,B|312:136,1,80,0|0
360,168,198024,2,0,C|408:240|384:336,3,160
328,256,199615,2,0,C|304:344,1,80
184,128,200297,2,0,C|208:40,1,80
205,50,200752,1,0
352,104,201206,1,0
408,160,201434,1,0
384,232,201661,1,0
304,232,201888,2,0,B|280:144,1,80,0|0
216,208,202343,2,0,C|248:312,1,80
192,352,202797,5,0
120,312,203024,1,0
80,240,203252,1,0
80,160,203479,1,0
112,88,203706,1,0
112,88,203820,1,0
176,40,204047,1,0
176,40,204161,1,0
272,16,204388,6,0,C|368:48,1,80,0|4
376,136,204843,2,0,C|352:240,1,80,0|0
272,256,205297,2,0,C|328:344,1,80
408,288,205752,2,0,C|440:200,1,80
376,136,206206,2,0,C|280:88,1,80
208,104,206661,2,0,C|120:144,2,80
440,152,207570,6,0,B|432:256,1,80
433,231,208025,1,0
88,232,208479,2,0,C|72:144,1,80
73,153,208934,1,0
216,32,209388,2,0,B|304:32,1,80
256,120,209843,2,0,C|242:182|259:228|256:280,1,160
296,360,210524,2,0,C|184:360,1,80
32,192,211206,5,8
32,192,211434,1,8
112,48,211661,6,0,B|224:48,2,80,0|4|0
152,136,212343,1,0
232,184,212570,2,0,C|202:258|232:360,1,160,0|0
296,272,213252,1,0
368,216,213479,2,0,C|412:155|400:56,1,160
304,48,214161,2,0,B|320:144,1,80
208,336,214843,6,0,B|192:240,1,80
194,257,215297,1,0
232,72,215752,2,0,B|320:64,1,80
384,128,216206,2,0,B|384:224,1,80,0|0
336,296,216661,2,0,B|224:288,1,80,0|0
160,272,217115,2,0,B|-21:239|112:72,1,240,0|0
264,24,218252,5,0
264,24,218365,1,0
328,96,218593,1,0
328,96,218706,1,0
392,168,218934,1,0
392,168,219047,1,0
392,168,219161,1,4
336,248,219388,6,0,C|280:344,1,80
200,288,219843,1,0
112,248,220070,2,0,C|184:152,1,80
216,104,220524,1,0
256,192,220752,1,0
256,192,220865,12,4,223706
