osu file format v14

[General]
AudioFilename: audio.mp3
AudioLeadIn: 0
PreviewTime: 32302
Countdown: 0
SampleSet: Soft
StackLeniency: 0.4
Mode: 0
LetterboxInBreaks: 0
WidescreenStoryboard: 0

[Editor]
DistanceSpacing: 1
BeatDivisor: 8
GridSize: 32
TimelineZoom: 2.999999

[Metadata]
Title:Kemono Friends VS Cerulean BGM Recreation
TitleUnicode:Kemono Friends VS Cerulean BGM Recreation
Artist:Mameyudoufu
ArtistUnicode:Mameyudoufu
Creator:DeRandom Otaku
Version:Standard
Source:けものフレンズ
Tags:ost electro original soundtrack remix Akiyuki Tateyama 立山秋航 snownino_
BeatmapID:1456575
BeatmapSetID:636006

[Difficulty]
HPDrainRate:4.2
CircleSize:4
OverallDifficulty:4.5
ApproachRate:5.5
SliderMultiplier:1.35
SliderTickRate:1

[Events]
//Background and Video events
0,0,"bg.jpg",0,0
//Break Periods
//Storyboard Layer 0 (Background)
//Storyboard Layer 1 (Fail)
//Storyboard Layer 2 (Pass)
//Storyboard Layer 3 (Foreground)
//Storyboard Sound Samples

[TimingPoints]
526,468.75,4,2,0,45,1,0
526,-100,4,2,0,45,0,0
2401,-100,4,2,0,45,0,0
31463,-100,4,2,0,70,0,0
31932,-100,4,2,0,70,0,0
32401,-100,4,2,0,78,0,1
39783,-100,4,2,0,78,0,0
39901,-100,4,2,0,78,0,1
45526,-100,4,2,0,78,0,1
45994,-100,4,2,0,78,0,1
47283,-100,4,2,0,78,0,0
47401,-100,4,2,0,78,0,1
54783,-100,4,2,0,78,0,0
54901,-100,4,2,0,78,0,1
57713,-100,4,2,0,78,0,1
58651,-100,4,2,0,78,0,1
60526,-100,4,2,0,78,0,1
60994,-100,4,2,0,78,0,1
62401,-100,4,2,0,70,0,0
62635,-100,4,2,0,5,0,0
62752,-100,4,2,0,70,0,0
62928,-100,4,2,0,5,0,0
62986,-100,4,2,0,70,0,0
63807,-100,4,2,0,70,0,0
64276,-100,4,2,0,70,0,0
64920,-100,4,2,0,5,0,0
64979,-100,4,2,0,70,0,0
65154,-100,4,2,0,5,0,0
65213,-100,4,2,0,70,0,0
65389,-100,4,2,0,5,0,0
65447,-100,4,2,0,70,0,0
65623,-100,4,2,0,5,0,0
65682,-100,4,2,0,70,0,0
66092,-100,4,2,0,5,0,0
66151,-100,4,2,0,70,0,0
66385,-100,4,2,0,5,0,0
66502,-100,4,2,0,70,0,0
66678,-100,4,2,0,5,0,0
66736,-100,4,2,0,70,0,0
67557,-100,4,2,0,70,0,0
68026,-100,4,2,0,70,0,0
68494,-100,4,2,0,70,0,0
69901,-100,4,2,0,70,0,0
76932,-100,4,2,0,70,0,0

[Colours]
Combo1 : 88,113,228
Combo2 : 101,144,127
Combo3 : 50,91,143
Combo4 : 63,48,91

[HitObjects]
301,353,526,6,0,P|331:255|427:259,1,202.5,0|0,0:0|0:0,0:0:0:0:
456,301,1463,1,8,0:0:0:0:
211,353,2401,2,0,P|180:255|84:259,1,202.5,0|0,0:0|0:0,0:0:0:0:
56,301,3338,1,8,0:0:0:0:
97,61,4276,6,0,L|311:82,1,202.5,0|0,0:0|0:0,0:0:0:0:
358,91,5213,1,8,0:0:0:0:
412,333,6151,2,0,L|210:352,1,202.5,0|0,0:0|0:0,0:0:0:0:
151,363,7088,1,8,0:0:0:0:
285,160,8026,6,0,P|307:203|302:270,2,101.25,0|0|0,0:0|0:0|0:0,0:0:0:0:
248,111,8963,1,8,0:0:0:0:
114,314,9901,2,0,P|92:271|97:204,2,101.25,0|0|0,0:0|0:0|0:0,0:0:0:0:
151,363,10838,1,8,0:0:0:0:
285,160,11776,6,0,L|404:163,2,101.25,0|0|0,0:0|0:0|0:0,0:0:0:0:
224,157,12713,1,8,0:0:0:0:
361,353,13651,2,0,L|480:356,2,101.25,0|0|0,0:0|0:0|0:0,0:0:0:0:
300,350,14588,1,0,0:0:0:0:
92,218,15526,6,0,P|67:157|92:96,1,135,4|0,0:0|0:0,0:0:0:0:
204,49,16463,2,0,L|196:190,1,135,8|0,0:0|0:0,0:0:0:0:
315,183,17401,2,0,L|308:49,1,135,0|0,0:0|0:0,0:0:0:0:
419,95,18338,2,0,P|444:156|419:218,1,135,8|0,0:0|0:0,0:0:0:0:
316,281,19276,6,0,L|176:278,1,135,0|2,0:0|0:0,0:0:0:0:
68,232,20213,1,8,0:0:0:0:
84,352,20682,1,2,0:0:0:0:
181,278,21151,2,0,P|189:222|156:146,1,135,0|2,0:0|0:0,0:0:0:0:
95,47,22088,1,8,0:0:0:0:
216,47,22557,1,2,0:0:0:0:
256,192,23026,12,2,30408,0:0:0:0:
52,274,31463,6,0,L|120:267,1,67.5,8|8,0:0|0:0,0:0:0:0:
206,258,31932,1,2,0:3:0:0:
381,266,32401,6,0,L|391:380,2,101.25,6|2|2,1:2|0:0|0:0,0:0:0:0:
369,179,33338,2,0,P|403:173|434:150,1,67.5,2|2,1:2|0:0,0:0:0:0:
429,66,33807,2,0,P|401:47|368:41,1,67.5,2|2,1:2|0:0,0:0:0:0:
312,109,34276,6,0,B|266:109|266:109|255:116|255:116|207:116,1,101.25,2|2,1:2|0:0,0:0:0:0:
186,80,34744,1,2,1:2:0:0:
104,41,34979,1,2,0:0:0:0:
104,41,35213,2,0,P|114:73|108:109,1,67.5,2|2,1:2|0:0,0:0:0:0:
63,181,35682,2,0,P|58:214|62:249,1,67.5,2|2,1:2|0:0,0:0:0:0:
17,324,36151,6,0,P|62:308|118:323,1,101.25,2|2,1:2|0:0,0:0:0:0:
153,335,36619,1,2,1:2:0:0:
238,360,36854,1,2,0:0:0:0:
238,360,37088,2,0,P|246:324|242:292,1,67.5,2|2,1:2|0:0,0:0:0:0:
218,209,37557,2,0,P|252:205|296:215,1,67.5,2|2,1:2|0:0,0:0:0:0:
350,268,38026,6,0,B|336:221|336:221|351:152,1,101.25,2|0,1:2|0:0,0:0:0:0:
374,136,38494,2,0,L|379:69,1,67.5,2|2,1:2|0:0,0:0:0:0:
447,13,38963,1,2,1:2:0:0:
494,88,39197,1,2,0:0:0:0:
492,175,39432,1,2,1:2:0:0:
451,252,39666,1,2,0:0:0:0:
487,332,39901,6,0,P|458:363|393:364,1,101.25,6|2,1:2|0:0,0:0:0:0:
360,351,40369,1,0,0:0:0:0:
277,323,40604,1,2,0:2:0:0:
277,323,40838,2,0,P|249:345|216:357,1,67.5,2|2,1:2|0:0,0:0:0:0:
131,371,41307,1,2,1:2:0:0:
167,291,41541,1,2,0:0:0:0:
138,207,41776,6,0,L|33:215,2,101.25,2|2|2,1:2|0:0|0:0,0:0:0:0:
222,183,42713,2,0,P|231:150|227:115,1,67.5,2|2,1:2|0:0,0:0:0:0:
218,29,43182,1,2,1:2:0:0:
133,52,43416,1,2,0:2:0:0:
54,15,43651,6,0,P|39:62|39:127,1,101.25,2|2,1:2|0:0,0:0:0:0:
68,143,44119,1,2,1:2:0:0:
138,207,44354,1,2,0:0:0:0:
138,207,44588,2,0,P|147:240|137:282,1,67.5,2|2,1:2|0:2,0:0:0:0:
127,359,45057,2,0,P|161:354|199:359,1,67.5,2|2,1:2|0:2,0:0:0:0:
280,369,45526,5,2,1:2:0:0:
297,283,45760,1,0,0:0:0:0:
384,269,45994,1,2,1:2:0:0:
327,201,46229,1,0,0:0:0:0:
262,140,46463,2,0,L|222:142,2,33.75,0|0|0,1:0|0:0|0:0,0:0:0:0:
336,92,46932,2,0,L|376:90,2,33.75,2|2|2,0:0|0:0|0:0,0:0:0:0:
265,39,47401,6,0,L|134:43,1,101.25,6|2,1:2|0:0,0:0:0:0:
126,64,47869,1,0,0:0:0:0:
40,88,48104,1,2,0:0:0:0:
40,88,48338,2,0,B|47:115|47:115|44:159,1,67.5,0|2,1:0|0:2,0:0:0:0:
32,241,48807,1,2,1:2:0:0:
109,281,49041,1,2,0:0:0:0:
98,369,49276,6,0,P|137:349|195:348,1,101.25,2|2,1:2|0:0,0:0:0:0:
237,352,49744,1,2,1:2:0:0:
323,368,49979,1,2,0:0:0:0:
323,368,50213,2,0,P|330:340|326:299,1,67.5,2|2,1:2|0:0,0:0:0:0:
266,238,50682,1,2,1:2:0:0:
310,162,50916,1,2,0:0:0:0:
301,75,51151,6,0,L|181:80,2,101.25,2|2|2,1:2|0:0|0:0,0:0:0:0:
388,65,52088,2,0,B|398:95|398:95|395:130,1,67.5,2|2,1:2|0:2,0:0:0:0:
330,191,52557,1,2,1:2:0:0:
413,217,52791,1,2,0:2:0:0:
488,167,53026,6,0,P|500:226|481:278,1,101.25,0|0,1:2|0:0,0:0:0:0:
461,300,53494,2,0,P|428:308|399:326,1,67.5,2|2,1:2|0:0,0:0:0:0:
330,379,53963,1,2,1:2:0:0:
256,331,54197,1,2,0:0:0:0:
185,279,54432,1,2,1:2:0:0:
164,364,54666,1,2,0:2:0:0:
77,346,54901,6,0,B|73:314|73:314|77:223,1,101.25,6|2,1:2|0:0,0:0:0:0:
81,201,55369,1,0,0:0:0:0:
87,114,55604,1,2,0:0:0:0:
87,114,55838,2,0,P|119:123|155:117,1,67.5,2|2,1:2|0:0,0:0:0:0:
227,72,56307,2,0,P|259:63|292:68,1,67.5,2|2,1:2|0:0,0:0:0:0:
380,74,56776,6,0,P|364:121|378:169,2,101.25,2|2|2,1:2|0:0|0:0,0:0:0:0:
453,122,57713,1,0,0:0:0:0:
453,122,58651,6,0,L|461:243,1,101.25,6|2,1:2|0:0,0:0:0:0:
479,262,59119,1,0,0:0:0:0:
478,353,59354,1,2,0:0:0:0:
478,353,59588,2,0,P|443:346|406:352,1,67.5,2|2,1:2|0:0,0:0:0:0:
324,357,60057,1,2,1:2:0:0:
371,283,60291,1,2,0:0:0:0:
332,203,60526,6,0,P|325:169|326:137,1,67.5,2|0,1:2|1:0,0:0:0:0:
283,60,60994,1,2,1:2:0:0:
235,134,61229,1,0,1:0:0:0:
180,203,61463,2,0,P|149:215|115:212,1,67.5,0|0,1:0|1:0,0:0:0:0:
27,218,61932,1,0,1:0:0:0:
48,133,62166,1,0,1:0:0:0:
135,131,62401,6,0,L|124:26,2,101.25,6|2|2,1:2|0:0|0:0,0:0:0:0:
180,203,63338,1,8,0:0:0:0:
235,134,63572,1,8,0:0:0:0:
302,193,63807,2,0,P|319:160|312:90,1,101.25,2|0,0:0|0:0,0:0:0:0:
299,57,64276,6,0,P|344:105|412:107,1,135,6|2,1:2|0:0,0:0:0:0:
497,98,64979,1,2,0:0:0:0:
458,176,65213,1,2,0:0:0:0:
498,253,65447,1,2,0:0:0:0:
448,325,65682,2,0,B|398:325|398:325|347:351,1,101.25,2|0,0:0|0:0,0:0:0:0:
311,363,66151,6,0,L|193:363,1,101.25,6|2,1:2|0:0,0:0:0:0:
89,309,66854,1,2,0:0:0:0:
89,309,67088,2,0,B|95:282|95:282|91:268|91:268|98:238,1,67.5,2|2,0:1|0:1,0:0:0:0:
115,157,67557,1,2,0:0:0:0:
258,56,68026,6,0,P|290:111|255:169,1,135,6|2,1:2|0:0,0:0:0:0:
190,112,68729,1,2,0:0:0:0:
115,157,68963,1,2,0:0:0:0:
96,243,69197,1,2,0:0:0:0:
148,313,69432,2,0,P|189:276|200:220,1,101.25,2|0,0:0|0:0,0:0:0:0:
236,205,69901,6,0,L|378:215,1,135,12|8,0:0|0:0,0:0:0:0:
441,269,70604,1,2,0:0:0:0:
487,194,70838,2,0,P|491:159|488:124,1,67.5,8|0,0:0|0:0,0:0:0:0:
437,54,71307,1,8,0:0:0:0:
370,214,71776,6,0,P|353:273|366:317,1,101.25,8|2,0:0|0:0,0:0:0:0:
391,343,72244,1,8,0:0:0:0:
441,269,72479,1,2,0:0:0:0:
370,214,72713,2,0,L|296:217,1,67.5,8|0,0:0|0:0,0:0:0:0:
217,239,73182,2,0,B|220:204|220:204|211:165,1,67.5,8|2,0:0|0:0,0:0:0:0:
178,94,73651,6,0,P|148:112|114:118,1,67.5,8|8,0:0|0:0,0:0:0:0:
33,90,74119,2,0,L|35:166,1,67.5,8|8,0:0|0:0,0:0:0:0:
96,219,74588,1,8,0:0:0:0:
50,293,74822,1,8,0:0:0:0:
114,352,75057,2,0,P|147:352|188:334,1,67.5,8|8,0:0|0:0,0:0:0:0:
248,286,75526,6,0,L|243:247,2,33.75,8|8|8,0:0|0:0|0:0,0:0:0:0:
335,276,75994,2,0,L|330:242,2,33.75,8|8|8,0:0|0:0|0:0,0:0:0:0:
422,266,76463,2,0,L|417:232,2,33.75,8|8|8,0:0|0:0|0:0,0:0:0:0:
436,352,76932,6,0,B|396:358|396:358|378:354|378:354|336:362,1,101.25,2|0,0:1|0:0,0:0:0:0:
