osu file format v14

[General]
AudioFilename: audio.mp3
AudioLeadIn: 0
PreviewTime: 32302
Countdown: 0
SampleSet: Soft
StackLeniency: 0.4
Mode: 0
LetterboxInBreaks: 0
WidescreenStoryboard: 1

[Editor]
DistanceSpacing: 1
BeatDivisor: 8
GridSize: 16
TimelineZoom: 3.299999

[Metadata]
Title:Kemono Friends VS Cerulean BGM Recreation
TitleUnicode:Kemono Friends VS Cerulean BGM Recreation
Artist:Mameyudoufu
ArtistUnicode:Mameyudoufu
Creator:DeRandom Otaku
Version:NiNo's Another
Source:けものフレンズ
Tags:ost electro original soundtrack remix Akiyuki Tateyama 立山秋航 snownino_
BeatmapID:1458215
BeatmapSetID:636006

[Difficulty]
HPDrainRate:5
CircleSize:4
OverallDifficulty:7
ApproachRate:9
SliderMultiplier:3
SliderTickRate:1

[Events]
//Background and Video events
0,0,"bg.jpg",0,0
//Break Periods
//Storyboard Layer 0 (Background)
//Storyboard Layer 1 (Fail)
//Storyboard Layer 2 (Pass)
//Storyboard Layer 3 (Foreground)
//Storyboard Sound Samples

[TimingPoints]
526,468.75,4,2,0,45,1,0
877,-133.333333333333,4,2,0,45,0,0
15643,-133.333333333333,4,2,0,35,0,0
32401,-83.3333333333333,4,2,0,85,0,0
62401,-200,4,2,0,85,0,0
63338,-66.6666666666667,4,2,0,85,0,0
63807,-50,4,2,0,85,0,0
64744,-66.6666666666667,4,2,0,85,0,0
65682,-50,4,2,0,85,0,0
66151,-200,4,2,0,85,0,0
67088,-66.6666666666667,4,2,0,85,0,0
67557,-50,4,2,0,85,0,0
68729,-100,4,2,0,85,0,0
69432,-50,4,2,0,85,0,0
69901,-100,4,2,0,85,0,0
76932,-50,4,2,0,85,0,0

[Colours]
Combo1 : 88,113,228
Combo2 : 101,144,127
Combo3 : 50,91,143
Combo4 : 63,48,91

[HitObjects]
104,102,526,5,0,0:0:0:0:
104,102,643,1,0,0:0:0:0:
63,198,877,2,0,P|163:208|194:267,1,168.750006437302,0|0,0:0|0:0,0:0:0:0:
317,336,1463,5,8,0:0:0:0:
317,336,1580,1,0,0:0:0:0:
396,273,1815,2,0,L|378:83,1,168.750006437302,0|0,0:0|0:0,0:0:0:0:
178,46,2401,5,0,0:0:0:0:
178,46,2518,1,0,0:0:0:0:
132,136,2752,2,0,P|220:137|274:76,1,168.750006437302,0|0,0:0|0:0,0:0:0:0:
402,25,3338,5,8,0:0:0:0:
402,25,3455,1,0,0:0:0:0:
488,78,3690,2,0,B|453:149|453:149|476:259,1,168.750006437302,0|0,0:0|0:0,0:0:0:0:
363,350,4276,5,0,0:0:0:0:
363,350,4393,1,0,0:0:0:0:
325,256,4627,1,0,0:0:0:0:
325,256,4979,1,0,0:0:0:0:
258,332,5213,5,8,0:0:0:0:
258,332,5330,1,0,0:0:0:0:
220,238,5565,1,0,0:0:0:0:
220,238,5916,1,0,0:0:0:0:
153,314,6151,5,0,0:0:0:0:
153,314,6268,1,0,0:0:0:0:
115,220,6502,1,0,0:0:0:0:
115,220,6854,1,0,0:0:0:0:
48,296,7088,5,8,0:0:0:0:
48,296,7205,1,0,0:0:0:0:
10,202,7440,2,0,B|49:127|49:127|24:33,1,168.750006437302,0|0,0:0|0:0,0:0:0:0:
136,23,8026,5,0,0:0:0:0:
136,23,8143,1,0,0:0:0:0:
131,123,8377,2,0,P|190:81|295:110,1,168.750006437302,0|0,0:0|0:0,0:0:0:0:
350,170,8963,5,8,0:0:0:0:
350,170,9080,1,0,0:0:0:0:
270,266,9315,2,0,L|281:91,1,168.750006437302,0|0,0:0|0:0,0:0:0:0:
364,40,9901,5,0,0:0:0:0:
364,40,10018,1,0,0:0:0:0:
221,17,10252,2,0,L|46:25,1,168.750006437302,0|0,0:0|0:0,0:0:0:0:
24,122,10838,5,8,0:0:0:0:
24,122,10955,1,0,0:0:0:0:
124,106,11190,2,0,B|162:168|162:168|130:268,1,168.750006437302,0|0,0:0|0:0,0:0:0:0:
66,336,11776,5,0,0:0:0:0:
66,336,11893,1,0,0:0:0:0:
132,259,12127,1,0,0:0:0:0:
132,259,12479,1,0,0:0:0:0:
177,349,12713,5,8,0:0:0:0:
177,349,12830,1,0,0:0:0:0:
243,272,13064,1,0,0:0:0:0:
243,272,13416,1,0,0:0:0:0:
288,362,13651,5,0,0:0:0:0:
288,362,13768,1,0,0:0:0:0:
354,285,14002,1,0,0:0:0:0:
354,285,14354,1,0,0:0:0:0:
399,375,14588,5,0,0:0:0:0:
399,375,14705,1,0,0:0:0:0:
465,298,14940,2,0,B|440:227|440:227|472:127,1,168.750006437302,0|0,0:0|0:0,0:0:0:0:
483,37,15526,6,0,L|414:43,1,56.2500021457673,4|0,0:0|0:0,0:0:0:0:
378,104,15760,2,0,L|309:98,1,56.2500021457673,0|0,0:0|0:0,0:0:0:0:
245,45,15994,1,0,0:0:0:0:
233,56,16111,1,0,0:0:0:0:
226,71,16229,1,0,0:0:0:0:
223,87,16346,1,0,0:0:0:0:
225,103,16463,6,0,L|235:189,1,56.2500021457673,8|0,0:0|0:0,0:0:0:0:
155,186,16697,2,0,L|148:241,1,56.2500021457673,0|0,0:0|0:0,0:0:0:0:
166,329,16932,1,0,0:0:0:0:
179,318,17049,1,0,0:0:0:0:
194,312,17166,1,0,0:0:0:0:
210,310,17283,1,0,0:0:0:0:
226,311,17401,6,0,L|297:320,1,56.2500021457673,0|0,0:0|0:0,0:0:0:0:
351,366,17635,2,0,L|422:357,1,56.2500021457673,0|0,0:0|0:0,0:0:0:0:
509,360,17869,1,0,0:0:0:0:
506,343,17986,1,0,0:0:0:0:
503,326,18104,1,0,0:0:0:0:
500,309,18221,1,0,0:0:0:0:
497,292,18338,6,0,L|487:221,1,56.2500021457673,8|0,0:0|0:0,0:0:0:0:
418,190,18572,2,0,L|428:119,1,56.2500021457673,0|0,0:0|0:0,0:0:0:0:
482,58,18807,1,0,0:0:0:0:
469,46,18924,1,0,0:0:0:0:
454,37,19041,1,0,0:0:0:0:
438,31,19158,1,0,0:0:0:0:
421,30,19276,6,0,L|357:35,1,56.2500021457673,0|0,0:0|0:0,0:0:0:0:
311,98,19510,2,0,L|247:93,1,56.2500021457673,0|0,0:0|0:0,0:0:0:0:
166,27,19744,1,2,0:0:0:0:
145,46,19861,1,0,0:0:0:0:
135,72,19979,1,0,0:0:0:0:
132,99,20096,1,0,0:0:0:0:
136,126,20213,6,0,P|151:165|162:180,1,56.2500021457673,8|0,0:0|0:0,0:0:0:0:
238,205,20447,2,0,P|223:244|212:259,1,56.2500021457673,0|0,0:0|0:0,0:0:0:0:
149,322,20682,1,2,0:0:0:0:
167,301,20799,1,0,0:0:0:0:
193,290,20916,1,0,0:0:0:0:
220,287,21033,1,0,0:0:0:0:
247,294,21151,6,0,L|314:302,1,56.2500021457673,0|0,0:0|0:0,0:0:0:0:
363,360,21385,2,0,L|430:352,1,56.2500021457673,0|0,0:0|0:0,0:0:0:0:
488,296,21619,1,2,0:0:0:0:
466,278,21736,1,0,0:0:0:0:
455,251,21854,1,0,0:0:0:0:
458,223,21971,1,0,0:0:0:0:
474,200,22088,6,0,P|484:167|486:138,1,56.2500021457673,8|0,0:0|0:0,0:0:0:0:
422,91,22322,2,0,P|412:58|410:29,1,56.2500021457673,0|0,0:0|0:0,0:0:0:0:
332,76,22557,1,2,0:0:0:0:
315,99,22674,1,0,0:0:0:0:
291,114,22791,1,0,0:0:0:0:
263,117,22908,1,0,0:0:0:0:
235,109,23026,6,0,P|197:99|169:101,1,56.2500021457673,2|0,0:0|0:0,0:0:0:0:
130,166,23260,2,0,P|92:176|64:174,1,56.2500021457673,0|0,0:0|0:0,0:0:0:0:
11,122,23494,1,0,0:0:0:0:
22,134,23611,1,0,0:0:0:0:
29,149,23729,1,0,0:0:0:0:
33,165,23846,1,0,0:0:0:0:
31,181,23963,6,0,L|25:247,1,56.2500021457673,10|0,0:0|0:0,0:0:0:0:
92,290,24197,2,0,L|98:356,1,56.2500021457673,0|0,0:0|0:0,0:0:0:0:
180,366,24432,1,0,0:0:0:0:
196,366,24549,1,0,0:0:0:0:
212,361,24666,1,0,0:0:0:0:
226,352,24783,1,0,0:0:0:0:
234,337,24901,6,0,P|246:298|245:273,1,56.2500021457673,2|0,0:0|0:0,0:0:0:0:
184,225,25135,2,0,P|172:186|173:161,1,56.2500021457673,0|0,0:0|0:0,0:0:0:0:
200,91,25369,1,0,0:0:0:0:
212,101,25486,1,0,0:0:0:0:
227,108,25604,1,0,0:0:0:0:
243,110,25721,1,0,0:0:0:0:
259,110,25838,6,0,P|294:104|322:84,1,56.2500021457673,10|0,0:0|0:0,0:0:0:0:
363,27,26072,2,0,P|398:33|426:53,1,56.2500021457673,0|0,0:0|0:0,0:0:0:0:
454,120,26307,1,0,0:0:0:0:
453,136,26424,1,0,0:0:0:0:
452,152,26541,1,0,0:0:0:0:
451,168,26658,1,0,0:0:0:0:
450,184,26776,6,0,L|443:249,3,56.2500021457673,2|0|0|0,0:0|0:0|0:0|0:0,0:0:0:0:
365,169,27244,2,0,L|358:104,3,56.2500021457673,2|0|0|0,0:0|0:0|0:0|0:0,0:0:0:0:
302,228,27713,2,0,L|295:293,3,56.2500021457673,10|0|0|0,0:0|0:0|0:0|0:0,0:0:0:0:
217,213,28181,2,0,L|210:148,3,56.2500021457673,2|0|0|0,0:0|0:0|0:0|0:0,0:0:0:0:
173,288,28651,6,0,L|106:280,1,56.2500021457673,2|0,0:0|0:0,0:0:0:0:
66,198,28885,2,0,L|133:190,1,56.2500021457673,2|0,0:0|0:0,0:0:0:0:
211,157,29119,2,0,L|219:224,1,56.2500021457673,2|0,0:0|0:0,0:0:0:0:
294,268,29354,2,0,L|302:201,1,56.2500021457673,2|0,0:0|0:0,0:0:0:0:
322,104,29588,6,0,B|293:89|293:89|258:85,1,56.2500021457673,2|0,0:0|0:0,0:0:0:0:
399,176,29822,2,0,B|422:173|422:173|451:158,1,56.2500021457673,2|0,0:0|0:0,0:0:0:0:
300,212,30057,2,0,B|277:193|277:193|256:157,1,56.2500021457673,2|0,0:0|0:0,0:0:0:0:
367,304,30291,2,0,B|390:285|390:285|411:249,1,56.2500021457673,2|0,0:0|0:0,0:0:0:0:
168,158,31463,6,0,L|172:120,4,28.1250010728836,8|8|8|0|8,0:0|0:0|0:0|0:0|0:0,0:0:0:0:
158,242,31815,1,8,0:0:0:0:
249,134,31932,1,2,0:3:0:0:
249,134,32401,6,0,B|358:114|358:114|412:162,1,179.999994506836,6|0,1:2|0:0,0:0:0:0:
329,213,32752,1,2,0:0:0:0:
329,213,32869,2,0,B|220:233|220:233|166:185,1,179.999994506836,2|2,1:2|0:0,0:0:0:0:
258,44,33338,6,0,L|247:150,1,89.9999972534181,2|0,1:2|0:0,0:0:0:0:
338,302,33572,2,0,L|327:196,1,89.9999972534181,2|0,0:0|0:0,0:0:0:0:
168,187,33807,2,0,P|211:222|257:230,1,89.9999972534181,2|0,1:2|0:0,0:0:0:0:
325,91,34041,2,0,P|282:103|249:133,1,89.9999972534181,2|0,0:0|0:0,0:0:0:0:
338,301,34276,6,0,P|390:239|330:185,1,179.999994506836,2|0,1:2|0:0,0:0:0:0:
243,229,34627,1,2,0:0:0:0:
243,229,34744,2,0,P|223:281|224:319,1,89.9999972534181,2|0,1:2|0:0,0:0:0:0:
249,133,34979,2,0,P|213:89|180:71,1,89.9999972534181,2|0,0:0|0:0,0:0:0:0:
77,202,35213,6,0,P|132:193|164:173,1,89.9999972534181,2|0,1:2|0:0,0:0:0:0:
269,47,35447,2,0,P|249:99|250:137,1,89.9999972534181,2|0,0:0|0:0,0:0:0:0:
243,229,35682,1,2,1:2:0:0:
243,229,35799,1,0,0:0:0:0:
331,185,35916,2,0,L|438:177,1,89.9999972534181,2|0,0:0|0:0,0:0:0:0:
381,31,36151,6,0,P|324:98|331:186,1,179.999994506836,2|0,1:2|0:0,0:0:0:0:
382,260,36502,1,2,0:0:0:0:
420,178,36619,2,0,P|330:186|292:266,1,179.999994506836,2|2,1:2|0:0,0:0:0:0:
335,338,36971,1,0,0:0:0:0:
460,297,37088,6,0,P|422:268|350:265,1,89.9999972534181,2|0,1:2|0:0,0:0:0:0:
213,297,37322,2,0,P|256:287|291:259,1,89.9999972534181,2|0,0:0|0:0,0:0:0:0:
226,124,37557,2,0,P|212:166|222:210,1,89.9999972534181,2|0,1:2|0:0,0:0:0:0:
306,84,37791,2,0,P|275:51|234:34,1,89.9999972534181,2|0,0:0|0:0,0:0:0:0:
307,172,38026,6,0,L|416:173,2,89.9999972534181,2|0|0,1:2|0:0|0:0,0:0:0:0:
127,170,38377,1,0,0:0:0:0:
307,172,38494,2,0,L|217:171,1,89.9999972534181,2|2,1:2|0:0,0:0:0:0:
37,169,38729,2,0,L|126:169,1,89.9999972534181,2|0,0:0|0:0,0:0:0:0:
221,175,38963,5,2,1:2:0:0:
221,175,39080,1,0,0:0:0:0:
81,248,39197,2,0,L|170:248,1,89.9999972534181,2|2,0:0|0:0,0:0:0:0:
217,171,39432,5,2,1:2:0:0:
262,250,39549,1,0,0:0:0:0:
216,327,39666,1,2,0:0:0:0:
125,325,39783,1,2,0:0:0:0:
262,250,39901,6,0,B|385:240|385:240|343:296,1,179.999994506836,6|0,1:2|0:0,0:0:0:0:
216,327,40252,1,2,0:0:0:0:
216,327,40369,2,0,P|174:269|221:172,1,179.999994506836,2|2,1:2|0:2,0:0:0:0:
403,119,40838,6,0,L|309:134,1,89.9999972534181,2|0,1:2|0:0,0:0:0:0:
124,162,41072,2,0,L|218:177,1,89.9999972534181,2|0,0:0|0:0,0:0:0:0:
315,220,41307,2,0,P|324:170|305:116,1,89.9999972534181,2|0,1:2|0:0,0:0:0:0:
225,287,41541,2,0,P|263:319|320:330,1,89.9999972534181,2|0,0:0|0:0,0:0:0:0:
465,248,41776,6,0,B|421:193|421:193|300:224,1,179.999994506836,2|0,1:2|0:0,0:0:0:0:
301,330,42127,1,2,0:0:0:0:
301,330,42244,2,0,L|403:356,1,89.9999972534181,2|0,1:2|0:0,0:0:0:0:
314,132,42479,2,0,L|212:158,1,89.9999972534181,2|0,0:0|0:0,0:0:0:0:
161,228,42713,6,0,P|207:251|260:247,1,89.9999972534181,2|0,1:2|0:0,0:0:0:0:
196,60,42947,2,0,P|153:88|130:136,1,89.9999972534181,2|0,0:0|0:0,0:0:0:0:
230,158,43182,1,2,1:2:0:0:
230,158,43299,1,0,0:0:0:0:
314,132,43416,2,0,L|308:26,1,89.9999972534181,2|0,0:2|0:0,0:0:0:0:
400,178,43651,6,0,L|389:369,1,179.999994506836,2|0,1:2|0:0,0:0:0:0:
300,363,44002,1,2,0:0:0:0:
234,299,44119,2,0,P|275:275|325:276,1,89.9999972534181,2|0,1:2|0:0,0:0:0:0:
164,360,44354,2,0,P|119:357|81:334,1,89.9999972534181,2|0,0:0|0:0,0:0:0:0:
126,190,44588,6,0,P|146:229|145:274,1,89.9999972534181,2|0,1:2|0:0,0:0:0:0:
64,131,44822,2,0,P|102:107|146:105,1,89.9999972534181,2|0,0:2|0:0,0:0:0:0:
273,223,45057,2,0,P|233:201|209:164,1,89.9999972534181,2|0,1:2|0:0,0:0:0:0:
313,57,45291,2,0,P|314:101|293:141,1,89.9999972534181,2|0,0:2|0:0,0:0:0:0:
230,82,45526,5,2,1:2:0:0:
396,32,45643,2,0,L|405:225,1,179.999994506836,2|0,0:0|0:0,0:0:0:0:
243,98,45994,5,2,1:2:0:0:
409,48,46111,2,0,L|418:241,1,179.999994506836,2|0,0:0|0:0,0:0:0:0:
495,333,46463,5,0,1:0:0:0:
450,327,46580,1,0,0:0:0:0:
405,322,46697,1,0,0:0:0:0:
359,317,46815,1,0,0:0:0:0:
315,260,46932,5,2,1:2:0:0:
292,263,47049,1,2,0:0:0:0:
270,265,47166,1,2,0:0:0:0:
247,268,47284,1,2,0:0:0:0:
196,318,47401,6,0,L|1:303,1,179.999994506836,6|0,1:2|0:0,0:0:0:0:
163,152,47752,1,2,0:0:0:0:
163,152,47869,2,0,L|358:137,1,179.999994506836,2|2,1:2|0:0,0:0:0:0:
470,279,48338,6,0,P|439:295|361:288,1,89.9999972534181,0|0,1:0|0:0,0:0:0:0:
444,116,48572,2,0,P|473:134|506:205,1,89.9999972534181,2|0,0:2|0:0,0:0:0:0:
316,221,48807,2,0,P|317:186|362:122,1,89.9999972534181,2|0,1:2|0:0,0:0:0:0:
217,250,49041,2,0,P|186:266|108:259,1,89.9999972534181,2|0,0:0|0:0,0:0:0:0:
316,221,49276,6,0,B|346:335|346:335|278:377,1,179.999994506836,2|0,1:2|0:0,0:0:0:0:
221,253,49627,1,2,0:0:0:0:
221,253,49744,2,0,B|245:166,1,89.9999972534181,2|0,1:2|0:0,0:0:0:0:
399,205,49979,2,0,B|423:292,1,89.9999972534181,2|0,0:0|0:0,0:0:0:0:
335,126,50213,6,0,P|389:104|434:112,1,89.9999972534181,2|0,1:2|0:0,0:0:0:0:
245,166,50447,2,0,P|200:166|160:146,1,89.9999972534181,2|0,0:0|0:0,0:0:0:0:
254,67,50682,1,2,1:2:0:0:
254,67,50799,1,0,0:0:0:0:
335,126,50916,2,0,P|344:175|329:221,1,89.9999972534181,2|0,0:0|0:0,0:0:0:0:
152,227,51151,6,0,P|157:155|251:185,1,179.999994506836,2|0,1:2|0:0,0:0:0:0:
266,269,51502,1,2,0:0:0:0:
187,334,51619,2,0,L|-3:319,1,179.999994506836,2|2,1:2|0:0,0:0:0:0:
23,230,51971,1,0,0:0:0:0:
78,160,52088,6,0,P|105:195|111:240,1,89.9999972534181,2|0,1:2|0:0,0:0:0:0:
7,107,52322,2,0,P|13:62|40:27,1,89.9999972534181,2|0,0:2|0:0,0:0:0:0:
164,150,52557,2,0,P|122:166|78:160,1,89.9999972534181,2|0,1:2|0:0,0:0:0:0:
176,12,52791,2,0,P|210:39|227:81,1,89.9999972534181,2|0,0:2|0:0,0:0:0:0:
169,239,53026,6,0,L|163:137,2,89.9999972534181,0|2|0,1:2|0:0|0:0,0:0:0:0:
174,328,53377,1,0,0:0:0:0:
353,317,53494,2,0,L|263:322,1,89.9999972534181,2|2,1:2|0:0,0:0:0:0:
84,333,53729,2,0,L|173:327,1,89.9999972534181,2|0,0:0|0:0,0:0:0:0:
213,246,53963,5,2,1:2:0:0:
213,246,54080,1,0,0:0:0:0:
32,257,54197,2,0,L|121:251,1,89.9999972534181,2|2,0:0|0:0,0:0:0:0:
213,246,54432,5,2,1:2:0:0:
162,171,54549,1,0,0:0:0:0:
202,89,54666,1,2,0:2:0:0:
293,82,54783,1,2,0:2:0:0:
162,171,54901,6,0,P|118:124|148:16,1,179.999994506836,6|0,1:2|0:0,0:0:0:0:
257,168,55252,1,2,0:0:0:0:
257,168,55369,2,0,P|238:229|129:257,1,179.999994506836,2|2,1:2|0:0,0:0:0:0:
293,82,55838,6,0,P|331:115|346:158,1,89.9999972534181,2|0,1:2|0:0,0:0:0:0:
162,171,56072,2,0,P|171:121|201:87,1,89.9999972534181,2|0,0:0|0:0,0:0:0:0:
308,249,56307,2,0,P|260:265|215:256,1,89.9999972534181,2|0,1:2|0:0,0:0:0:0:
345,151,56541,2,0,P|388:178|409:220,1,89.9999972534181,2|0,0:0|0:0,0:0:0:0:
336,331,56776,6,0,L|346:135,1,179.999994506836,2|0,1:2|0:0,0:0:0:0:
309,46,57127,1,2,0:0:0:0:
309,46,57244,2,0,B|218:64,1,89.9999972534181,2|0,1:2|0:0,0:0:0:0:
140,152,57479,2,0,B|231:170,1,89.9999972534181,2|0,0:0|0:0,0:0:0:0:
345,151,57713,5,0,0:0:0:0:
338,181,57830,1,0,0:0:0:0:
331,211,57947,1,0,0:0:0:0:
324,241,58065,1,0,0:0:0:0:
230,264,58182,5,0,0:0:0:0:
237,294,58299,1,0,0:0:0:0:
244,324,58416,1,0,0:0:0:0:
251,354,58534,1,0,0:0:0:0:
360,364,58651,6,0,P|428:357|470:248,1,179.999994506836,6|0,1:2|0:0,0:0:0:0:
357,127,59002,1,2,0:0:0:0:
357,127,59119,2,0,P|329:189|402:280,1,179.999994506836,2|2,1:2|0:0,0:0:0:0:
232,255,59588,6,0,L|138:244,1,89.9999972534181,2|0,1:2|0:0,0:0:0:0:
268,137,59822,2,0,L|362:126,1,89.9999972534181,2|0,0:0|0:0,0:0:0:0:
204,73,60057,2,0,P|178:114|179:163,1,89.9999972534181,2|0,1:2|0:0,0:0:0:0:
291,327,60291,2,0,P|317:286|316:237,1,89.9999972534181,2|0,0:0|0:0,0:0:0:0:
176,154,60526,5,2,1:2:0:0:
91,238,60643,2,0,B|124:295|124:295|232:255,1,179.999994506836,2|0,0:0|0:0,0:0:0:0:
209,130,60994,1,2,1:2:0:0:
65,154,61111,2,0,B|10:181|10:181|4:304,1,179.999994506836,2|0,0:0|0:0,0:0:0:0:
74,356,61463,5,0,1:0:0:0:
118,277,61580,1,0,1:0:0:0:
188,334,61697,1,0,1:0:0:0:
232,255,61815,1,0,1:0:0:0:
302,312,61932,2,0,L|296:364,6,44.999998626709,0|0|0|0|0|0|0,1:0|1:0|1:0|1:0|1:0|1:0|1:0,0:0:0:0:
334,283,62401,6,0,B|347:266|347:266|331:252|331:252|346:236|346:236|328:221|328:221|342:205|342:205|325:191|325:191|339:174|339:174|323:160|323:160|337:144|337:144|320:130|320:130|334:113|334:113|317:99,1,262.5,6|2,1:2|0:0,0:0:0:0:
249,55,63338,6,0,B|205:49|205:49|179:61|179:61|134:53,1,112.500004291535,8|0,0:0|0:0,0:0:0:0:
19,158,63572,2,0,B|63:152|63:152|89:164|89:164|134:156,1,112.500004291535,8|0,0:0|0:0,0:0:0:0:
263,199,63807,6,0,B|240:175|220:126|220:126|228:157|224:188|205:220|205:220|236:239|244:288|244:288|195:371|195:371|192:320|140:288,1,450,2|0,0:0|0:0,0:0:0:0:
96,221,64276,6,0,B|59:243|50:295|62:326|62:326|-7:234|9:94|9:94|42:140|107:130,1,450,6|0,1:2|0:0,0:0:0:0:
176,30,64744,6,0,B|157:26|143:16|143:16|126:23|100:22|100:22|90:37|65:61,1,112.500004291535,2|0,0:0|0:0,0:0:0:0:
185,144,64979,2,0,B|195:153|205:168|205:168|231:167|248:174|248:174|262:164|281:160,1,112.500004291535,2|0,0:0|0:0,0:0:0:0:
155,47,65213,2,0,B|136:43|122:33|122:33|105:40|79:39|79:39|69:54|44:78,1,112.500004291535,2|0,0:0|0:0,0:0:0:0:
164,166,65448,2,0,B|174:175|184:190|184:190|210:189|227:196|227:196|241:186|260:182,1,112.500004291535,2|0,0:0|0:0,0:0:0:0:
73,155,65682,6,0,B|49:205|9:222|9:222|23:284|4:358|4:358|38:296|69:278|69:278|84:347|178:356,1,450,2|0,0:0|0:0,0:0:0:0:
217,307,66151,6,0,B|233:293|233:293|247:309|247:309|263:294|263:294|278:312|278:312|294:298|294:298|308:315|308:315|325:301|325:301|339:317|339:317|355:303|355:303|369:320|369:320|386:306|386:306|400:323,1,262.5,6|2,1:2|0:0,0:0:0:0:
460,252,67088,6,0,B|461:217|440:194|440:194|460:167|450:117,1,112.500004291535,2|0,0:1|0:0,0:0:0:0:
350,128,67322,2,0,B|349:93|370:70|370:70|350:43|360:-7,1,112.500004291535,2|0,0:1|0:0,0:0:0:0:
354,218,67557,6,0,B|310:218|265:187|261:132|261:132|260:215|173:304|173:304|197:246|168:177,1,450,2|0,0:0|0:0,0:0:0:0:
160,96,68026,6,0,B|103:80|46:106|46:106|114:71|146:23|146:23|186:70|246:46|246:46|292:78|359:61,1,450,6|0,1:2|0:0,0:0:0:0:
465,151,68494,2,0,B|441:77|441:77|476:7,1,150,2|0,0:0|0:0,0:0:0:0:
308,207,68729,6,0,L|312:169,1,37.5,2|0,0:0|0:0,0:0:0:0:
281,207,68846,2,0,L|285:169,1,37.5,2|0,0:0|0:0,0:0:0:0:
238,189,68963,2,0,L|234:152,1,37.5,2|0,0:0|0:0,0:0:0:0:
211,189,69080,2,0,L|207:152,1,37.5,2|0,0:0|0:0,0:0:0:0:
170,211,69197,2,0,L|174:173,1,37.5,2|0,0:0|0:0,0:0:0:0:
143,211,69314,2,0,L|147:173,1,37.5,2|0,0:0|0:0,0:0:0:0:
70,243,69432,6,0,B|83:274|130:292|130:292|73:272|22:282|22:282|46:213|51:104|51:104|34:153|-10:180,1,450,2|0,0:0|0:0,0:0:0:0:
31,16,69901,6,0,P|82:18|135:104,1,150,12|0,0:0|0:0,0:0:0:0:
143,211,70252,1,2,0:0:0:0:
213,218,70369,2,0,L|220:49,1,150,8|2,0:0|0:0,0:0:0:0:
288,262,70838,6,0,B|260:291|260:291|214:303,1,75,8|0,0:0|0:0,0:0:0:0:
69,153,71072,2,0,B|97:124|97:124|143:112,1,75,0|2,0:0|0:0,0:0:0:0:
213,218,71307,2,0,B|155:266|155:266|132:180,1,150,8|2,0:0|0:0,0:0:0:0:
277,36,71776,6,0,B|307:31|307:31|329:48|329:48|358:41|358:41|378:61|378:61|404:54|404:54|422:69|422:69|453:63|453:63|478:85,1,225,8|2,0:0|0:0,0:0:0:0:
460,181,72244,6,0,B|433:210|433:210|423:259,1,75,8|0,0:0|0:0,0:0:0:0:
352,131,72479,2,0,B|343:169|343:169|358:217,1,75,2|0,0:0|0:0,0:0:0:0:
233,141,72713,2,0,B|244:178|244:178|282:212,1,75,8|0,0:0|0:0,0:0:0:0:
135,209,72948,2,0,B|164:236|164:236|212:246,1,75,0|2,0:0|0:0,0:0:0:0:
84,316,73182,2,0,B|145:286|145:286|121:112,1,225,8|2,0:0|0:0,0:0:0:0:
115,46,73651,6,0,P|158:52|194:82,1,75,8|0,0:0|0:0,0:0:0:0:
138,201,73885,2,0,P|121:160|129:114,1,75,8|0,0:0|0:0,0:0:0:0:
261,104,74119,2,0,P|234:138|190:154,1,75,8|0,0:0|0:0,0:0:0:0:
254,19,74354,1,8,0:0:0:0:
254,19,74471,1,0,0:0:0:0:
332,56,74588,6,0,P|348:96|340:142,1,75,8|0,0:0|0:0,0:0:0:0:
206,151,74822,2,0,P|232:116|276:100,1,75,8|0,0:0|0:0,0:0:0:0:
352,213,75057,2,0,P|309:207|273:177,1,75,8|0,0:0|0:0,0:0:0:0:
424,165,75291,1,8,0:0:0:0:
424,165,75408,1,0,0:0:0:0:
430,251,75526,5,8,0:0:0:0:
408,281,75643,1,8,0:0:0:0:
375,299,75760,1,8,0:0:0:0:
338,300,75877,1,8,0:0:0:0:
304,286,75995,1,8,0:0:0:0:
269,271,76112,1,8,0:0:0:0:
232,273,76229,1,8,0:0:0:0:
199,291,76346,1,8,0:0:0:0:
178,321,76463,2,0,L|173:374,6,37.5,8|2|8|2|8|2|8,0:0|0:0|0:0|0:0|0:0|0:0|0:0,0:0:0:0:
145,249,76932,6,0,B|116:254|85:283|85:283|139:223|154:148|154:148|148:205|165:226,2,300,2|0|0,0:1|0:0|0:0,0:0:0:0:
