osu file format v14

[General]
AudioFilename: audio.mp3
AudioLeadIn: 0
PreviewTime: 32302
Countdown: 0
SampleSet: Soft
StackLeniency: 0.4
Mode: 0
LetterboxInBreaks: 0
WidescreenStoryboard: 0

[Editor]
DistanceSpacing: 1
BeatDivisor: 8
GridSize: 32
TimelineZoom: 3.099999

[Metadata]
Title:Kemono Friends VS Cerulean BGM Recreation
TitleUnicode:Kemono Friends VS Cerulean BGM Recreation
Artist:Mameyudoufu
ArtistUnicode:Mameyudoufu
Creator:DeRandom Otaku
Version:Ex
Source:けものフレンズ
Tags:ost electro original soundtrack remix Akiyuki Tateyama 立山秋航 snownino_
BeatmapID:1349635
BeatmapSetID:636006

[Difficulty]
HPDrainRate:6
CircleSize:4
OverallDifficulty:8
ApproachRate:9.3
SliderMultiplier:2.35
SliderTickRate:1

[Events]
//Background and Video events
0,0,"bg.jpg",0,0
//Break Periods
//Storyboard Layer 0 (Background)
//Storyboard Layer 1 (Fail)
//Storyboard Layer 2 (Pass)
//Storyboard Layer 3 (Foreground)
//Storyboard Sound Samples

[TimingPoints]
526,468.75,4,2,0,45,1,0
526,-133.333333333333,4,2,0,45,0,0
2401,-137.931034482759,4,2,0,45,0,0
28651,-100,4,2,0,45,0,0
31463,-62.5,4,2,0,70,0,0
31932,-65.7894736842105,4,2,0,70,0,0
32401,-60.6060606060606,4,2,0,78,0,1
39783,-60.6060606060606,4,2,0,78,0,0
39901,-60.6060606060606,4,2,0,78,0,1
45526,-76.9230769230769,4,2,0,78,0,1
45994,-66.6666666666667,4,2,0,78,0,1
47283,-60.6060606060606,4,2,0,78,0,0
47401,-60.6060606060606,4,2,0,78,0,1
54783,-60.6060606060606,4,2,0,78,0,0
54901,-60.6060606060606,4,2,0,78,0,1
57713,-100,4,2,0,78,0,1
58651,-60.6060606060606,4,2,0,78,0,1
60526,-76.9230769230769,4,2,0,78,0,1
60994,-66.6666666666667,4,2,0,78,0,1
62401,-71.4285714285714,4,2,0,70,0,0
62635,-71.4285714285714,4,2,0,5,0,0
62752,-71.4285714285714,4,2,0,70,0,0
62928,-71.4285714285714,4,2,0,5,0,0
62986,-71.4285714285714,4,2,0,70,0,0
63807,-66.6666666666667,4,2,0,70,0,0
64276,-100,4,2,0,70,0,0
64920,-100,4,2,0,5,0,0
64979,-100,4,2,0,70,0,0
65154,-100,4,2,0,5,0,0
65213,-100,4,2,0,70,0,0
65389,-100,4,2,0,5,0,0
65447,-100,4,2,0,70,0,0
65623,-100,4,2,0,5,0,0
65682,-111.111111111111,4,2,0,70,0,0
66092,-111.111111111111,4,2,0,5,0,0
66151,-71.4285714285714,4,2,0,70,0,0
66385,-71.4285714285714,4,2,0,5,0,0
66502,-71.4285714285714,4,2,0,70,0,0
66678,-71.4285714285714,4,2,0,5,0,0
66736,-71.4285714285714,4,2,0,70,0,0
67557,-62.5,4,2,0,70,0,0
68026,-100,4,2,0,70,0,0
68494,-83.3333333333333,4,2,0,70,0,0
69901,-74.0740740740741,4,2,0,70,0,0
76932,-50,4,2,0,70,0,0

[Colours]
Combo1 : 88,113,228
Combo2 : 101,144,127
Combo3 : 50,91,143
Combo4 : 63,48,91

[HitObjects]
370,332,526,5,0,0:0:0:0:
370,332,643,1,0,0:0:0:0:
425,255,877,2,0,P|386:280|303:280,1,132.187505042553
142,332,1463,5,8,0:0:0:0:
142,332,1580,1,0,0:0:0:0:
87,255,1814,2,0,P|126:280|209:280,1,132.187505042553
256,75,2401,5,0,0:0:0:0:
256,75,2518,1,0,0:0:0:0:
256,202,2752,2,0,L|256:68,1,127.781253899574
256,287,3338,5,8,0:0:0:0:
256,287,3455,1,0,0:0:0:0:
256,202,3690,1,0,0:0:0:0:
256,75,4041,1,0,0:0:0:0:
355,192,4276,5,0,0:0:0:0:
355,192,4393,1,0,0:0:0:0:
256,75,4627,2,0,L|256:210,1,127.781253899574
256,309,5213,5,8,0:0:0:0:
256,309,5330,1,0,0:0:0:0:
355,192,5565,2,0,L|355:324,1,127.781253899574
256,309,6151,5,0,0:0:0:0:
256,309,6268,1,0,0:0:0:0:
157,192,6502,2,0,L|157:324,1,127.781253899574
256,309,7088,5,8,0:0:0:0:
256,309,7205,1,0,0:0:0:0:
355,192,7440,1,0,0:0:0:0:
157,192,7791,1,0,0:0:0:0:
256,75,8026,5,0,0:0:0:0:
256,75,8143,1,0,0:0:0:0:
355,192,8377,2,0,B|441:192|441:192|410:161,1,127.781253899574
256,75,8963,5,8,0:0:0:0:
256,75,9080,1,0,0:0:0:0:
157,192,9315,2,0,B|71:192|71:192|102:161,1,127.781253899574
256,75,9901,5,0,0:0:0:0:
256,75,10018,1,0,0:0:0:0:
226,218,10252,2,0,L|255:160|255:160|286:219,1,127.781253899574
256,309,10838,5,8,0:0:0:0:
256,309,10955,1,0,0:0:0:0:
355,192,11190,1,0,0:0:0:0:
157,192,11541,1,0,0:0:0:0:
407,134,11776,5,0,0:0:0:0:
407,134,11893,1,0,0:0:0:0:
408,249,12127,2,0,P|431:202|406:133,1,127.781253899574
105,134,12713,5,8,0:0:0:0:
105,134,12830,1,0,0:0:0:0:
104,249,13064,2,0,P|81:202|106:133,1,127.781253899574
256,302,13651,5,0,0:0:0:0:
256,302,13768,1,0,0:0:0:0:
200,250,14002,2,0,P|257:225|313:252,1,127.781253899574
256,192,14588,12,0,15408,0:0:0:0:
209,175,15526,6,0,P|222:156|242:142,3,42.5937512998581,4|0|0|0,0:0|0:0|0:0|0:0,0:0:0:0:
303,209,15994,2,0,P|290:228|270:242,3,42.5937512998581
197,255,16463,5,8,0:0:0:0:
194,265,16580,1,0,0:0:0:0:
192,275,16697,1,0,0:0:0:0:
191,286,16814,1,0,0:0:0:0:
191,296,16931,1,0,0:0:0:0:
191,307,17048,1,0,0:0:0:0:
192,318,17166,1,0,0:0:0:0:
194,328,17283,1,0,0:0:0:0:
197,338,17401,6,0,P|172:347|151:347,3,42.5937512998581
108,292,17869,2,0,P|109:270|117:251,3,42.5937512998581
179,236,18338,5,8,0:0:0:0:
163,235,18455,1,0,0:0:0:0:
147,231,18572,1,0,0:0:0:0:
134,222,18689,1,0,0:0:0:0:
124,210,18806,1,0,0:0:0:0:
117,196,18923,1,0,0:0:0:0:
115,180,19041,1,0,0:0:0:0:
118,164,19158,1,0,0:0:0:0:
126,149,19276,6,0,L|69:143,3,42.5937512998581
97,67,19744,1,2,0:0:0:0:
107,68,19861,1,0,0:0:0:0:
118,69,19978,1,0,0:0:0:0:
128,70,20095,1,0,0:0:0:0:
139,71,20213,6,0,L|196:77,3,42.5937512998581,8|0|0|0,0:0|0:0|0:0|0:0,0:0:0:0:
168,153,20681,1,2,0:0:0:0:
157,151,20798,1,0,0:0:0:0:
146,150,20915,1,0,0:0:0:0:
136,149,21032,1,0,0:0:0:0:
125,148,21151,6,0,P|117:173|117:196,3,42.5937512998581
115,267,21619,1,2,0:0:0:0:
129,260,21736,1,0,0:0:0:0:
145,257,21853,1,0,0:0:0:0:
161,257,21970,1,0,0:0:0:0:
178,257,22088,6,0,P|201:261|231:260,3,42.5937512998581,8|0|0|0,0:0|0:0|0:0|0:0,0:0:0:0:
302,269,22557,1,2,0:0:0:0:
298,253,22674,1,0,0:0:0:0:
297,237,22791,1,0,0:0:0:0:
298,221,22908,1,0,0:0:0:0:
301,206,23026,5,2,0:0:0:0:
334,221,23143,1,0,0:0:0:0:
370,217,23260,1,0,0:0:0:0:
398,194,23377,1,0,0:0:0:0:
409,158,23494,1,0,0:0:0:0:
399,123,23611,1,0,0:0:0:0:
372,99,23729,1,0,0:0:0:0:
335,93,23846,1,0,0:0:0:0:
302,108,23963,6,0,P|282:113|254:109,1,42.5937512998581,10|0,0:0|0:0,0:0:0:0:
218,47,24197,1,0,0:0:0:0:
218,73,24314,1,0,0:0:0:0:
219,100,24431,1,0,0:0:0:0:
220,126,24548,1,0,0:0:0:0:
221,153,24665,1,0,0:0:0:0:
222,180,24782,1,0,0:0:0:0:
223,206,24901,6,0,P|197:200|176:201,1,42.5937512998581,2|0,0:0|0:0,0:0:0:0:
98,201,25135,1,0,0:0:0:0:
78,230,25252,1,0,0:0:0:0:
78,265,25369,1,0,0:0:0:0:
97,295,25486,1,0,0:0:0:0:
130,308,25603,1,0,0:0:0:0:
164,300,25720,1,0,0:0:0:0:
188,276,25838,6,0,L|196:332,1,42.5937512998581,10|0,0:0|0:0,0:0:0:0:
257,364,26072,1,0,0:0:0:0:
279,337,26189,1,0,0:0:0:0:
310,319,26306,1,0,0:0:0:0:
345,313,26423,1,0,0:0:0:0:
380,320,26540,1,0,0:0:0:0:
410,338,26657,1,0,0:0:0:0:
432,366,26776,6,0,P|445:334|448:316,1,42.5937512998581,2|0,0:0|0:0,0:0:0:0:
406,228,27010,1,0,0:0:0:0:
406,228,27127,1,0,0:0:0:0:
406,228,27244,2,0,P|411:207|420:188,1,42.5937512998581,2|0,0:0|0:0,0:0:0:0:
468,84,27479,1,0,0:0:0:0:
468,84,27596,1,0,0:0:0:0:
468,84,27713,6,0,P|446:86|425:86,1,42.5937512998581,10|0,0:0|0:0,0:0:0:0:
329,32,27947,1,0,0:0:0:0:
329,32,28064,1,0,0:0:0:0:
329,32,28181,2,0,P|307:29|286:29,1,42.5937512998581,2|0,0:0|0:0,0:0:0:0:
195,93,28416,1,0,0:0:0:0:
195,93,28533,1,0,0:0:0:0:
195,93,28651,6,0,B|202:120|202:120|196:151,1,58.75,2|0,0:0|0:0,0:0:0:0:
149,248,28885,2,0,B|176:241|176:241|207:247,1,58.75,2|0,0:0|0:0,0:0:0:0:
304,294,29119,2,0,B|297:267|297:267|303:236,1,58.75,2|0,0:0|0:0,0:0:0:0:
350,139,29354,2,0,B|323:146|323:146|292:140,1,58.75,2|0,0:0|0:0,0:0:0:0:
442,45,29588,6,0,L|448:104,1,58.75,2|0,0:0|0:0,0:0:0:0:
385,288,29822,2,0,L|391:229,1,58.75,2|0,0:0|0:0,0:0:0:0:
448,104,30057,2,0,L|454:163,1,58.75,2|0,0:0|0:0,0:0:0:0:
379,347,30291,2,0,L|385:288,1,58.75,2|0,0:0|0:0,0:0:0:0:
246,164,31463,6,0,L|244:213,2,47,8|8|8,0:0|0:0|0:0,0:0:0:0:
247,23,31697,1,8,0:0:0:0:
324,85,31815,1,8,0:0:0:0:
160,207,31932,6,0,P|228:294|330:210,1,267.312487763405,2|0,0:3|0:0,0:0:0:0:
247,23,32401,6,0,B|239:113|239:113|251:123|251:123|243:224,1,193.875001848936,6|0,1:2|0:0,0:0:0:0:
60,251,32752,2,0,B|28:198|28:198|172:208,1,193.875001848936,2|0,0:0|0:0,0:0:0:0:
287,339,33104,2,0,P|242:349|187:328,1,96.9375009244681,2|0,0:0|0:0,0:0:0:0:
34,106,33338,6,0,B|16:151|16:151|31:210,1,96.9375009244681,2|0,1:2|0:0,0:0:0:0:
329,214,33572,2,0,B|347:169|347:169|332:110,1,96.9375009244681,2|0,0:0|0:0,0:0:0:0:
28,198,33807,2,0,B|16:244|16:244|34:289,1,96.9375009244681,2|0,1:2|0:0,0:0:0:0:
335,122,34041,2,0,B|346:75|346:75|328:30,1,96.9375009244681,2|0,0:0|0:0,0:0:0:0:
243,251,34276,6,2,L|449:245,1,193.875001848936,2|0,1:2|0:0,1:2:0:0:
504,179,34627,1,2,0:0:0:0:
353,380,34744,2,0,P|340:337|353:287,1,96.9375009244681,2|0,1:2|0:0,0:0:0:0:
419,146,34979,1,2,0:0:0:0:
437,245,35096,1,0,0:0:0:0:
347,115,35213,6,0,P|377:81|430:70,1,96.9375009244681,2|0,1:2|0:0,0:0:0:0:
243,251,35447,1,2,0:0:0:0:
243,251,35565,1,0,0:0:0:0:
302,36,35682,2,0,P|336:66|347:119,1,96.9375009244681,2|0,1:2|0:0,0:0:0:0:
202,329,35916,2,0,P|168:299|157:246,1,96.9375009244681,2|0,0:0|0:0,0:0:0:0:
430,226,36151,6,0,B|332:277|342:208|242:250,1,193.875001848936,2|0,1:2|0:0,0:0:0:0:
301,335,36502,1,2,0:0:0:0:
430,225,36619,2,0,P|435:175|425:128,1,96.9375009244681,2|0,1:2|0:0,0:0:0:0:
202,329,36854,1,2,0:0:0:0:
301,335,36971,1,0,0:0:0:0:
301,164,37088,6,0,P|262:147|206:153,1,96.9375009244681,2|0,1:2|0:0,0:0:0:0:
10,350,37322,2,0,P|57:355|102:337,1,96.9375009244681,2|0,0:0|0:0,0:0:0:0:
39,150,37557,2,0,L|44:247,1,96.9375009244681,2|0,1:2|0:0,0:0:0:0:
247,346,37791,2,0,L|242:249,1,96.9375009244681,2|0,0:0|0:0,0:0:0:0:
223,24,38026,5,2,1:2:0:0:
178,109,38143,2,2,P|222:120|273:106,2,96.9375009244681,0|0|0,0:0|0:0|0:0,0:0:0:0:
112,38,38494,1,2,1:2:0:0:
88,133,38611,1,2,0:0:0:0:
223,24,38729,2,0,P|267:13|318:27,1,96.9375009244681,2|0,0:0|0:0,0:0:0:0:
368,195,38963,6,0,P|368:144|388:104,1,96.9375009244681,2|0,1:2|0:0,0:0:0:0:
450,251,39197,1,2,0:0:0:0:
450,251,39315,1,2,0:0:0:0:
278,195,39432,2,0,B|300:182|323:176|323:176|353:184|368:195,1,96.9375009244681,2|0,1:2|0:0,0:0:0:0:
353,286,39666,1,2,0:0:0:0:
453,166,39783,1,2,0:0:0:0:
494,351,39901,6,0,B|410:351|410:351|405:365|405:365|304:365,1,193.875001848936,6|0,1:2|0:0,0:0:0:0:
169,272,40252,2,0,B|253:272|253:272|258:286|258:286|359:286,1,193.875001848936,2|0,0:0|0:0,0:0:0:0:
95,315,40604,2,0,P|81:275|101:221,1,96.9375009244681,2|0,0:2|0:0,0:0:0:0:
322,60,40838,6,0,L|316:162,1,96.9375009244681,2|0,1:2|0:0,0:0:0:0:
163,368,41072,2,0,L|169:266,1,96.9375009244681,2|0,0:0|0:0,0:0:0:0:
403,59,41307,2,0,L|397:161,1,96.9375009244681,2|0,1:2|0:0,0:0:0:0:
245,366,41541,2,0,L|251:264,1,96.9375009244681,2|0,0:0|0:0,0:0:0:0:
485,38,41776,6,0,L|473:237,1,193.875001848936,2|0,1:2|0:0,0:0:0:0:
469,360,42127,1,2,0:0:0:0:
384,208,42244,2,0,P|433:208|477:235,1,96.9375009244681,2|0,1:2|0:0,0:0:0:0:
349,356,42479,1,2,0:0:0:0:
410,292,42596,1,0,0:0:0:0:
263,181,42713,6,0,B|248:197|238:222|238:222|241:245|251:269,1,96.9375009244681,2|0,1:2|0:0,0:0:0:0:
469,360,42947,1,2,0:0:0:0:
469,360,43065,1,0,0:0:0:0:
347,260,43182,2,0,L|246:269,1,96.9375009244681,2|0,1:2|0:0,0:0:0:0:
372,368,43416,2,0,L|468:359,1,96.9375009244681,2|0,0:2|0:0,0:0:0:0:
262,181,43651,6,0,L|59:199,1,193.875001848936,2|0,1:2|0:0,0:0:0:0:
251,269,44002,1,2,0:0:0:0:
79,109,44119,2,0,L|176:101,1,96.9375009244681,2|0,1:2|0:0,0:0:0:0:
329,122,44354,1,2,0:0:0:0:
262,181,44471,1,0,0:0:0:0:
396,181,44588,6,0,P|418:125|408:81,1,96.9375009244681,2|0,1:2|0:0,0:0:0:0:
195,240,44822,2,0,P|190:287|211:330,1,96.9375009244681,2|0,0:2|0:0,0:0:0:0:
414,190,45057,2,0,P|436:134|426:90,1,96.9375009244681,2|0,1:2|0:0,0:0:0:0:
171,244,45291,2,0,P|166:291|187:334,1,96.9375009244681,2|0,0:2|0:0,0:0:0:0:
329,122,45526,5,2,1:2:0:0:
394,291,45643,2,0,L|418:363,2,76.3749965038301,2|0|0,0:0|0:0|0:0,0:0:0:0:
329,122,45994,5,2,1:2:0:0:
171,244,46111,2,0,L|93:309,2,88.1250033617021,2|0|0,0:0|0:0|0:0,0:0:0:0:
174,53,46463,5,0,1:0:0:0:
87,98,46580,1,0,0:0:0:0:
85,196,46697,1,0,0:0:0:0:
171,244,46814,1,0,0:0:0:0:
168,342,46932,5,2,0:0:0:0:
83,294,47049,1,2,0:0:0:0:
85,196,47166,1,2,0:0:0:0:
172,152,47283,1,2,1:2:0:0:
362,228,47401,6,0,B|265:268|265:207|153:251,1,193.875001848936,6|0,1:2|0:0,0:0:0:0:
395,146,47752,2,0,P|448:220|400:307,1,193.875001848936,2|0,0:0|0:0,0:0:0:0:
308,149,48104,2,0,P|326:92|363:66,1,96.9375009244681,2|0,0:0|0:0,0:0:0:0:
407,304,48338,6,2,P|364:326|306:326,1,96.9375009244681,0|0,1:0|0:0,0:2:0:0:
217,125,48572,2,0,P|265:127|307:149,1,96.9375009244681,2|0,0:2|0:0,0:0:0:0:
316,328,48807,2,0,P|267:325|225:303,1,96.9375009244681,2|0,1:2|0:0,0:0:0:0:
126,150,49041,2,0,P|168:128|216:125,1,96.9375009244681,2|0,0:0|0:0,0:0:0:0:
72,278,49276,6,0,L|82:76,1,193.875001848936,2|0,1:2|0:0,0:0:0:0:
71,315,49627,1,2,0:0:0:0:
191,212,49744,2,0,L|306:221,1,96.9375009244681,2|0,1:2|0:0,0:0:0:0:
395,235,49979,1,2,0:0:0:0:
351,142,50096,1,0,0:0:0:0:
321,319,50213,6,0,B|343:327|369:320|369:320|394:328|420:319,1,96.9375009244681,2|0,1:2|0:0,0:0:0:0:
191,212,50447,2,0,B|169:204|143:211|143:211|118:204|92:212,1,96.9375009244681,2|0,0:0|0:0,0:0:0:0:
321,336,50682,2,0,B|343:344|369:337|369:337|394:345|420:336,1,96.9375009244681,2|0,1:2|0:0,0:0:0:0:
191,194,50916,2,0,B|169:186|143:193|143:193|118:186|92:194,1,96.9375009244681,2|0,0:0|0:0,0:0:0:0:
395,235,51151,6,0,B|395:101|395:101|352:142,1,193.875001848936,2|0,1:2|0:0,0:0:0:0:
321,336,51502,1,2,0:0:0:0:
395,235,51619,2,0,P|441:223|488:238,1,96.9375009244681,2|0,1:2|0:0,0:0:0:0:
321,336,51854,1,2,0:0:0:0:
439,311,51971,1,0,0:0:0:0:
247,203,52088,6,0,B|231:247|231:247|246:296,1,96.9375009244681,2|0,1:2|0:0,0:0:0:0:
487,237,52322,2,0,B|501:193|501:193|488:144,1,96.9375009244681,2|0,0:2|0:0,0:0:0:0:
248,111,52557,2,0,B|232:155|232:155|247:204,1,96.9375009244681,2|0,1:2|0:0,0:0:0:0:
488,144,52791,2,0,B|502:100|502:100|489:51,1,96.9375009244681,2|0,0:2|0:0,0:0:0:0:
318,252,53026,5,0,1:2:0:0:
393,298,53143,2,0,P|405:248|388:197,2,96.9375009244681,2|0|0,0:0|0:0|0:0,0:0:0:0:
315,340,53494,1,2,1:2:0:0:
318,252,53611,1,2,0:0:0:0:
489,305,53729,2,0,L|393:298,1,96.9375009244681,2|0,0:0|0:0,0:0:0:0:
321,159,53963,6,0,P|332:205|318:251,1,96.9375009244681,2|0,1:2|0:0,0:0:0:0:
202,286,54197,1,2,0:0:0:0:
202,286,54315,1,0,0:0:0:0:
149,206,54432,2,0,L|265:203,1,96.9375009244681,2|0,1:2|0:0,0:0:0:0:
468,198,54666,1,2,0:2:0:0:
401,97,54783,1,2,0:2:0:0:
392,297,54901,6,0,B|308:297|308:297|297:286|297:286|195:286,1,193.875001848936,6|0,1:2|0:0,0:0:0:0:
149,206,55252,2,0,B|206:163|206:163|202:312,1,193.875001848936,2|0,0:0|0:0,0:0:0:0:
110,305,55604,2,0,B|156:286|156:286|208:286,1,96.9375009244681,2|0,0:0|0:0,0:0:0:0:
455,339,55838,6,0,P|468:289|450:247,1,96.9375009244681,2|0,1:2|0:0,0:0:0:0:
202,73,56072,2,0,P|189:123|207:165,1,96.9375009244681,2|0,0:0|0:0,0:0:0:0:
452,249,56307,2,0,P|468:204|455:158,1,96.9375009244681,2|0,1:2|0:0,0:0:0:0:
206,164,56541,2,0,P|189:208|202:254,1,96.9375009244681,2|0,0:0|0:0,0:0:0:0:
396,65,56776,6,2,L|185:74,1,193.875001848936,2|0,1:2|0:0,0:2:0:0:
390,200,57127,1,2,0:0:0:0:
206,164,57244,2,0,L|321:160,1,96.9375009244681,2|0,1:2|0:0,0:0:0:0:
464,144,57479,1,2,0:0:0:0:
390,200,57596,1,0,0:0:0:0:
464,256,57713,6,0,P|471:289|465:318,3,58.75
313,313,58182,2,0,P|309:284|316:256,3,58.75
390,200,58651,6,0,L|193:219,1,193.875001848936,6|0,1:2|0:0,1:0:0:0:
113,290,59002,2,0,P|165:224|74:204,1,193.875001848936,2|0,0:0|0:0,0:0:0:0:
134,359,59354,2,2,P|191:338|218:304,1,96.9375009244681,2|0,0:0|0:0,0:0:0:0:
91,100,59588,6,0,P|77:140|91:197,1,96.9375009244681,2|0,1:2|0:0,0:0:0:0:
276,360,59822,2,0,P|290:320|276:263,1,96.9375009244681,2|0,0:0|0:0,0:0:0:0:
16,284,60057,2,0,L|125:291,1,96.9375009244681,2|0,1:2|0:0,0:0:0:0:
376,262,60291,2,0,L|279:268,1,96.9375009244681,2|0,0:0|0:0,0:0:0:0:
27,212,60526,5,2,1:2:0:0:
174,140,60643,2,0,P|211:131|249:136,2,76.3749965038301,2|0|0,0:0|1:0|0:0,0:0:0:0:
276,342,60994,5,2,1:2:0:0:
249,136,61111,2,0,L|239:42,2,88.1250033617021,2|0|0,0:0|1:0|0:0,0:0:0:0:
276,342,61463,5,0,1:0:0:0:
263,238,61580,1,0,1:0:0:0:
367,225,61697,1,0,1:0:0:0:
380,329,61815,1,0,1:0:0:0:
276,342,61932,6,0,L|218:351,1,44.062501680851,0|0,1:0|1:0,1:0:0:0:
263,238,62049,2,0,L|254:180,1,44.062501680851,0|0,1:0|1:0,1:0:0:0:
367,225,62166,2,0,L|425:216,1,44.062501680851,0|0,1:0|1:0,1:0:0:0:
380,329,62283,2,0,L|389:387,1,44.062501680851,0|0,1:0|1:0,1:0:0:0:
276,342,62401,5,6,1:2:0:0:
367,225,62518,2,0,L|448:234,1,82.2499974899293,2|0,0:0|0:0,0:0:0:0:
263,238,62752,2,0,L|129:224,1,123.374996234894,2|0,0:0|0:0,0:0:0:0:
140,225,62986,5,2,0:0:0:0:
210,194,63104,1,2,0:0:0:0:
221,121,63221,1,2,0:0:0:0:
142,115,63338,6,0,P|153:79|189:49,1,82.2499974899293,8|0,0:0|0:0,0:0:0:0:
340,244,63572,2,0,P|329:280|293:310,1,82.2499974899293,8|0,0:0|0:0,0:0:0:0:
88,230,63807,6,0,B|124:251|137:293|137:293|179:259|179:259|212:296|212:296|230:258|263:237,1,264.375010085106,2|0,0:0|0:0,0:0:0:0:
342,122,64276,6,0,B|339:243|339:243|385:200,1,176.25,6|0,1:2|0:0,0:0:0:0:
401,73,64744,6,0,P|362:47|313:52,1,88.125,2|0,0:0|0:0,0:0:0:0:
263,97,64979,2,0,P|298:122|342:122,1,88.125,2|0,0:0|0:0,0:0:0:0:
214,38,65213,2,0,P|188:77|193:126,1,88.125,2|0,0:0|0:0,0:0:0:0:
238,175,65448,2,0,P|263:140|263:97,1,88.125,2|0,0:0|0:0,0:0:0:0:
170,220,65682,6,0,B|296:218|296:218|245:273,1,185.062494352341,2|0,0:0|0:0,0:0:0:0:
255,261,66151,5,6,1:2:0:0:
370,230,66268,2,0,P|367:190|343:158,1,82.2499974899293,2|0,0:0|0:0,0:0:0:0:
325,322,66502,2,0,L|465:309,1,123.374996234894,2|0,0:0|0:0,0:0:0:0:
447,310,66736,5,2,0:0:0:0:
385,263,66854,1,2,0:0:0:0:
411,185,66971,1,2,0:0:0:0:
492,172,67088,6,0,B|498:132|498:132|482:94,1,82.2499974899293,2|0,0:1|0:0,0:0:0:0:
138,210,67322,2,0,B|133:251|133:251|149:289,1,82.2499974899293,2|0,0:1|0:0,0:0:0:0:
342,157,67557,6,0,B|285:134|238:164|238:164|194:142|194:142|141:178|76:150,1,282,2|0,0:0|0:0,0:0:0:0:
161,27,68026,6,0,P|149:87|101:23,1,176.25,6|0,1:2|0:0,0:0:0:0:
234,14,68494,6,0,P|241:48|236:83,1,70.4999978485108,2|0,0:0|0:0,0:0:0:0:
218,261,68729,5,2,0:0:0:0:
183,253,68846,1,2,0:0:0:0:
342,157,68963,5,2,0:0:0:0:
377,165,69080,1,2,0:0:0:0:
283,320,69197,5,2,0:0:0:0:
249,333,69314,1,2,0:0:0:0:
419,341,69432,6,0,B|459:310|459:310|459:206|459:206|412:173,1,211.499993545532,2|0,0:0|0:0,0:0:0:0:
183,253,69901,6,0,B|274:267|309:204|309:204|324:249|386:263,1,237.93750090766,12|2,0:0|0:0,0:0:0:0:
227,81,70369,2,0,P|214:118|223:157,1,79.3125003025532,8|0,0:0|0:0,0:0:0:0:
372,336,70604,2,0,P|384:299|377:261,1,79.3125003025532,2|0,0:0|0:0,0:0:0:0:
143,154,70838,6,0,L|229:157,1,79.3125003025532,8|0,0:0|0:0,0:0:0:0:
412,173,71072,1,0,0:0:0:0:
377,261,71190,1,2,0:0:0:0:
328,82,71307,2,0,P|330:43|348:8,1,79.3125003025532,8|0,0:0|0:0,0:0:0:0:
497,158,71541,2,0,P|495:197|478:233,1,79.3125003025532,2|0,0:0|0:0,0:0:0:0:
236,360,71776,6,0,P|258:261|377:262,1,237.93750090766,8|2,0:0|0:0,0:0:0:0:
236,360,72244,2,0,P|192:360|145:355,1,79.3125003025532,8|0,0:0|0:0,0:0:0:0:
380,183,72479,2,0,P|380:227|375:274,1,79.3125003025532,2|0,0:0|0:0,0:0:0:0:
203,39,72713,6,0,P|247:39|294:44,1,79.3125003025532,8|0,0:0|0:0,0:0:0:0:
497,158,72947,1,0,0:0:0:0:
380,183,73065,1,2,0:0:0:0:
464,340,73182,2,0,B|474:300|474:300|466:263,1,79.3125003025532,8|0,0:0|0:0,0:0:0:0:
410,77,73416,1,2,0:0:0:0:
497,158,73533,1,2,0:0:0:0:
191,246,73651,6,0,P|213:216|219:172,1,79.3125003025532,8|0,0:0|0:0,0:0:0:0:
321,246,73885,2,0,P|299:216|293:172,1,79.3125003025532,8|0,0:0|0:0,0:0:0:0:
196,332,74119,2,0,P|157:327|125:304,1,79.3125003025532,8|0,0:0|0:0,0:0:0:0:
316,333,74354,2,0,P|354:327|386:304,1,79.3125003025532,8|0,0:0|0:0,0:0:0:0:
388,104,74588,6,0,L|379:192,1,79.3125003025532,8|0,0:0|0:0,0:0:0:0:
132,182,74822,2,0,L|124:104,1,79.3125003025532,8|0,0:0|0:0,0:0:0:0:
413,86,75057,2,0,L|404:174,1,79.3125003025532,8|0,0:0|0:0,0:0:0:0:
107,164,75291,2,0,L|99:86,1,79.3125003025532,8|0,0:0|0:0,0:0:0:0:
301,42,75526,5,8,0:0:0:0:
213,82,75643,1,8,0:0:0:0:
301,122,75760,1,8,0:0:0:0:
213,162,75877,1,8,0:0:0:0:
301,202,75994,1,8,0:0:0:0:
213,242,76111,1,8,0:0:0:0:
301,282,76228,1,8,0:0:0:0:
213,322,76346,1,8,0:0:0:0:
301,362,76463,6,0,L|339:354,3,39.6562501512766,8|2|8|2,0:0|0:0|0:0|0:0,0:0:0:0:
387,282,76697,2,0,L|439:292,3,39.6562501512766,8|2|8|2,0:0|0:0|0:0|0:0,0:0:0:0:
456,201,76932,6,0,B|503:139|433:92|433:92|327:147|450:230|424:290,1,352.5,2|0,0:1|0:0,0:0:0:0:
