osu file format v14

[General]
AudioFilename: audio.mp3
AudioLeadIn: 0
PreviewTime: 32302
Countdown: 0
SampleSet: Soft
StackLeniency: 0.4
Mode: 0
LetterboxInBreaks: 0
WidescreenStoryboard: 0

[Editor]
DistanceSpacing: 1
BeatDivisor: 8
GridSize: 32
TimelineZoom: 3.099999

[Metadata]
Title:Kemono Friends VS Cerulean BGM Recreation
TitleUnicode:Kemono Friends VS Cerulean BGM Recreation
Artist:Mameyudoufu
ArtistUnicode:Mameyudoufu
Creator:DeRandom Otaku
Version:Beginner
Source:けものフレンズ
Tags:ost electro original soundtrack remix Akiyuki Tateyama 立山秋航 snownino_
BeatmapID:1456552
BeatmapSetID:636006

[Difficulty]
HPDrainRate:3
CircleSize:3
OverallDifficulty:3
ApproachRate:3.5
SliderMultiplier:1.2
SliderTickRate:1

[Events]
//Background and Video events
0,0,"bg.jpg",0,0
//Break Periods
//Storyboard Layer 0 (Background)
//Storyboard Layer 1 (Fail)
//Storyboard Layer 2 (Pass)
//Storyboard Layer 3 (Foreground)
//Storyboard Sound Samples

[TimingPoints]
526,468.75,4,2,0,45,1,0
526,-100,4,2,0,45,0,0
2401,-100,4,2,0,45,0,0
31463,-100,4,2,0,70,0,0
31932,-100,4,2,0,70,0,0
32401,-100,4,2,0,78,0,1
39783,-100,4,2,0,78,0,0
39901,-100,4,2,0,78,0,1
45526,-100,4,2,0,78,0,1
45994,-100,4,2,0,78,0,1
47283,-100,4,2,0,78,0,0
47401,-100,4,2,0,78,0,1
54783,-100,4,2,0,78,0,0
54901,-100,4,2,0,78,0,1
57713,-100,4,2,0,78,0,1
58651,-100,4,2,0,78,0,1
60526,-100,4,2,0,78,0,1
60994,-100,4,2,0,78,0,1
62401,-100,4,2,0,70,0,0
62635,-100,4,2,0,5,0,0
62752,-100,4,2,0,70,0,0
62928,-100,4,2,0,5,0,0
62986,-100,4,2,0,70,0,0
63807,-100,4,2,0,70,0,0
64276,-100,4,2,0,70,0,0
64920,-100,4,2,0,5,0,0
64979,-100,4,2,0,70,0,0
65154,-100,4,2,0,5,0,0
65213,-100,4,2,0,70,0,0
65389,-100,4,2,0,5,0,0
65447,-100,4,2,0,70,0,0
65623,-100,4,2,0,5,0,0
65682,-100,4,2,0,70,0,0
66092,-100,4,2,0,5,0,0
66151,-100,4,2,0,70,0,0
66385,-100,4,2,0,5,0,0
66502,-100,4,2,0,70,0,0
66678,-100,4,2,0,5,0,0
66736,-100,4,2,0,70,0,0
67557,-100,4,2,0,70,0,0
68026,-100,4,2,0,70,0,0
68494,-100,4,2,0,70,0,0
69901,-100,4,2,0,70,0,0
76932,-100,4,2,0,70,0,0

[Colours]
Combo1 : 88,113,228
Combo2 : 101,144,127
Combo3 : 50,91,143
Combo4 : 63,48,91

[HitObjects]
84,296,526,6,0,L|332:289,1,240,0|8,0:0|0:0,0:0:0:0:
335,49,2401,2,0,L|87:56,1,240,0|8,0:0|0:0,0:0:0:0:
83,295,4276,6,0,P|98:178|94:47,1,240,0|8,0:0|0:0,0:0:0:0:
335,49,6151,2,0,P|320:166|325:296,1,240,0|8,0:0|0:0,0:0:0:0:
83,295,8026,5,0,0:0:0:0:
94,56,8963,1,8,0:0:0:0:
335,49,9901,1,0,0:0:0:0:
324,289,10838,1,8,0:0:0:0:
83,295,11776,6,0,P|78:175|93:56,2,240,0|8|0,0:0|0:0|0:0,0:0:0:0:
324,287,14588,1,8,0:0:0:0:
335,49,15526,6,0,L|213:54,1,120,4|0,0:0|0:0,0:0:0:0:
247,169,16463,2,0,L|127:164,1,120,8|0,0:0|0:0,0:0:0:0:
31,91,17401,2,0,P|91:189|11:302,1,240,0|8,0:0|0:0,0:0:0:0:
264,365,19276,6,0,L|260:241,1,120,0|2,0:0|0:0,0:0:0:0:
251,125,20213,1,8,0:0:0:0:
371,123,20682,1,2,0:0:0:0:
380,243,21151,2,0,L|499:240,2,120,0|2|8,0:0|0:0|0:0,0:0:0:0:
260,245,22557,1,2,0:0:0:0:
256,192,23026,12,0,30408,0:0:0:0:
136,256,32401,6,0,L|131:355,2,90,6|2|2,1:2|0:0|0:0,0:0:0:0:
133,196,33338,2,0,P|191:212|263:194,1,120,2|2,1:2|1:2,0:0:0:0:
367,181,34276,2,0,P|362:139|373:87,2,90,2|2|2,1:2|0:0|0:0,0:0:0:0:
377,240,35213,1,2,1:2:0:0:
420,351,35682,1,2,1:2:0:0:
304,319,36151,6,0,B|249:319|249:319|187:339|187:339|116:338,1,180,2|2,1:2|0:0,0:0:0:0:
81,299,37088,2,0,P|97:249|80:179,1,120,2|2,1:2|1:2,0:0:0:0:
36,73,38026,2,0,B|95:57|95:57|161:74,1,120,2|2,1:2|1:2,0:0:0:0:
256,130,38963,2,0,P|282:122|320:103,1,60,2|2,1:2|0:0,0:0:0:0:
365,81,39432,2,0,P|377:108|386:136,1,60,2|2,1:2|0:0,0:0:0:0:
446,153,39901,6,0,P|474:109|478:61,2,90,6|2|2,1:2|0:0|0:2,0:0:0:0:
404,195,40838,2,0,P|424:251|405:320,1,120,2|2,1:2|1:2,0:0:0:0:
301,260,41776,2,0,B|208:260|208:260|138:324,1,180,2|2,1:2|0:0,0:0:0:0:
100,360,42713,1,2,1:2:0:0:
15,275,43182,1,2,1:2:0:0:
99,190,43651,6,0,B|109:145|86:103|86:103|128:72|178:95,1,180,2|2,1:2|0:0,0:0:0:0:
229,106,44588,2,0,B|292:119|292:88|360:106,1,120,2|2,1:2|1:2,0:0:0:0:
467,115,45526,1,2,1:2:0:0:
411,221,45994,1,2,1:2:0:0:
476,321,46463,2,0,P|451:335|411:342,1,60,0|0,1:0|0:0,0:0:0:0:
360,341,46932,2,0,P|330:334|304:320,1,60,2|2,1:2|0:0,0:0:0:0:
252,289,47401,6,0,B|267:228|251:200|251:200|232:166|256:93,1,180,6|2,1:2|0:0,0:0:0:0:
259,53,48338,1,0,1:0:0:0:
152,108,48807,1,2,1:2:0:0:
45,163,49276,2,0,P|34:129|37:73,2,90,2|2|2,1:2|0:0|0:0,0:0:0:0:
81,210,50213,2,0,P|96:268|69:330,1,120,2|2,1:2|1:2,0:0:0:0:
189,361,51151,6,0,B|283:361|283:361|302:347|302:347|376:347,1,180,2|2,1:2|0:0,0:0:0:0:
424,347,52088,1,2,1:2:0:0:
508,262,52557,1,2,1:2:0:0:
423,177,53026,2,0,L|296:177,1,120,0|2,1:2|1:2,0:0:0:0:
182,177,53963,2,0,L|213:113,1,60,2|2,1:2|0:0,0:0:0:0:
244,74,54432,2,0,L|270:127,1,60,2|2,1:2|0:0,0:0:0:0:
303,177,54901,6,0,L|298:286,2,90,6|2|2,1:2|0:0|0:0,0:0:0:0:
346,135,55838,1,2,1:2:0:0:
244,74,56307,1,2,1:2:0:0:
180,175,56776,2,0,P|95:175|27:101,1,180,2|2,1:2|0:0,0:0:0:0:
8,55,57713,1,0,0:0:0:0:
244,74,58651,6,0,P|289:74|336:67,2,90,6|2|2,1:2|0:0|0:0,0:0:0:0:
199,33,59588,2,0,L|204:171,1,120,2|2,1:2|1:2,0:0:0:0:
209,273,60526,1,2,1:2:0:0:
102,219,60994,1,2,1:2:0:0:
203,153,61463,2,0,L|270:157,1,60,0|0,1:0|1:0,0:0:0:0:
305,199,61932,2,0,L|364:195,1,60,0|0,1:0|1:0,0:0:0:0:
424,190,62401,6,0,P|408:246|435:306,1,120,6|0,1:2|0:0,0:0:0:0:
326,361,63338,2,0,L|261:357,1,60,8|8,0:0|0:0,0:0:0:0:
206,354,63807,1,2,0:0:0:0:
95,306,64276,2,0,B|111:263|111:263|105:179,1,120,6|2,1:2|0:0,0:0:0:0:
95,129,64979,1,2,0:0:0:0:
95,129,65213,2,0,L|155:132,1,60,2|2,0:0|0:0,0:0:0:0:
214,137,65682,1,2,0:0:0:0:
278,235,66151,6,0,B|331:188|329:130|329:130|375:170|454:150,1,240,6|2,1:2|0:1,0:0:0:0:
404,38,67557,1,2,0:0:0:0:
329,130,68026,1,6,1:2:0:0:
229,65,68494,1,2,0:0:0:0:
229,65,68729,2,0,L|233:5,2,60,2|2|2,0:0|0:0|0:0,0:0:0:0:
228,125,69432,1,2,0:0:0:0:
278,235,69901,6,0,L|417:231,1,120,12|8,0:0|0:0,0:0:0:0:
458,231,70604,1,2,0:0:0:0:
458,231,70838,2,0,P|456:201|457:167,2,60,8|0|8,0:0|0:0|0:0,0:0:0:0:
473,350,71776,1,8,0:0:0:0:
357,317,72244,2,0,L|289:319,1,60,8|2,0:0|0:0,0:0:0:0:
239,336,72713,2,0,L|179:334,1,60,8|0,0:0|0:0,0:0:0:0:
120,319,73182,1,8,0:0:0:0:
32,237,73651,6,0,B|53:158|30:78|30:78|74:58|125:76|125:76|139:135|130:183,1,360,8|8,0:0|0:0,0:0:0:0:
126,296,75526,2,0,B|194:263|270:303|270:303|266:243|266:243|346:306|424:255,1,360,8|2,0:0|0:1,0:0:0:0:
