osu file format v14

[General]
AudioFilename: 07 - [Instrumental].mp3
AudioLeadIn: 0
PreviewTime: 51345
Countdown: 0
SampleSet: Soft
StackLeniency: 0.7
Mode: 3
LetterboxInBreaks: 0
SpecialStyle: 0
WidescreenStoryboard: 1

[Editor]
DistanceSpacing: 0.8
BeatDivisor: 4
GridSize: 8
TimelineZoom: 2.899999

[Metadata]
Title:Haikei, sono hi ga kuru mae ni
TitleUnicode:拝啓、その日が来る前に
Artist:Mamemi
ArtistUnicode:まめみ
Creator:[ S a k u r a ]
Version:Poi Poi Poi
Source:艦隊これくしょん -艦これ-
Tags:kantai collection -kancolle- MARIN 砲雷撃戦、始め! Burning Ambition Amateras Records
BeatmapID:662205
BeatmapSetID:294556

[Difficulty]
HPDrainRate:9
CircleSize:4
OverallDifficulty:9
ApproachRate:5
SliderMultiplier:1.4
SliderTickRate:1

[Events]
//Background and Video events
0,0,"48594410_p0.jpg",0,0
//Break Periods
//Storyboard Layer 0 (Background)
//Storyboard Layer 1 (Fail)
//Storyboard Layer 2 (Pass)
//Storyboard Layer 3 (Foreground)
//Storyboard Sound Samples

[TimingPoints]
1180,392.156862745098,4,2,0,100,1,0

[HitObjects]
64,192,1180,5,0,0:0:0:0:
448,192,1180,1,0,0:0:0:0:
192,192,1376,1,0,0:0:0:0:
320,192,1768,1,0,0:0:0:0:
64,192,2062,1,0,0:0:0:0:
64,192,2356,1,0,0:0:0:0:
448,192,2748,1,0,0:0:0:0:
192,192,3140,1,0,0:0:0:0:
320,192,3336,1,0,0:0:0:0:
192,192,3630,1,0,0:0:0:0:
448,192,3729,1,0,0:0:0:0:
64,192,4023,1,0,0:0:0:0:
320,192,4219,1,0,0:0:0:0:
192,192,4807,1,0,0:0:0:0:
320,192,5003,1,0,0:0:0:0:
64,192,5199,1,0,0:0:0:0:
448,192,5297,1,0,0:0:0:0:
448,192,5787,1,0,0:0:0:0:
192,192,5983,1,0,0:0:0:0:
320,192,6278,1,0,0:0:0:0:
64,192,6376,1,0,0:0:0:0:
192,192,6572,1,0,0:0:0:0:
320,192,7062,1,0,0:0:0:0:
192,192,7258,1,0,0:0:0:0:
64,192,7454,1,0,0:0:0:0:
320,192,7650,1,0,0:0:0:0:
448,192,7846,1,0,0:0:0:0:
192,192,7944,1,0,0:0:0:0:
64,192,8140,1,0,0:0:0:0:
320,192,8434,1,0,0:0:0:0:
448,192,8729,1,0,0:0:0:0:
192,192,8925,1,0,0:0:0:0:
192,192,9219,1,0,0:0:0:0:
320,192,9513,1,0,0:0:0:0:
64,192,9709,1,0,0:0:0:0:
192,192,10003,1,0,0:0:0:0:
320,192,10297,1,0,0:0:0:0:
448,192,10493,1,0,0:0:0:0:
192,192,10787,1,0,0:0:0:0:
448,192,11081,1,0,0:0:0:0:
64,192,11278,1,0,0:0:0:0:
320,192,11572,1,0,0:0:0:0:
192,192,11866,1,0,0:0:0:0:
448,192,12062,1,0,0:0:0:0:
64,192,12356,1,0,0:0:0:0:
320,192,12552,1,0,0:0:0:0:
192,192,12846,1,0,0:0:0:0:
448,192,13140,1,0,0:0:0:0:
320,192,13336,1,0,0:0:0:0:
192,192,13532,1,0,0:0:0:0:
64,192,13729,1,0,0:0:0:0:
320,192,13729,1,0,0:0:0:0:
448,192,13729,1,0,0:0:0:0:
192,192,13925,1,0,0:0:0:0:
448,192,14219,1,0,0:0:0:0:
320,192,14415,1,0,0:0:0:0:
64,192,14709,1,0,0:0:0:0:
192,192,15003,1,0,0:0:0:0:
448,192,15199,1,0,0:0:0:0:
320,192,15493,1,0,0:0:0:0:
64,192,15787,1,0,0:0:0:0:
320,192,15983,1,0,0:0:0:0:
192,192,16278,1,0,0:0:0:0:
448,192,16572,1,0,0:0:0:0:
64,192,16768,1,0,0:0:0:0:
320,192,17356,1,0,0:0:0:0:
64,192,17552,1,0,0:0:0:0:
448,192,17846,1,0,0:0:0:0:
64,192,18140,1,0,0:0:0:0:
192,192,18336,1,0,0:0:0:0:
448,192,18630,1,0,0:0:0:0:
64,192,18925,1,0,0:0:0:0:
320,192,19121,1,0,0:0:0:0:
192,192,19415,1,0,0:0:0:0:
448,192,19611,1,0,0:0:0:0:
64,192,19807,1,0,0:0:0:0:
320,192,20003,1,0,0:0:0:0:
448,192,20101,1,0,0:0:0:0:
192,192,20199,1,0,0:0:0:0:
320,192,20297,1,0,0:0:0:0:
64,192,20395,1,0,0:0:0:0:
448,192,20493,1,0,0:0:0:0:
192,192,20591,1,0,0:0:0:0:
320,192,20689,1,0,0:0:0:0:
64,192,20787,1,0,0:0:0:0:
448,192,20885,1,0,0:0:0:0:
192,192,20983,1,0,0:0:0:0:
320,192,21081,1,0,0:0:0:0:
448,192,21180,1,0,0:0:0:0:
64,192,21278,1,0,0:0:0:0:
192,192,21376,1,0,0:0:0:0:
320,192,21474,1,0,0:0:0:0:
448,192,21572,1,0,0:0:0:0:
64,192,21670,1,0,0:0:0:0:
320,192,21768,1,0,0:0:0:0:
192,192,21866,1,0,0:0:0:0:
448,192,21964,1,0,0:0:0:0:
320,192,22062,1,0,0:0:0:0:
64,192,22160,1,0,0:0:0:0:
192,192,22258,1,0,0:0:0:0:
448,192,22356,1,0,0:0:0:0:
64,192,22454,1,0,0:0:0:0:
192,192,22552,1,0,0:0:0:0:
320,192,22650,1,0,0:0:0:0:
64,192,22748,1,0,0:0:0:0:
448,192,22846,1,0,0:0:0:0:
192,192,22944,1,0,0:0:0:0:
320,192,23042,1,0,0:0:0:0:
64,192,23140,1,0,0:0:0:0:
448,192,23238,1,0,0:0:0:0:
320,192,23336,1,0,0:0:0:0:
192,192,23434,1,0,0:0:0:0:
64,192,23532,1,0,0:0:0:0:
320,192,23630,1,0,0:0:0:0:
192,192,23729,1,0,0:0:0:0:
448,192,23827,1,0,0:0:0:0:
64,192,23925,1,0,0:0:0:0:
320,192,24023,1,0,0:0:0:0:
192,192,24121,1,0,0:0:0:0:
320,192,24219,1,0,0:0:0:0:
448,192,24317,1,0,0:0:0:0:
64,192,24317,1,0,0:0:0:0:
192,192,24415,1,0,0:0:0:0:
320,192,24513,1,0,0:0:0:0:
448,192,24611,1,0,0:0:0:0:
64,192,24709,1,0,0:0:0:0:
192,192,24709,1,0,0:0:0:0:
448,192,24807,1,0,0:0:0:0:
320,192,24807,1,0,0:0:0:0:
64,192,24905,1,0,0:0:0:0:
448,192,24905,1,0,0:0:0:0:
64,192,25003,1,0,0:0:0:0:
320,192,25003,1,0,0:0:0:0:
192,192,25101,1,0,0:0:0:0:
448,192,25101,1,0,0:0:0:0:
448,192,25199,1,0,0:0:0:0:
64,192,25199,1,0,0:0:0:0:
320,192,25297,1,0,0:0:0:0:
64,192,25297,1,0,0:0:0:0:
192,192,25395,1,0,0:0:0:0:
320,192,25395,1,0,0:0:0:0:
64,192,25493,1,0,0:0:0:0:
448,192,25493,1,0,0:0:0:0:
64,192,25591,1,0,0:0:0:0:
192,192,25591,1,0,0:0:0:0:
192,192,25689,1,0,0:0:0:0:
448,192,25689,1,0,0:0:0:0:
320,192,25787,1,0,0:0:0:0:
448,192,25787,1,0,0:0:0:0:
320,192,25885,1,0,0:0:0:0:
64,192,25885,1,0,0:0:0:0:
64,192,25983,1,0,0:0:0:0:
448,192,25983,1,0,0:0:0:0:
192,192,26081,1,0,0:0:0:0:
448,192,26081,1,0,0:0:0:0:
64,192,26180,1,0,0:0:0:0:
320,192,26180,1,0,0:0:0:0:
448,192,26278,1,0,0:0:0:0:
64,192,26278,1,0,0:0:0:0:
192,192,26278,1,0,0:0:0:0:
320,192,26866,1,0,0:0:0:0:
320,192,26964,1,0,0:0:0:0:
320,192,27160,1,0,0:0:0:0:
320,192,27258,1,0,0:0:0:0:
192,192,27454,1,0,0:0:0:0:
448,192,27552,1,0,0:0:0:0:
64,192,27846,1,0,0:0:0:0:
448,192,27846,1,0,0:0:0:0:
320,192,27846,1,0,0:0:0:0:
448,192,27944,1,0,0:0:0:0:
64,192,27944,1,0,0:0:0:0:
192,192,27944,1,0,0:0:0:0:
320,192,28140,1,0,0:0:0:0:
448,192,28140,1,0,0:0:0:0:
64,192,28140,1,0,0:0:0:0:
192,192,28238,1,0,0:0:0:0:
64,192,28238,1,0,0:0:0:0:
448,192,28238,1,0,0:0:0:0:
320,192,28434,1,0,0:0:0:0:
64,192,28434,1,0,0:0:0:0:
448,192,28434,1,0,0:0:0:0:
64,192,28532,1,0,0:0:0:0:
192,192,28532,1,0,0:0:0:0:
448,192,28532,1,0,0:0:0:0:
320,192,28729,1,0,0:0:0:0:
64,192,28729,1,0,0:0:0:0:
448,192,28729,1,0,0:0:0:0:
192,192,28827,1,0,0:0:0:0:
64,192,28827,1,0,0:0:0:0:
448,192,28827,1,0,0:0:0:0:
64,192,29023,1,0,0:0:0:0:
192,192,29072,1,0,0:0:0:0:
320,192,29121,1,0,0:0:0:0:
448,192,29170,1,0,0:0:0:0:
64,192,29219,1,0,0:0:0:0:
192,192,29268,1,0,0:0:0:0:
320,192,29317,1,0,0:0:0:0:
448,192,29366,1,0,0:0:0:0:
64,192,29415,1,0,0:0:0:0:
192,192,29415,1,0,0:0:0:0:
320,192,29513,1,0,0:0:0:0:
192,192,29611,1,0,0:0:0:0:
448,192,29709,1,0,0:0:0:0:
192,192,30003,1,0,0:0:0:0:
192,192,30101,1,0,0:0:0:0:
448,192,30199,1,0,0:0:0:0:
320,192,30199,1,0,0:0:0:0:
64,192,30199,1,0,0:0:0:0:
192,192,30493,1,0,0:0:0:0:
320,192,30787,1,0,0:0:0:0:
64,192,30983,1,0,0:0:0:0:
192,192,30983,1,0,0:0:0:0:
448,192,30983,1,0,0:0:0:0:
320,192,31081,1,0,0:0:0:0:
448,192,31081,1,0,0:0:0:0:
64,192,31081,1,0,0:0:0:0:
192,192,31278,1,0,0:0:0:0:
64,192,31278,1,0,0:0:0:0:
448,192,31278,1,0,0:0:0:0:
64,192,31376,1,0,0:0:0:0:
448,192,31376,1,0,0:0:0:0:
320,192,31376,1,0,0:0:0:0:
192,192,31572,1,0,0:0:0:0:
64,192,31572,1,0,0:0:0:0:
448,192,31572,1,0,0:0:0:0:
64,192,31670,1,0,0:0:0:0:
320,192,31670,1,0,0:0:0:0:
448,192,31670,1,0,0:0:0:0:
192,192,31866,1,0,0:0:0:0:
64,192,31866,1,0,0:0:0:0:
448,192,31866,1,0,0:0:0:0:
448,192,31964,1,0,0:0:0:0:
320,192,31964,1,0,0:0:0:0:
64,192,31964,1,0,0:0:0:0:
448,192,32160,1,0,0:0:0:0:
320,192,32209,1,0,0:0:0:0:
192,192,32258,1,0,0:0:0:0:
64,192,32307,1,0,0:0:0:0:
448,192,32356,1,0,0:0:0:0:
320,192,32405,1,0,0:0:0:0:
192,192,32454,1,0,0:0:0:0:
64,192,32503,1,0,0:0:0:0:
320,192,32552,1,0,0:0:0:0:
448,192,32552,1,0,0:0:0:0:
192,192,32650,1,0,0:0:0:0:
320,192,32748,1,0,0:0:0:0:
192,192,32846,1,0,0:0:0:0:
64,192,32944,1,0,0:0:0:0:
448,192,32944,1,0,0:0:0:0:
320,192,33140,1,0,0:0:0:0:
192,192,33238,1,0,0:0:0:0:
448,192,33336,1,0,0:0:0:0:
320,192,33336,1,0,0:0:0:0:
64,192,33434,1,0,0:0:0:0:
448,192,33532,1,0,0:0:0:0:
192,192,33729,1,0,0:0:0:0:
64,192,33729,1,0,0:0:0:0:
320,192,33925,1,0,0:0:0:0:
448,192,34121,1,0,0:0:0:0:
64,192,34121,1,0,0:0:0:0:
192,192,34121,1,0,0:0:0:0:
320,192,34219,1,0,0:0:0:0:
64,192,34317,1,0,0:0:0:0:
192,192,34415,1,0,0:0:0:0:
320,192,34513,1,0,0:0:0:0:
448,192,34513,1,0,0:0:0:0:
64,192,34709,1,0,0:0:0:0:
448,192,34807,1,0,0:0:0:0:
320,192,34905,1,0,0:0:0:0:
192,192,34905,1,0,0:0:0:0:
64,192,35003,1,0,0:0:0:0:
64,192,35101,1,0,0:0:0:0:
320,192,35297,1,0,0:0:0:0:
448,192,35297,1,0,0:0:0:0:
192,192,35493,1,0,0:0:0:0:
64,192,35689,1,0,0:0:0:0:
320,192,35689,1,0,0:0:0:0:
448,192,35689,1,0,0:0:0:0:
192,192,35885,1,0,0:0:0:0:
320,192,35983,1,0,0:0:0:0:
448,192,36081,1,0,0:0:0:0:
64,192,36278,1,0,0:0:0:0:
320,192,36376,1,0,0:0:0:0:
192,192,36474,1,0,0:0:0:0:
64,192,36474,1,0,0:0:0:0:
448,192,36474,1,0,0:0:0:0:
320,192,36572,1,0,0:0:0:0:
320,192,36670,1,0,0:0:0:0:
64,192,36866,1,0,0:0:0:0:
192,192,37062,1,0,0:0:0:0:
320,192,37258,1,0,0:0:0:0:
448,192,37258,1,0,0:0:0:0:
64,192,37258,1,0,0:0:0:0:
448,192,37356,1,0,0:0:0:0:
320,192,37356,1,0,0:0:0:0:
192,192,37356,1,0,0:0:0:0:
64,192,37454,1,0,0:0:0:0:
192,192,37503,1,0,0:0:0:0:
320,192,37552,1,0,0:0:0:0:
448,192,37601,1,0,0:0:0:0:
64,192,37650,1,0,0:0:0:0:
192,192,37650,1,0,0:0:0:0:
320,192,37748,1,0,0:0:0:0:
448,192,37748,1,0,0:0:0:0:
64,192,37846,1,0,0:0:0:0:
192,192,37895,1,0,0:0:0:0:
320,192,37944,1,0,0:0:0:0:
448,192,37993,1,0,0:0:0:0:
64,192,38042,1,0,0:0:0:0:
192,192,38042,1,0,0:0:0:0:
320,192,38140,1,0,0:0:0:0:
448,192,38140,1,0,0:0:0:0:
64,192,38238,1,0,0:0:0:0:
192,192,38238,1,0,0:0:0:0:
320,192,38336,1,0,0:0:0:0:
448,192,38336,1,0,0:0:0:0:
64,192,38827,1,0,0:0:0:0:
448,192,38827,1,0,0:0:0:0:
192,192,38925,1,0,0:0:0:0:
320,192,39023,1,0,0:0:0:0:
192,192,39121,1,0,0:0:0:0:
64,192,39219,1,0,0:0:0:0:
448,192,39219,1,0,0:0:0:0:
320,192,39415,1,0,0:0:0:0:
64,192,39513,1,0,0:0:0:0:
192,192,39611,1,0,0:0:0:0:
448,192,39611,1,0,0:0:0:0:
320,192,39709,1,0,0:0:0:0:
64,192,39807,1,0,0:0:0:0:
320,192,40003,1,0,0:0:0:0:
448,192,40003,1,0,0:0:0:0:
192,192,40199,1,0,0:0:0:0:
64,192,40395,1,0,0:0:0:0:
448,192,40395,1,0,0:0:0:0:
320,192,40493,1,0,0:0:0:0:
192,192,40591,1,0,0:0:0:0:
320,192,40689,1,0,0:0:0:0:
192,192,40787,1,0,0:0:0:0:
64,192,40787,1,0,0:0:0:0:
448,192,40983,1,0,0:0:0:0:
64,192,41081,1,0,0:0:0:0:
192,192,41180,1,0,0:0:0:0:
320,192,41180,1,0,0:0:0:0:
448,192,41278,1,0,0:0:0:0:
64,192,41376,1,0,0:0:0:0:
448,192,41572,1,0,0:0:0:0:
192,192,41572,1,0,0:0:0:0:
320,192,41768,1,0,0:0:0:0:
64,192,41964,1,0,0:0:0:0:
448,192,41964,1,0,0:0:0:0:
192,192,42062,1,0,0:0:0:0:
320,192,42160,1,0,0:0:0:0:
64,192,42258,1,0,0:0:0:0:
192,192,42356,1,0,0:0:0:0:
320,192,42356,1,0,0:0:0:0:
448,192,42552,1,0,0:0:0:0:
320,192,42650,1,0,0:0:0:0:
192,192,42748,1,0,0:0:0:0:
64,192,42748,1,0,0:0:0:0:
448,192,42846,1,0,0:0:0:0:
448,192,42944,1,0,0:0:0:0:
320,192,43140,1,0,0:0:0:0:
64,192,43140,1,0,0:0:0:0:
192,192,43336,1,0,0:0:0:0:
320,192,43532,1,0,0:0:0:0:
448,192,43532,1,0,0:0:0:0:
64,192,43630,1,0,0:0:0:0:
192,192,43729,1,0,0:0:0:0:
320,192,43827,1,0,0:0:0:0:
448,192,43925,1,0,0:0:0:0:
64,192,43925,1,0,0:0:0:0:
192,192,44121,1,0,0:0:0:0:
192,192,44219,1,0,0:0:0:0:
320,192,44317,1,0,0:0:0:0:
448,192,44317,1,0,0:0:0:0:
64,192,44415,1,0,0:0:0:0:
64,192,44513,1,0,0:0:0:0:
192,192,44709,1,0,0:0:0:0:
448,192,44709,1,0,0:0:0:0:
320,192,44905,1,0,0:0:0:0:
192,192,45101,1,0,0:0:0:0:
64,192,45101,1,0,0:0:0:0:
448,192,45199,1,0,0:0:0:0:
320,192,45297,1,0,0:0:0:0:
64,192,45395,1,0,0:0:0:0:
192,192,45493,1,0,0:0:0:0:
448,192,45493,1,0,0:0:0:0:
320,192,45689,1,0,0:0:0:0:
320,192,45787,1,0,0:0:0:0:
192,192,45885,1,0,0:0:0:0:
64,192,45885,1,0,0:0:0:0:
448,192,45983,1,0,0:0:0:0:
448,192,46081,1,0,0:0:0:0:
192,192,46180,1,0,0:0:0:0:
64,192,46278,1,0,0:0:0:0:
320,192,46278,1,0,0:0:0:0:
192,192,46474,1,0,0:0:0:0:
320,192,46572,1,0,0:0:0:0:
64,192,46670,1,0,0:0:0:0:
448,192,46670,1,0,0:0:0:0:
192,192,46768,1,0,0:0:0:0:
320,192,46866,1,0,0:0:0:0:
64,192,46964,1,0,0:0:0:0:
192,192,47062,1,0,0:0:0:0:
448,192,47062,1,0,0:0:0:0:
320,192,47160,1,0,0:0:0:0:
64,192,47258,1,0,0:0:0:0:
448,192,47356,1,0,0:0:0:0:
192,192,47454,1,0,0:0:0:0:
64,192,47454,1,0,0:0:0:0:
320,192,47552,1,0,0:0:0:0:
320,192,47650,1,0,0:0:0:0:
64,192,47748,1,0,0:0:0:0:
192,192,47846,1,0,0:0:0:0:
448,192,47846,1,0,0:0:0:0:
320,192,47944,1,0,0:0:0:0:
448,192,48042,1,0,0:0:0:0:
320,192,48140,1,0,0:0:0:0:
192,192,48238,1,0,0:0:0:0:
64,192,48238,1,0,0:0:0:0:
448,192,48336,1,0,0:0:0:0:
320,192,48434,1,0,0:0:0:0:
192,192,48532,1,0,0:0:0:0:
64,192,48630,1,0,0:0:0:0:
448,192,48630,1,0,0:0:0:0:
320,192,48729,1,0,0:0:0:0:
64,192,48827,1,0,0:0:0:0:
448,192,48925,1,0,0:0:0:0:
320,192,49023,1,0,0:0:0:0:
192,192,49023,1,0,0:0:0:0:
64,192,49121,1,0,0:0:0:0:
448,192,49219,1,0,0:0:0:0:
192,192,49317,1,0,0:0:0:0:
320,192,49415,1,0,0:0:0:0:
448,192,49415,1,0,0:0:0:0:
64,192,49513,1,0,0:0:0:0:
192,192,49611,1,0,0:0:0:0:
448,192,49709,1,0,0:0:0:0:
320,192,49807,1,0,0:0:0:0:
64,192,49807,1,0,0:0:0:0:
192,192,49905,1,0,0:0:0:0:
448,192,50003,1,0,0:0:0:0:
320,192,50101,1,0,0:0:0:0:
192,192,50199,1,0,0:0:0:0:
64,192,50199,1,0,0:0:0:0:
448,192,50297,1,0,0:0:0:0:
64,192,50395,1,0,0:0:0:0:
192,192,50493,1,0,0:0:0:0:
448,192,50591,1,0,0:0:0:0:
320,192,50689,1,0,0:0:0:0:
64,192,50787,1,0,0:0:0:0:
192,192,50885,1,0,0:0:0:0:
448,192,50983,1,0,0:0:0:0:
320,192,50983,1,0,0:0:0:0:
64,192,51180,1,0,0:0:0:0:
448,192,51278,1,0,0:0:0:0:
192,192,51376,1,0,0:0:0:0:
320,192,51376,1,0,0:0:0:0:
64,192,51474,1,0,0:0:0:0:
320,192,51572,1,0,0:0:0:0:
192,192,51670,1,0,0:0:0:0:
320,192,51768,1,0,0:0:0:0:
448,192,51768,1,0,0:0:0:0:
64,192,51866,1,0,0:0:0:0:
448,192,51964,1,0,0:0:0:0:
192,192,52062,1,0,0:0:0:0:
320,192,52160,1,0,0:0:0:0:
64,192,52160,1,0,0:0:0:0:
448,192,52356,1,0,0:0:0:0:
320,192,52454,1,0,0:0:0:0:
192,192,52552,1,0,0:0:0:0:
64,192,52552,1,0,0:0:0:0:
448,192,52748,1,0,0:0:0:0:
192,192,52846,1,0,0:0:0:0:
320,192,52944,1,0,0:0:0:0:
64,192,52944,1,0,0:0:0:0:
192,192,53140,1,0,0:0:0:0:
320,192,53238,1,0,0:0:0:0:
448,192,53336,1,0,0:0:0:0:
64,192,53336,1,0,0:0:0:0:
320,192,53532,1,0,0:0:0:0:
192,192,53630,1,0,0:0:0:0:
320,192,53729,1,0,0:0:0:0:
448,192,53729,1,0,0:0:0:0:
64,192,53925,1,0,0:0:0:0:
448,192,54023,1,0,0:0:0:0:
192,192,54121,1,0,0:0:0:0:
320,192,54121,1,0,0:0:0:0:
448,192,54317,1,0,0:0:0:0:
320,192,54415,1,0,0:0:0:0:
64,192,54513,1,0,0:0:0:0:
192,192,54513,1,0,0:0:0:0:
448,192,54709,1,0,0:0:0:0:
64,192,54807,1,0,0:0:0:0:
192,192,54905,1,0,0:0:0:0:
320,192,54905,1,0,0:0:0:0:
64,192,55101,1,0,0:0:0:0:
192,192,55199,1,0,0:0:0:0:
320,192,55297,1,0,0:0:0:0:
448,192,55297,1,0,0:0:0:0:
192,192,55493,1,0,0:0:0:0:
448,192,55591,1,0,0:0:0:0:
320,192,55689,1,0,0:0:0:0:
64,192,55689,1,0,0:0:0:0:
192,192,55885,1,0,0:0:0:0:
320,192,55983,1,0,0:0:0:0:
448,192,56081,1,0,0:0:0:0:
64,192,56081,1,0,0:0:0:0:
192,192,56278,1,0,0:0:0:0:
448,192,56376,1,0,0:0:0:0:
320,192,56474,1,0,0:0:0:0:
64,192,56474,1,0,0:0:0:0:
192,192,56670,1,0,0:0:0:0:
320,192,56768,1,0,0:0:0:0:
64,192,56866,1,0,0:0:0:0:
192,192,56866,1,0,0:0:0:0:
320,192,57062,1,0,0:0:0:0:
192,192,57160,1,0,0:0:0:0:
448,192,57258,1,0,0:0:0:0:
64,192,57258,1,0,0:0:0:0:
320,192,57454,1,0,0:0:0:0:
192,192,57552,1,0,0:0:0:0:
320,192,57650,1,0,0:0:0:0:
448,192,57650,1,0,0:0:0:0:
64,192,57748,1,0,0:0:0:0:
192,192,57846,1,0,0:0:0:0:
448,192,57944,1,0,0:0:0:0:
192,192,58042,1,0,0:0:0:0:
320,192,58042,1,0,0:0:0:0:
64,192,58140,1,0,0:0:0:0:
448,192,58238,1,0,0:0:0:0:
192,192,58336,1,0,0:0:0:0:
320,192,58434,1,0,0:0:0:0:
448,192,58434,1,0,0:0:0:0:
64,192,58532,1,0,0:0:0:0:
192,192,58630,1,0,0:0:0:0:
320,192,58729,1,0,0:0:0:0:
448,192,58827,1,0,0:0:0:0:
64,192,58827,1,0,0:0:0:0:
192,192,59023,1,0,0:0:0:0:
448,192,59121,1,0,0:0:0:0:
64,192,59219,1,0,0:0:0:0:
320,192,59219,1,0,0:0:0:0:
192,192,59415,1,0,0:0:0:0:
64,192,59513,1,0,0:0:0:0:
320,192,59611,1,0,0:0:0:0:
448,192,59611,1,0,0:0:0:0:
448,192,59807,1,0,0:0:0:0:
320,192,59905,1,0,0:0:0:0:
192,192,60003,1,0,0:0:0:0:
64,192,60003,1,0,0:0:0:0:
448,192,60199,1,0,0:0:0:0:
64,192,60297,1,0,0:0:0:0:
192,192,60395,1,0,0:0:0:0:
320,192,60395,1,0,0:0:0:0:
448,192,60493,1,0,0:0:0:0:
64,192,60591,1,0,0:0:0:0:
192,192,60689,1,0,0:0:0:0:
320,192,60787,1,0,0:0:0:0:
448,192,60787,1,0,0:0:0:0:
192,192,60983,1,0,0:0:0:0:
448,192,61081,1,0,0:0:0:0:
320,192,61179,1,0,0:0:0:0:
64,192,61179,1,0,0:0:0:0:
192,192,61278,1,0,0:0:0:0:
448,192,61376,1,0,0:0:0:0:
320,192,61474,1,0,0:0:0:0:
192,192,61572,1,0,0:0:0:0:
64,192,61572,1,0,0:0:0:0:
448,192,61670,1,0,0:0:0:0:
64,192,61768,1,0,0:0:0:0:
192,192,61866,1,0,0:0:0:0:
448,192,61964,1,0,0:0:0:0:
320,192,61964,1,0,0:0:0:0:
64,192,62062,1,0,0:0:0:0:
448,192,62160,1,0,0:0:0:0:
192,192,62258,1,0,0:0:0:0:
64,192,62356,1,0,0:0:0:0:
320,192,62356,1,0,0:0:0:0:
448,192,62454,1,0,0:0:0:0:
192,192,62552,1,0,0:0:0:0:
64,192,62650,1,0,0:0:0:0:
320,192,62748,1,0,0:0:0:0:
448,192,62748,1,0,0:0:0:0:
192,192,62846,1,0,0:0:0:0:
320,192,62944,1,0,0:0:0:0:
448,192,63042,1,0,0:0:0:0:
192,192,63140,1,0,0:0:0:0:
64,192,63140,1,0,0:0:0:0:
320,192,63238,1,0,0:0:0:0:
192,192,63336,1,0,0:0:0:0:
64,192,63434,1,0,0:0:0:0:
448,192,63532,1,0,0:0:0:0:
320,192,63532,1,0,0:0:0:0:
320,192,63729,1,0,0:0:0:0:
192,192,63827,1,0,0:0:0:0:
64,192,63925,1,0,0:0:0:0:
448,192,63925,1,0,0:0:0:0:
320,192,64023,1,0,0:0:0:0:
192,192,64121,1,0,0:0:0:0:
448,192,64219,1,0,0:0:0:0:
320,192,64317,1,0,0:0:0:0:
64,192,64317,1,0,0:0:0:0:
192,192,64415,1,0,0:0:0:0:
448,192,64513,1,0,0:0:0:0:
64,192,64611,1,0,0:0:0:0:
192,192,64709,1,0,0:0:0:0:
320,192,64709,1,0,0:0:0:0:
64,192,64905,1,0,0:0:0:0:
192,192,65003,1,0,0:0:0:0:
320,192,65101,1,0,0:0:0:0:
448,192,65101,1,0,0:0:0:0:
64,192,65297,1,0,0:0:0:0:
448,192,65395,1,0,0:0:0:0:
192,192,65493,1,0,0:0:0:0:
64,192,65493,1,0,0:0:0:0:
320,192,65689,1,0,0:0:0:0:
192,192,65787,1,0,0:0:0:0:
64,192,65885,1,0,0:0:0:0:
448,192,65885,1,0,0:0:0:0:
320,192,66081,1,0,0:0:0:0:
64,192,66180,1,0,0:0:0:0:
192,192,66278,1,0,0:0:0:0:
448,192,66278,1,0,0:0:0:0:
320,192,66474,1,0,0:0:0:0:
64,192,66670,1,0,0:0:0:0:
192,192,66670,1,0,0:0:0:0:
320,192,66866,1,0,0:0:0:0:
64,192,66964,1,0,0:0:0:0:
448,192,67062,1,0,0:0:0:0:
192,192,67062,1,0,0:0:0:0:
320,192,67258,1,0,0:0:0:0:
64,192,67454,1,0,0:0:0:0:
192,192,67454,1,0,0:0:0:0:
448,192,67650,1,0,0:0:0:0:
64,192,67748,1,0,0:0:0:0:
192,192,67846,1,0,0:0:0:0:
320,192,67846,1,0,0:0:0:0:
448,192,68042,1,0,0:0:0:0:
192,192,68140,1,0,0:0:0:0:
320,192,68238,1,0,0:0:0:0:
64,192,68238,1,0,0:0:0:0:
192,192,68434,1,0,0:0:0:0:
320,192,68532,1,0,0:0:0:0:
448,192,68630,1,0,0:0:0:0:
64,192,68630,1,0,0:0:0:0:
192,192,68827,1,0,0:0:0:0:
320,192,68925,1,0,0:0:0:0:
192,192,69023,1,0,0:0:0:0:
64,192,69023,1,0,0:0:0:0:
448,192,69219,1,0,0:0:0:0:
64,192,69317,1,0,0:0:0:0:
192,192,69415,1,0,0:0:0:0:
320,192,69415,1,0,0:0:0:0:
64,192,69611,1,0,0:0:0:0:
320,192,69807,1,0,0:0:0:0:
448,192,69807,1,0,0:0:0:0:
192,192,70003,1,0,0:0:0:0:
320,192,70101,1,0,0:0:0:0:
64,192,70199,1,0,0:0:0:0:
192,192,70199,1,0,0:0:0:0:
448,192,70395,1,0,0:0:0:0:
64,192,70493,1,0,0:0:0:0:
192,192,70591,1,0,0:0:0:0:
320,192,70591,1,0,0:0:0:0:
448,192,70787,1,0,0:0:0:0:
192,192,70885,1,0,0:0:0:0:
64,192,70983,1,0,0:0:0:0:
320,192,70983,1,0,0:0:0:0:
192,192,71180,1,0,0:0:0:0:
320,192,71278,1,0,0:0:0:0:
64,192,71376,1,0,0:0:0:0:
448,192,71376,1,0,0:0:0:0:
192,192,71572,1,0,0:0:0:0:
320,192,71670,1,0,0:0:0:0:
192,192,71768,1,0,0:0:0:0:
64,192,71768,1,0,0:0:0:0:
448,192,71964,1,0,0:0:0:0:
64,192,72062,1,0,0:0:0:0:
192,192,72160,1,0,0:0:0:0:
320,192,72160,1,0,0:0:0:0:
448,192,72356,1,0,0:0:0:0:
192,192,72454,1,0,0:0:0:0:
64,192,72552,1,0,0:0:0:0:
320,192,72552,1,0,0:0:0:0:
192,192,72748,1,0,0:0:0:0:
320,192,72846,1,0,0:0:0:0:
448,192,72944,1,0,0:0:0:0:
64,192,72944,1,0,0:0:0:0:
192,192,73140,1,0,0:0:0:0:
448,192,73238,1,0,0:0:0:0:
320,192,73336,1,0,0:0:0:0:
192,192,73336,1,0,0:0:0:0:
64,192,73532,1,0,0:0:0:0:
192,192,73630,1,0,0:0:0:0:
320,192,73729,1,0,0:0:0:0:
448,192,73729,1,0,0:0:0:0:
64,192,73925,1,0,0:0:0:0:
448,192,74023,1,0,0:0:0:0:
192,192,74121,1,0,0:0:0:0:
320,192,74121,1,0,0:0:0:0:
64,192,74317,1,0,0:0:0:0:
320,192,74415,1,0,0:0:0:0:
192,192,74513,1,0,0:0:0:0:
448,192,74513,1,0,0:0:0:0:
320,192,74709,1,0,0:0:0:0:
192,192,74807,1,0,0:0:0:0:
448,192,74905,1,0,0:0:0:0:
64,192,74905,1,0,0:0:0:0:
320,192,75101,1,0,0:0:0:0:
64,192,75297,1,0,0:0:0:0:
448,192,75395,1,0,0:0:0:0:
192,192,75493,1,0,0:0:0:0:
320,192,75591,1,0,0:0:0:0:
64,192,75689,1,0,0:0:0:0:
448,192,75787,1,0,0:0:0:0:
320,192,75885,1,0,0:0:0:0:
192,192,75983,1,0,0:0:0:0:
64,192,76081,128,0,76474:0:0:0:0:
320,192,76474,1,0,0:0:0:0:
448,192,76474,128,0,77454:0:0:0:0:
192,192,76670,1,0,0:0:0:0:
64,192,76866,1,0,0:0:0:0:
320,192,76866,1,0,0:0:0:0:
192,192,77062,1,0,0:0:0:0:
192,192,77258,1,0,0:0:0:0:
64,192,77258,1,0,0:0:0:0:
64,192,77454,1,0,0:0:0:0:
320,192,77552,1,0,0:0:0:0:
192,192,77650,1,0,0:0:0:0:
64,192,77650,128,0,77846:0:0:0:0:
192,192,77944,1,0,0:0:0:0:
320,192,78042,128,0,78434:0:0:0:0:
448,192,78042,1,0,0:0:0:0:
64,192,78238,1,0,0:0:0:0:
192,192,78434,128,0,78827:0:0:0:0:
64,192,78434,1,0,0:0:0:0:
448,192,78630,1,0,0:0:0:0:
448,192,78827,128,0,79219:0:0:0:0:
320,192,78827,1,0,0:0:0:0:
64,192,79023,1,0,0:0:0:0:
64,192,79219,128,0,79611:0:0:0:0:
192,192,79219,1,0,0:0:0:0:
320,192,79415,1,0,0:0:0:0:
448,192,79611,1,0,0:0:0:0:
192,192,79611,128,0,80591:0:0:0:0:
320,192,79807,1,0,0:0:0:0:
448,192,80003,1,0,0:0:0:0:
320,192,80003,1,0,0:0:0:0:
64,192,80199,1,0,0:0:0:0:
64,192,80395,1,0,0:0:0:0:
320,192,80395,1,0,0:0:0:0:
448,192,80591,1,0,0:0:0:0:
320,192,80689,1,0,0:0:0:0:
64,192,80787,128,0,80983:0:0:0:0:
192,192,80787,1,0,0:0:0:0:
448,192,80983,1,0,0:0:0:0:
192,192,81081,1,0,0:0:0:0:
320,192,81180,1,0,0:0:0:0:
448,192,81180,128,0,82356:0:0:0:0:
64,192,81376,1,0,0:0:0:0:
192,192,81572,1,0,0:0:0:0:
320,192,81572,1,0,0:0:0:0:
64,192,81768,1,0,0:0:0:0:
64,192,81964,1,0,0:0:0:0:
320,192,81964,1,0,0:0:0:0:
192,192,82160,1,0,0:0:0:0:
64,192,82356,128,0,82552:0:0:0:0:
320,192,82356,1,0,0:0:0:0:
192,192,82552,1,0,0:0:0:0:
320,192,82650,1,0,0:0:0:0:
448,192,82748,128,0,83729:0:0:0:0:
64,192,82748,1,0,0:0:0:0:
320,192,82846,1,0,0:0:0:0:
192,192,82944,1,0,0:0:0:0:
64,192,83042,1,0,0:0:0:0:
192,192,83140,1,0,0:0:0:0:
320,192,83140,1,0,0:0:0:0:
64,192,83238,1,0,0:0:0:0:
192,192,83336,1,0,0:0:0:0:
320,192,83434,1,0,0:0:0:0:
64,192,83532,1,0,0:0:0:0:
192,192,83532,1,0,0:0:0:0:
320,192,83630,1,0,0:0:0:0:
192,192,83729,1,0,0:0:0:0:
320,192,83827,1,0,0:0:0:0:
448,192,83925,1,0,0:0:0:0:
64,192,83925,128,0,84121:0:0:0:0:
320,192,84023,1,0,0:0:0:0:
192,192,84121,1,0,0:0:0:0:
320,192,84219,1,0,0:0:0:0:
448,192,84317,128,0,84709:0:0:0:0:
64,192,84317,1,0,0:0:0:0:
192,192,84415,1,0,0:0:0:0:
320,192,84513,1,0,0:0:0:0:
192,192,84611,1,0,0:0:0:0:
64,192,84709,128,0,85101:0:0:0:0:
320,192,84709,1,0,0:0:0:0:
192,192,84807,1,0,0:0:0:0:
448,192,84905,1,0,0:0:0:0:
320,192,85003,1,0,0:0:0:0:
448,192,85101,128,0,85493:0:0:0:0:
192,192,85101,1,0,0:0:0:0:
320,192,85199,1,0,0:0:0:0:
64,192,85297,1,0,0:0:0:0:
192,192,85395,1,0,0:0:0:0:
320,192,85493,1,0,0:0:0:0:
64,192,85493,128,0,85885:0:0:0:0:
192,192,85591,1,0,0:0:0:0:
320,192,85689,1,0,0:0:0:0:
448,192,85787,1,0,0:0:0:0:
320,192,85885,1,0,0:0:0:0:
192,192,85885,1,0,0:0:0:0:
448,192,85983,1,0,0:0:0:0:
64,192,85983,1,0,0:0:0:0:
192,192,86081,1,0,0:0:0:0:
448,192,86081,1,0,0:0:0:0:
320,192,86180,1,0,0:0:0:0:
192,192,86180,1,0,0:0:0:0:
64,192,86278,1,0,0:0:0:0:
320,192,86278,1,0,0:0:0:0:
192,192,86376,1,0,0:0:0:0:
448,192,86376,1,0,0:0:0:0:
64,192,86474,1,0,0:0:0:0:
448,192,86474,1,0,0:0:0:0:
192,192,86572,1,0,0:0:0:0:
320,192,86572,1,0,0:0:0:0:
64,192,86670,1,0,0:0:0:0:
320,192,86670,1,0,0:0:0:0:
192,192,86768,1,0,0:0:0:0:
448,192,86768,1,0,0:0:0:0:
448,192,86866,1,0,0:0:0:0:
320,192,86866,1,0,0:0:0:0:
64,192,86964,1,0,0:0:0:0:
320,192,86964,1,0,0:0:0:0:
192,192,87062,1,0,0:0:0:0:
448,192,87062,1,0,0:0:0:0:
64,192,87160,1,0,0:0:0:0:
448,192,87160,1,0,0:0:0:0:
64,192,87258,1,0,0:0:0:0:
320,192,87258,1,0,0:0:0:0:
192,192,87356,1,0,0:0:0:0:
320,192,87356,1,0,0:0:0:0:
64,192,87454,1,0,0:0:0:0:
448,192,87454,128,0,87846:0:0:0:0:
320,192,87650,1,0,0:0:0:0:
192,192,87748,1,0,0:0:0:0:
320,192,87846,128,0,88238:0:0:0:0:
64,192,87846,1,0,0:0:0:0:
192,192,87944,1,0,0:0:0:0:
448,192,88042,1,0,0:0:0:0:
64,192,88140,1,0,0:0:0:0:
192,192,88238,128,0,88630:0:0:0:0:
448,192,88238,1,0,0:0:0:0:
320,192,88336,1,0,0:0:0:0:
64,192,88434,1,0,0:0:0:0:
448,192,88532,1,0,0:0:0:0:
64,192,88630,128,0,89023:0:0:0:0:
320,192,88630,1,0,0:0:0:0:
448,192,88827,1,0,0:0:0:0:
192,192,89023,1,0,0:0:0:0:
320,192,89023,1,0,0:0:0:0:
448,192,89023,1,0,0:0:0:0:
192,192,89219,1,0,0:0:0:0:
320,192,89317,1,0,0:0:0:0:
448,192,89415,1,0,0:0:0:0:
64,192,89415,1,0,0:0:0:0:
320,192,89611,1,0,0:0:0:0:
320,192,89709,1,0,0:0:0:0:
64,192,89807,1,0,0:0:0:0:
192,192,89807,1,0,0:0:0:0:
448,192,89905,1,0,0:0:0:0:
448,192,90003,1,0,0:0:0:0:
192,192,90199,1,0,0:0:0:0:
320,192,90199,1,0,0:0:0:0:
64,192,90395,1,0,0:0:0:0:
448,192,90493,1,0,0:0:0:0:
192,192,90591,1,0,0:0:0:0:
320,192,90591,1,0,0:0:0:0:
192,192,90689,1,0,0:0:0:0:
64,192,90787,1,0,0:0:0:0:
448,192,90885,1,0,0:0:0:0:
448,192,90983,1,0,0:0:0:0:
192,192,90983,1,0,0:0:0:0:
320,192,91180,1,0,0:0:0:0:
320,192,91278,1,0,0:0:0:0:
64,192,91376,1,0,0:0:0:0:
448,192,91376,1,0,0:0:0:0:
192,192,91474,1,0,0:0:0:0:
192,192,91572,1,0,0:0:0:0:
