osu file format v9

[General]
AudioFilename: akai.mp3
AudioLeadIn: 0
PreviewTime: 25500
Countdown: 0
SampleSet: Soft
StackLeniency: 0.7
Mode: 0
LetterboxInBreaks: 1

[Editor]
DistanceSpacing: 1
BeatDivisor: 4
GridSize: 8

[Metadata]
Title:Aka ni Somaru Dress
Artist:Mame
Creator:Mystica
Version:Lolita
Source:
Tags:LKs Alace _kiva Garven

[Difficulty]
HPDrainRate:7
CircleSize:4
OverallDifficulty:8
ApproachRate:9
SliderMultiplier:1.8
SliderTickRate:1

[Events]
//Background and Video events
0,0,"BG.jpg"
//Break Periods
2,75012,80400
2,135200,137400
//Storyboard Layer 0 (Background)
//Storyboard Layer 1 (Fail)
//Storyboard Layer 2 (Pass)
//Storyboard Layer 3 (Foreground)
//Storyboard Sound Samples
//Background Colour Transformations
3,100,163,162,255

[TimingPoints]
0,375,4,1,1,100,1,0
3000,-142.857142857143,4,1,1,90,0,0
25500,-100,4,2,1,95,0,0
27000,-100,4,2,2,95,0,0
39000,-100,4,2,1,95,0,0
63000,-100,4,2,0,80,0,1
74250,-200,4,2,0,80,0,1
74812,-100,4,2,1,95,0,0
80812,-100,4,2,2,95,0,0
99000,-100,4,2,1,95,0,1
99375,-100,4,2,2,95,0,1
102000,-100,4,2,1,95,0,1
102187,-100,4,2,2,95,0,1
105000,-100,4,2,1,95,0,1
105187,-100,4,2,2,95,0,1
108000,-100,4,2,1,95,0,1
108375,-100,4,2,2,95,0,1
111000,-100,4,2,1,95,0,0
138000,-142.857142857143,4,1,1,95,0,0
160500,-100,4,2,1,95,0,0
167625,-100,4,2,1,5,0,0
167812,-100,4,2,1,95,0,0

[Colours]
Combo1 : 64,128,128
Combo2 : 128,64,64
Combo3 : 128,128,128
Combo4 : 128,128,192

[HitObjects]
64,80,3000,2,0,B|136:40|200:88,1,125.999996995926,14|4
248,160,3750,2,0,B|176:200|112:152,1,125.999996995926,0|0
256,240,4500,2,0,B|328:208|392:248,1,125.999996995926,0|4
440,320,5250,2,0,B|368:352|304:312,1,125.999996995926,10|4
104,32,6000,6,0,B|88:96|104:160,1,125.999996995926,6|4
176,224,6750,2,0,B|192:288|176:352,1,125.999996995926,0|4
328,280,7500,2,0,B|312:216|328:152,1,125.999996995926,0|4
424,128,8250,2,0,B|440:64|424:0,1,125.999996995926,10|4
152,312,9000,6,0,B|216:192,1,125.999996995926,6|4
128,280,9750,2,0,B|168:160,1,125.999996995926,0|4
112,240,10500,2,0,B|120:112,1,125.999996995926,0|4
88,208,11250,2,0,B|72:72,1,125.999996995926,10|4
368,64,12000,6,0,B|304:184,1,125.999996995926,6|4
384,104,12750,2,0,B|344:224,1,125.999996995926,0|4
400,144,13500,2,0,B|392:272,1,125.999996995926,0|4
424,176,14250,2,0,B|440:312,1,125.999996995926,10|4
192,72,15000,6,0,B|264:32|328:80,1,125.999996995926,6|4
320,312,15750,2,0,B|248:352|184:304,1,125.999996995926,0|4
192,72,16500,2,0,B|264:32|328:80,1,125.999996995926,0|4
320,312,17250,2,0,B|248:352|184:304,1,125.999996995926,10|4
424,128,18000,6,0,B|464:200|416:264,1,125.999996995926,6|4
88,256,18750,2,0,B|48:184|96:120,1,125.999996995926,0|4
424,128,19500,2,0,B|464:200|416:264,1,125.999996995926,0|4
88,256,20250,2,0,B|48:184|96:120,1,125.999996995926,10|4
256,64,21000,6,0,B|256:192,1,125.999996995926,6|4
366,128,21750,6,0,B|256:192,1,125.999996995926,0|4
366,256,22500,6,0,B|256:192,1,125.999996995926,0|4
256,320,23250,6,0,B|256:192,1,125.999996995926,10|4
145,256,24000,6,0,B|256:192,1,125.999996995926,6|4
145,128,24750,6,0,B|256:192,1,125.999996995926,0|4
312,328,25500,5,4
352,304,25593,1,0
392,280,25687,1,0
312,240,25875,5,4
288,200,25968,1,0
264,160,26062,1,0
224,240,26250,5,4
192,264,26343,1,0
152,288,26437,1,0
144,200,26625,5,4
112,168,26718,1,0
80,136,26812,1,0
416,64,27000,5,4
312,64,27187,1,0
256,64,27281,1,0
200,64,27375,1,0
96,64,27562,2,0,B|128:152|128:152|232:152|232:152,1,180,6|0
312,192,28125,2,0,B|352:224|352:224|328:280|328:280,1,90,6|0
56,312,28500,5,4
112,192,28687,1,0
112,192,28781,1,0
112,192,28875,1,0
168,312,29062,2,0,B|264:312|264:312|304:224|304:224,1,180,6|0
312,104,29625,2,0,B|368:104|368:104|376:160,1,90,6|0
112,72,30000,5,4
72,176,30187,1,0
48,224,30281,1,0
24,272,30375,1,0
128,264,30562,2,0,B|168:352|256:384,1,180,6|0
280,280,31125,2,0,B|320:248|376:256,1,90,6|0
408,56,31500,5,4
328,128,31687,1,0
272,136,31781,1,0
216,144,31875,1,0
192,248,32062,2,0,B|136:320|136:320|40:296,1,180,6|0
104,200,32625,2,0,B|72:96,1,90,6|0
408,56,33000,5,4
424,160,33187,1,0
432,216,33281,1,0
440,272,33375,1,4
344,216,33562,5,0
304,248,33656,1,0
256,272,33750,1,4
200,272,33843,1,0
152,248,33937,1,4
240,184,34125,1,4
240,184,34312,1,0
120,48,34500,5,4
72,144,34687,1,0
40,192,34781,1,0
8,232,34875,1,4
112,224,35062,5,0
152,248,35156,1,0
200,272,35250,1,4
256,272,35343,1,0
304,248,35437,1,4
216,192,35625,1,0
216,192,35812,1,4
400,320,36000,5,4
448,224,36187,1,0
440,168,36281,1,0
392,136,36375,1,0
336,224,36562,1,4
272,136,36750,5,4
256,88,36843,1,0
304,56,36937,1,0
344,88,37031,1,0
328,136,37125,1,4
224,128,37312,1,4
176,32,37500,5,4
88,88,37687,1,0
48,128,37781,1,0
40,184,37875,1,4
144,176,38062,5,0
168,224,38156,1,0
208,264,38250,1,4
256,280,38343,1,0
312,288,38437,1,4
368,280,38531,1,0
408,248,38625,1,4
432,200,38718,1,0
432,144,38812,1,4
408,96,38906,1,0
360,72,39000,2,0,B|320:24|280:64|232:112|184:64,1,180,8|2
112,272,39750,5,8
208,216,39937,1,0
112,160,40125,1,2
208,104,40312,1,0
304,56,40500,2,0,B|416:40|456:144,1,180,8|2
328,192,41062,5,0
328,200,41156,1,0
328,208,41250,2,0,B|304:264|248:280,1,90,8|0
168,312,41625,2,0,B|192:256|248:256,1,90,2|0
208,152,42000,6,0,B|168:96|80:96|80:96,2,135,8|2|8
112,200,42750,2,0,B|56:248|56:328|56:328,2,135,8|2|8
192,272,43500,2,0,B|224:240|232:192,1,90,8|0
232,136,43781,1,0
208,88,43875,1,2
128,160,44062,1,0
224,208,44250,1,8
248,256,44343,1,0
256,312,44437,2,0,B|256:368|192:384|200:376,2,90,0|2|8
400,64,45000,6,0,B|432:112|432:160,1,90,8|0
424,200,45281,1,0
376,232,45375,1,2
328,136,45562,1,0
248,64,45750,2,0,B|192:64|152:80,1,90,8|0
216,168,46125,2,0,B|160:200|144:232,1,90,2|0
80,64,46500,6,0,B|136:88|136:144,1,90,8|0
112,176,46781,1,0
128,232,46875,1,2
224,288,47062,1,0
280,288,47156,1,0
320,248,47250,2,0,B|368:200|368:112|368:112,2,135,8|2|8
264,152,48000,6,0,B|192:120|112:160|112:160,2,135,8|2|8
336,72,48750,1,8
440,104,48937,1,0
408,152,49031,1,0
376,192,49125,1,2
264,152,49312,1,0
168,104,49500,2,0,B|128:88|72:104,1,90,8|0
48,152,49781,2,0,B|24:200|48:248|48:248,1,90,2|0
80,280,50062,1,2
424,288,50250,6,0,B|368:272|320:296,1,90,8|0
296,328,50531,2,0,B|248:344|192:320,1,90,2|0
168,296,50812,1,2
176,240,50906,1,0
208,192,51000,2,0,B|224:88|120:32,1,180,8|2
134,40,51562,1,0
88,136,51750,6,0,B|48:232,1,90,8|0
32,328,52125,2,0,B|80:224,1,90,2|0
256,232,52500,2,0,B|304:208|328:168,1,90,8|0
296,128,52781,1,0
344,104,52875,1,2
440,152,53062,1,0
424,256,53250,2,0,B|392:304|336:320,1,90,8|0
328,272,53531,2,0,B|344:224|416:208,1,90,2|0
424,256,53812,1,2
328,272,54000,6,0,B|280:248|224:280,1,90,8|0
192,304,54281,1,0
144,280,54375,2,0,B|96:248|40:288,1,90,2|0
88,168,54750,2,0,B|120:112|168:112,1,90,8|0
144,160,55031,1,0
136,208,55125,2,0,B|192:200|200:136,1,90,2|2
352,72,55500,5,8
336,80,55593,1,0
320,88,55687,2,0,B|312:152|248:168,1,90,0|2
272,264,56062,1,0
271,159,56250,1,8
272,264,56437,1,0
232,304,56531,1,0
176,312,56625,1,2
104,232,56812,6,0,B|48:192|48:144,1,90,2|8
144,112,57187,1,2
224,64,57375,1,0
272,40,57468,1,0
320,16,57562,1,2
320,128,57750,5,8
360,96,57843,1,0
400,128,57937,1,2
384,168,58031,1,0
336,168,58125,1,2
144,112,58312,1,2
144,224,58500,5,8
224,296,58687,1,2
272,320,58781,1,0
320,344,58875,1,0
320,240,59062,5,2
360,208,59156,1,0
344,160,59250,1,8
296,160,59343,1,0
280,208,59437,1,2
144,224,59625,2,0,B|96:208|72:160,1,90,2|2
208,144,60000,6,0,B|264:192|240:280|240:280,2,135,8|2|2
104,104,60750,2,0,B|136:8|240:40|240:40,2,135,8|2|2
208,144,61500,1,8
360,88,61687,1,2
440,232,61875,1,8
336,360,62062,1,2
184,296,62250,5,8
136,264,62343,1,0
112,216,62437,1,2
96,160,62531,1,0
112,112,62625,1,10
152,72,62718,1,0
200,48,62812,1,10
256,56,62906,1,0
296,88,63000,5,4
352,104,63375,1,4
384,152,63750,1,4
344,192,64125,5,0
288,208,64312,1,4
256,256,64687,5,0
288,304,65062,5,4
344,312,65250,1,4
384,272,65625,5,4
120,48,66000,5,4
72,80,66375,1,4
64,136,66750,1,4
104,176,67125,5,4
160,192,67312,1,2
184,248,67687,5,0
160,304,68062,5,4
104,328,68250,1,4
56,296,68625,5,4
376,64,69000,5,4
328,24,69375,1,4
272,8,69750,1,4
224,40,70125,5,0
192,88,70312,1,4
144,120,70687,5,4
88,112,71062,5,0
56,72,71250,1,4
80,24,71625,5,4
88,320,72000,5,4
136,352,72375,1,4
192,344,72750,1,4
240,320,73125,5,0
272,272,73312,1,4
320,240,73687,5,4
368,264,74062,5,0
408,296,74250,2,0,B|448:336|464:344|464:344,2,67.5,4|4|0
136,80,81000,5,4
72,168,81187,1,0
184,168,81375,1,0
136,80,81562,1,0
184,168,81750,1,4
248,80,81937,5,0
248,80,82031,1,0
248,80,82125,1,0
304,168,82312,1,0
424,312,82500,5,4
320,312,82687,1,0
376,216,82875,1,0
424,312,83062,1,0
320,312,83250,5,4
320,312,83343,1,0
320,312,83437,1,0
320,312,83531,1,0
320,312,83625,1,4
272,216,83812,1,4
112,312,84000,5,4
168,216,84187,1,0
216,120,84375,1,0
168,24,84562,1,0
112,120,84750,1,4
56,216,84937,5,0
56,216,85031,1,0
56,216,85125,1,0
112,312,85312,1,4
168,216,85500,5,0
168,216,85593,1,0
168,216,85687,1,4
216,312,85875,5,0
216,312,85968,1,0
216,312,86062,1,4
264,216,86250,5,4
264,216,86343,1,4
264,216,86437,1,0
264,216,86531,1,0
264,216,86625,1,4
264,216,86718,1,0
264,216,86812,1,4
432,72,87000,5,4
352,144,87187,1,0
304,128,87281,2,0,B|232:136,1,45,0|4
176,64,87562,1,0
96,136,87750,2,0,B|64:192|72:248,1,90,4|0
112,256,88031,2,0,B|128:280|160:272,1,45,4|0
256,280,88312,1,4
432,320,88500,5,4
352,248,88687,2,0,B|312:224,1,45
264,240,88875,1,4
192,320,89062,1,0
88,304,89250,2,0,B|48:272|48:224,1,90,4|0
48,176,89531,1,0
88,136,89625,2,0,B|104:184|88:240,1,90,0|4
192,192,90000,6,0,B|216:144|280:128,1,90,4|0
304,168,90281,2,0,B|248:168,1,45,4|0
272,272,90562,1,4
376,248,90750,1,0
424,152,90937,1,4
400,48,91125,1,4
296,40,91312,1,0
192,72,91500,5,0
144,96,91593,1,0
96,128,91687,1,4
168,208,91875,5,0
152,256,91968,1,0
136,304,92062,1,4
240,288,92250,5,0
280,320,92343,1,0
328,352,92437,2,0,B|368:384|368:384,2,45,4|0|4
360,248,92812,1,4
352,136,93000,6,0,B|312:80|256:64,1,90,4|0
240,96,93281,2,0,B|192:64|144:80,1,90,4|0
120,112,93562,1,4
96,216,93750,1,4
136,312,93937,2,0,B|144:360|144:360,2,45,0|0|4
208,232,94312,1,0
400,48,94500,6,0,B|352:88|344:128,1,90,4|0
392,152,94781,2,0,B|376:208|344:240,1,90,4|4
304,248,95062,1,0
248,336,95250,1,4
208,232,95437,2,0,B|192:176|192:176,2,45,0|0|4
136,312,95812,1,4
56,240,96000,6,0,B|56:176|88:144,1,90,4|0
128,136,96281,1,4
176,152,96375,1,0
96,88,96562,2,0,B|40:80|-8:96,1,90,0|4
104,40,96937,1,0
152,24,97031,1,0
200,40,97125,1,4
224,144,97312,1,4
352,312,97500,5,0
304,288,97593,1,0
256,256,97687,1,4
344,200,97875,1,0
328,152,97968,1,0
312,96,98062,1,4
224,144,98250,1,0
80,48,98437,1,4
64,208,98625,1,4
384,256,99000,5,4
320,168,99187,1,0
272,192,99281,1,0
272,248,99375,1,4
384,256,99562,1,0
432,160,99750,6,0,B|448:112,1,45,0|4
392,96,99937,2,0,B|392:48,1,45,4|0
336,40,100125,1,4
272,128,100312,1,4
112,232,100500,2,0,B|88:280,1,45,4|0
136,296,100687,2,0,B|128:344,1,45
184,344,100875,1,4
224,240,101062,1,4
104,64,101250,6,0,B|128:112,1,45,4|0
176,80,101437,2,0,B|224:104,1,45,4|0
208,152,101625,2,0,B|248:184,1,45,4|0
288,152,101812,2,0,B|336:176,1,45,4|0
344,224,102000,5,4
448,264,102187,1,0
432,320,102281,1,0
376,328,102375,1,4
344,224,102562,1,0
264,296,102750,6,0,B|208:304,1,45,4|0
184,264,102937,1,4
144,232,103031,2,0,B|88:240,1,45,4|0
176,312,103312,1,4
224,96,103500,2,0,B|280:88,1,45,0|4
312,128,103687,1,4
352,168,103781,2,0,B|416:160,1,45,0|4
312,80,104062,1,4
96,64,104250,6,0,B|80:112,1,45,4|0
112,152,104437,2,0,B|128:96,1,45,4|0
176,88,104625,2,0,B|112:256,1,180,4|4
200,320,105187,5,0
248,296,105281,1,0
304,296,105375,1,4
392,232,105562,1,0
352,136,105750,5,4
312,168,105843,2,0,B|272:200,1,45,4|0
224,184,106031,2,0,B|288:136,1,45,4|0
264,64,106312,1,4
72,168,106500,2,0,B|136:136,1,45,0|4
168,168,106687,2,0,B|112:192,1,45,4|0
112,240,106875,1,4
208,280,107062,1,4
312,304,107250,5,4
360,288,107343,1,0
400,248,107437,1,4
360,208,107531,1,4
312,184,107625,1,0
336,136,107718,1,4
320,88,107812,1,0
280,48,107906,1,4
224,48,108000,6,0,B|160:48|112:80,1,90,4|0
104,104,108281,1,0
152,120,108375,2,0,B|128:168|64:144,1,90,4|0
120,248,108750,1,4
216,288,108937,1,0
176,248,109031,1,0
120,248,109125,1,4
216,288,109312,1,4
320,304,109500,6,0,B|360:264|368:224|376:176|376:176,2,135,4|4|0
272,208,110250,1,4
208,64,110531,1,0
272,208,110812,1,4
128,304,111000,6,0,B|96:208|128:112,1,180,8|2
208,64,111562,1,0
288,144,111750,2,0,B|344:160|360:208|416:208|416:208,2,135,8|2|8
232,240,112500,2,0,B|200:288|192:336,1,90,8|0
232,240,112875,1,2
328,288,113062,1,0
400,208,113250,2,0,B|440:160|440:120,1,90,8|0
432,24,113625,2,0,B|384:64|400:128,1,90,2|0
96,48,114000,6,0,B|128:120|48:176|48:176,2,135,8|2|8
144,144,114750,2,0,B|152:200|200:240,1,90,8|0
280,184,115125,2,0,B|320:224|336:272,1,90,2|0
424,312,115500,1,8
456,208,115687,1,0
480,160,115781,1,0
456,112,115875,1,2
360,160,116062,1,0
272,96,116250,5,8
224,80,116343,1,0
184,112,116437,2,0,B|152:144,1,45,0|2
160,200,116625,2,0,B|200:160,1,45,0|0
248,176,116812,1,8
296,144,116906,1,0
304,200,117000,6,0,B|304:304|160:336,1,180,8|2
96,288,117562,1,0
64,184,117750,2,0,B|72:112|136:64|136:64,2,135,8|2|8
168,208,118500,1,8
240,128,118687,1,0
336,80,118875,1,2
440,96,119062,1,0
488,192,119250,2,0,B|432:296,1,90,8|0
352,216,119625,2,0,B|264:256,1,90,2|0
168,280,120000,6,0,B|88:280|48:216|48:216,2,135,8|2|8
144,176,120750,2,0,B|128:104|184:40|184:40,2,135,8|2|8
248,144,121500,2,0,B|296:160|296:160,3,45,8|0|0|0
288,184,121875,2,0,B|312:224|312:224,3,45,8|0|0|0
288,240,122250,2,0,B|288:296|288:296,3,45,8|0|0|0
264,288,122625,2,0,B|224:344|224:344,3,45,8|0|0|0
216,304,123000,5,2
112,280,123187,1,0
72,240,123281,1,0
64,184,123375,1,8
120,96,123562,1,0
232,96,123750,2,0,B|288:80|328:80,1,90,2|0
416,136,124125,2,0,B|368:160|320:168,1,90,8|0
232,216,124500,5,2
304,296,124687,1,0
360,288,124781,1,0
392,248,124875,1,8
360,144,125062,1,0
288,64,125250,2,0,B|232:48|176:64,1,90,2|0
112,120,125625,2,0,B|80:160|80:208,1,90,8|0
256,344,126000,6,0,B|264:296|256:240,1,90,4|0
248,144,126375,2,0,B|248:200|256:240,1,90,8|0
360,240,126750,2,0,B|320:232|256:248,1,90,2|0
160,248,127125,2,0,B|200:256|264:240,1,90,8|0
248,144,127500,5,2
248,40,127687,1,0
272,88,127781,1,0
248,144,127875,1,8
160,208,128062,1,0
248,272,128250,5,2
216,312,128343,1,0
248,352,128437,2,0,B|296:352|296:352,2,45,0|0|8
280,304,128718,2,0,B|336:304,1,45
304,256,128906,2,0,B|352:256,1,45,0|2
424,176,129187,5,0
448,128,129281,1,0
408,88,129375,2,0,B|384:72|360:88|328:104|288:80,1,90,8|0
216,56,129750,1,2
136,128,129937,1,0
136,128,130031,2,0,B|88:160|88:160,3,45,0|8|0|0
104,264,130500,5,2
192,328,130687,1,0
248,328,130781,1,0
304,328,130875,1,8
392,256,131062,2,0,B|432:208|432:168,1,90,0|2
320,176,131437,1,0
280,72,131625,2,0,B|240:48|240:48,3,45,8|0|0|0
192,72,132000,6,0,B|152:96,1,45,4|0
136,144,132187,2,0,B|120:184,1,45
104,240,132375,2,0,B|112:288,1,45,8|0
136,328,132562,2,0,B|176:360,1,45
224,368,132750,2,0,B|280:376,1,45,2|0
320,368,132937,2,0,B|368:344,1,45
408,320,133125,2,0,B|440:288,1,45,8|0
464,240,133312,2,0,B|472:192,1,45
464,144,133500,5,4
440,96,133593,1,0
392,80,133687,1,0
336,80,133781,1,0
296,112,133875,1,8
296,168,133968,1,0
272,216,134062,1,0
216,224,134156,1,0
160,216,134250,5,2
112,192,134343,1,0
96,144,134437,1,0
88,88,134531,1,0
104,40,134625,1,8
152,16,134718,1,0
208,24,134812,1,0
232,72,134906,1,0
208,120,135000,5,0
424,104,138000,6,0,B|384:96|344:112|320:120|280:104,1,125.999996995926,0|4
88,104,138750,2,0,B|128:96|168:112|192:120|232:104,1,125.999996995926,0|4
144,184,139500,5,0
200,272,139875,1,4
304,272,140250,1,8
360,184,140625,1,4
200,48,141000,6,0,B|184:88|200:120|208:152|192:184,1,125.999996995926,0|4
312,336,141750,2,0,B|328:296|312:264|304:232|320:200,1,125.999996995926,0|4
256,40,142500,5,0
256,144,142875,1,4
256,248,143250,1,8
256,352,143625,1,4
80,48,144000,6,0,B|112:184,1,125.999996995926,0|4
128,64,144750,2,0,B|192:184,1,125.999996995926,0|4
176,64,145500,2,0,B|264:168,1,125.999996995926,0|4
224,48,146250,2,0,B|328:128,1,125.999996995926,8|4
432,336,147000,6,0,B|400:200,1,125.999996995926,0|4
384,320,147750,2,0,B|320:200,1,125.999996995926,0|4
336,320,148500,2,0,B|248:216,1,125.999996995926,0|4
288,336,149250,2,0,B|184:256,1,125.999996995926,8|4
256,66,150000,6,0,B|256:192,1,125.999996995926,0|4
382,192,150750,2,0,B|256:192,1,125.999996995926,0|4
256,318,151500,2,0,B|256:192,1,125.999996995926,0|4
130,192,152250,2,0,B|256:192,1,125.999996995926,8|4
254,192,153000,6,0,B|160:80,1,125.999996995926,0|4
254,192,153750,2,0,B|344:88,1,125.999996995926,0|4
254,192,154500,2,0,B|344:296,1,125.999996995926,0|4
254,192,155250,2,0,B|160:296,1,125.999996995926,8|4
312,136,156000,6,0,B|456:136,1,125.999996995926,0|4
312,248,156750,2,0,B|312:376,1,125.999996995926,0|4
208,248,157500,2,0,B|80:248,1,125.999996995926,0|4
208,136,158250,2,0,B|208:0,1,125.999996995926,8|4
312,256,159000,6,0,B|248:296|168:240,1,125.999996995926,0|4
192,136,159750,2,0,B|256:96|336:144,1,125.999996995926,0|4
256,56,160500,5,4
256,112,160593,1,0
256,168,160687,1,0
192,256,160875,5,4
152,288,160968,1,0
112,320,161062,1,0
320,256,161250,5,4
360,288,161343,1,0
400,320,161437,1,0
256,232,161625,5,4
256,232,161718,1,0
256,232,161812,1,0
256,192,162000,12,0,165000
256,192,165093,12,0,167625
256,160,167812,5,0
256,184,167906,1,0
256,208,168000,1,2
