osu file format v6

[General]
AudioFilename: MS Paint Adventures - Showtime.ogg
AudioLeadIn: 1996
PreviewTime: -1
Countdown: 1
SampleSet: Soft
StackLeniency: 0.6
Mode: 0
LetterboxInBreaks: 1

[Editor]
Bookmarks: 6033,37366,58033,90699,96699,112033
DistanceSpacing: 1
BeatDivisor: 4
GridSize: 8

[Metadata]
Title:Showtime
Artist:Malcolm Brown
Creator:MrCheeze
Version:Soaprman Modus
Source:http://www.mspaintadventures.com/
Tags:MS Paint Adventures Strife Homestuck Strife Jailbreak Bard Quest Problem Sleuth Showtime John Egbert Sburb Boss Fight Battle Dad Epic

[Difficulty]
HPDrainRate:7
CircleSize:4
OverallDifficulty:7
SliderMultiplier:1.8
SliderTickRate:2

[Events]
//Background and Video events
0,0,"intro1.png"
//Break Periods
2,48233,58466
//Storyboard Layer 0 (Background)
//Storyboard Layer 1 (Fail)
//Storyboard Layer 2 (Pass)
//Storyboard Layer 3 (Foreground)
//Storyboard Sound Samples
//Background Colour Transformations
3,100,128,128,128

[TimingPoints]
700,333.333333333333,4,2,0,70,1,0

[Colours]
Combo1 : 74,201,37
Combo2 : 7,21,205
Combo3 : 181,54,218
Combo4 : 224,7,7

[HitObjects]
40,40,6033,1,0
480,352,7367,1,0
32,352,8700,1,0
488,40,10033,1,0
72,64,11367,5,2
104,240,11700,1,0
128,152,11867,1,2
256,280,12200,1,0
256,192,12367,1,0
256,104,12533,1,0
440,320,12700,5,2
408,144,13033,1,0
384,232,13200,1,2
256,104,13533,1,0
256,192,13700,1,0
256,280,13866,1,0
72,64,14033,5,2
104,240,14366,1,0
128,152,14533,1,2
256,280,14866,1,0
256,192,15033,1,0
256,104,15199,1,0
256,192,15367,1,4
80,136,16700,6,0,B|128:112|184:144,1,90
168,136,17033,2,0,B|216:160|272:128,1,90
256,136,17367,2,0,B|304:112|360:144,1,90
344,136,17700,2,0,B|392:160|448:128,1,90
432,248,18033,6,2,B|384:272|328:240,1,90
344,248,18366,2,2,B|296:224|240:256,1,90
256,248,18700,2,2,B|208:272|152:240,1,90
168,248,19033,2,2,B|120:224|64:256,1,90
256,32,19367,5,0
480,192,19700,1,0
256,352,20033,1,0
32,192,20367,1,0
128,152,20700,6,0,B|176:128|240:160,1,90
384,232,21033,2,0,B|336:256|272:224,1,90
128,152,21367,6,2,B|176:128|240:160,1,90
384,232,21700,2,2,B|336:256|272:224,1,90
256,72,22033,5,0
424,136,22367,1,0
456,216,22533,1,0
424,296,22700,1,0
344,336,22867,1,0
264,296,23033,1,0
112,192,23367,1,0
288,192,23700,1,0
376,192,23867,1,0
376,192,24200,1,0
288,192,24367,1,0
200,192,24533,1,0
112,192,24700,1,0
256,304,25033,1,0
112,192,25367,1,0
256,80,25700,1,0
256,280,26033,5,2
200,112,26200,1,0
352,208,26367,1,2
168,208,26533,1,0
312,112,26700,1,4
472,200,27367,6,4,B|248:512|24:168,1,540,4|2
136,40,28700,2,4,B|264:144|392:32,1,270,4|8
384,40,29367,1,8
72,120,29867,5,0
110,81,29950,1,0
163,81,30033,2,4,B|300:63|351:162,1,180,2|0
440,264,30533,5,0
401,302,30616,1,0
349,303,30700,2,4,B|212:321|161:222,1,180,2|0
256,256,31367,5,0
320,192,31533,1,0
256,131,31700,1,0
193,193,31867,1,0
256,256,32033,5,2
340,171,32199,1,2
256,86,32366,1,2
171,171,32533,1,2
40,184,32699,6,0,B|264:-128|488:216,1,540,4|2
376,344,34032,2,0,B|248:240|120:352,1,270,4|8
128,336,34699,1,8
256,56,35366,1,0
336,256,35866,1,0
312,296,35949,1,0
272,320,36033,2,2,B|184:328|176:240,1,135
208,128,36533,1,0
296,128,36699,1,4
256,328,38033,6,0,B|-192:192|264:56,1,540,4|2
432,64,39366,2,0,B|512:192|400:352,1,270,4|8
424,320,40033,1,8
128,320,40533,5,0
89,282,40616,1,0
89,229,40699,2,0,B|71:92|170:41,1,180,2|0
384,64,41199,5,0
422,103,41282,1,0
423,155,41366,2,0,B|441:292|342:343,1,180,2|0
264,184,42033,5,0
240,272,42199,1,0
264,184,42366,1,0
184,232,42533,1,0
264,184,42699,5,2
176,168,42865,1,2
264,184,43032,1,2
208,112,43199,1,2
256,56,43366,6,0,B|704:192|248:328,1,540,4|2
80,320,44699,2,0,B|0:192|112:32,1,270,4|8
88,64,45366,1,8
432,176,46033,1,0
200,192,46533,1,0
248,192,46616,1,0
296,192,46700,2,2,B|448:192,1,135
328,104,47200,1,0
296,192,47366,5,2
200,104,47533,1,0
112,192,47699,1,2
200,288,47866,1,0
296,192,48033,1,4
448,48,59366,5,2
384,112,59533,1,0
312,64,59699,1,2
264,136,59866,1,0
184,88,60033,2,0,B|88:184,1,90,2|0
56,216,60366,2,0,B|160:296,1,90,2|0
64,336,60699,5,2
128,272,60866,1,0
200,320,61032,1,2
248,248,61199,1,0
328,296,61366,2,0,B|424:200,1,90,2|0
456,168,61699,2,0,B|352:88,1,90,2|0
304,72,62033,5,2
216,104,62199,1,0
152,168,62366,1,0
136,256,62533,1,0
208,312,62699,1,2
296,280,62865,1,0
360,216,63032,1,0
376,128,63199,1,0
376,128,63366,5,2
360,216,63533,1,0
296,280,63699,1,0
208,312,63866,1,0
136,256,64033,1,2
152,168,64199,1,0
216,104,64366,1,0
304,72,64533,1,0
392,72,64699,6,0,B|512:128|512:192|0:192|0:256|120:312,1,540,4|2
272,296,66033,1,4
272,296,66533,1,8
272,296,66699,1,8
272,128,67366,2,0,B|160:80|72:160|128:288,1,270
152,288,67949,1,0
200,296,68033,2,0,B|256:296|304:240|272:192,1,135,2|0
384,128,68533,1,0
456,72,68699,1,4
256,344,70033,5,2
40,192,71366,1,2
256,40,72699,1,2
472,192,74033,1,2
256,344,75366,5,2
144,272,76033,1,0
40,192,76699,1,2
144,112,77366,1,0
256,40,78033,1,2
368,112,78699,1,0
472,192,79366,1,2
368,272,80033,1,0
256,192,80699,5,4
40,192,81866,1,8
40,192,82033,1,8
472,192,83199,1,8
472,192,83366,1,8
40,192,84533,1,8
40,192,84699,1,8
256,192,86033,5,4
40,192,86699,1,4
256,192,87199,1,8
256,192,87366,1,8
472,192,88033,1,4
256,192,88533,1,8
256,192,88699,1,8
40,192,89366,1,4
256,192,89866,1,8
256,192,90033,1,8
472,192,90699,5,2
40,192,91033,1,2
64,56,91366,6,0,B|112:56|136:88|136:128,1,90
136,104,91699,2,0,B|136:152|168:176|208:176,1,90
184,176,92033,2,0,B|232:176|256:208|256:248,1,90
256,224,92366,2,0,B|256:272|288:296|328:296,1,90
448,56,92699,6,2,B|400:56|376:88|376:128,1,90
376,104,93032,2,2,B|376:152|344:176|304:176,1,90
328,176,93366,2,2,B|280:176|256:208|256:248,1,90
256,224,93699,2,2,B|256:272|224:296|184:296,1,90
216,64,94033,6,0,B|320:64,1,90
304,64,94366,2,0,B|376:136,1,90,0|0
368,128,94699,2,0,B|368:232,1,90
368,216,95033,2,0,B|296:288,1,90,0|0
304,280,95366,2,2,B|200:280,1,90
216,280,95699,2,2,B|144:208,1,90,0|0
152,216,96033,2,2,B|152:112,1,90
152,120,96366,2,2,B|224:48,1,90,0|0
256,56,96699,5,0
88,120,97033,1,0
56,200,97199,1,0
88,280,97366,1,0
168,320,97533,1,0
248,280,97699,1,0
400,176,98033,1,0
224,176,98366,1,0
136,176,98533,1,0
136,176,98866,1,0
224,176,99033,1,0
312,176,99199,1,0
400,176,99366,1,0
256,288,99699,1,0
400,176,100033,1,0
256,64,100366,1,0
256,264,100699,5,2
312,96,100866,1,0
160,192,101033,1,2
344,192,101199,1,0
200,96,101366,1,4
40,200,102033,6,0,B|264:512|488:168,1,540,4|2
376,40,103366,2,0,B|248:144|120:32,1,270,4|8
128,40,104033,1,8
440,120,104533,5,0
402,81,104616,1,0
349,81,104699,2,0,B|212:63|161:162,1,180,2|0
72,264,105199,5,0
111,302,105282,1,0
163,303,105366,2,0,B|300:321|351:222,1,180,2|0
256,256,106033,5,0
194,193,106199,1,0
256,131,106366,1,0
319,193,106533,1,0
256,256,106699,5,2
172,171,106865,1,2
256,86,107032,1,2
341,171,107199,1,2
472,184,107365,6,0,B|248:-128|24:216,1,540,4|2
136,344,108698,2,0,B|264:240|392:352,1,270,4|8
384,336,109365,1,8
256,56,110032,1,0
176,256,110532,1,0
200,296,110615,1,0
240,320,110699,2,2,B|328:328|336:240,1,135
304,128,111199,1,0
216,128,111365,1,4
256,336,112699,5,0
192,272,112866,1,0
104,288,113033,1,0
56,208,113199,1,2
104,128,113366,1,0
192,144,113533,1,2
256,80,113699,1,0
320,144,113866,1,0
408,128,114033,1,0
456,208,114199,1,0
408,288,114366,1,0
320,272,114533,1,2
256,208,114699,1,0
192,144,114866,1,2
256,80,115033,1,0
320,144,115199,1,0
256,208,115366,5,0
80,256,115699,1,2
128,80,116033,1,0
256,208,116366,1,2
384,80,116699,1,0
432,256,117033,1,2
256,208,117366,1,0
256,208,117699,1,2
320,272,117866,1,2
256,336,118033,5,0
216,328,118116,1,0
184,296,118199,1,0
168,256,118283,1,2
144,216,118366,1,0
120,176,118449,1,0
136,136,118533,1,0
168,104,118616,1,2
184,64,118699,1,0
224,40,118783,1,0
272,40,118866,1,0
320,40,118949,1,2
344,80,119033,1,0
352,120,119116,1,0
384,152,119199,1,0
376,200,119283,1,2
392,240,119366,1,0
424,272,119449,1,0
464,296,119533,1,0
488,328,119616,1,2
448,344,119699,1,0
400,344,119783,1,0
352,344,119866,1,0
304,344,119949,1,2
256,336,120033,1,4
256,192,120699,12,4,123366
