osu file format v14

[General]
AudioFilename: Maskim - Croatian Rhapsody.mp3
AudioLeadIn: 0
PreviewTime: 137788
Countdown: 0
SampleSet: Soft
StackLeniency: 0.7
Mode: 2
LetterboxInBreaks: 1
WidescreenStoryboard: 0

[Editor]
DistanceSpacing: 0.8
BeatDivisor: 8
GridSize: 4
TimelineZoom: 3.099999

[Metadata]
Title:Croatian Rhapsody
TitleUnicode:Croatian Rhapsody
Artist:Maksim Mrvica
ArtistUnicode:Maksim Mrvica
Creator:ZHSteven
Version:Rhapsody
Source:The Piano Player
Tags:
BeatmapID:881330
BeatmapSetID:191590

[Difficulty]
HPDrainRate:7
CircleSize:4
OverallDifficulty:9
ApproachRate:9
SliderMultiplier:2
SliderTickRate:1

[Events]
//Background and Video events
0,0,"190328138867_996.jpg",0,0
//Break Periods
2,85503,93453
2,168003,174703
//Storyboard Layer 0 (Background)
//Storyboard Layer 1 (Fail)
//Storyboard Layer 2 (Pass)
//Storyboard Layer 3 (Foreground)
//Storyboard Sound Samples

[TimingPoints]
303,312.5,4,2,0,45,1,0
303,-133.333333333333,4,2,0,45,0,0
12786,-133.333333333333,4,2,1,40,0,0
22178,-133.333333333333,4,2,1,43,0,0
22781,-133.333333333333,4,2,1,45,0,0
27178,-133.333333333333,4,2,1,48,0,0
27778,-133.333333333333,4,2,1,50,0,0
29678,-133.333333333333,4,2,1,53,0,0
30277,-133.333333333333,4,2,1,55,0,0
31553,-100,4,2,1,60,0,0
32803,-100,4,2,1,70,0,0
33115,-100,4,2,1,60,0,0
42803,-100,4,2,1,55,0,0
51709,-100,4,2,2,60,0,0
52334,-100,4,2,1,60,0,0
52490,-100,4,2,2,45,0,0
52803,-100,4,2,1,65,0,0
70303,-100,4,2,1,60,0,0
72803,-100,4,2,1,65,0,0
80303,-100,4,2,1,55,0,0
80928,-100,4,2,1,60,0,0
81553,-100,4,2,1,65,0,0
82178,-100,4,2,1,70,0,0
82803,-100,4,2,1,75,0,0
83428,-100,4,2,0,80,0,0
84053,-100,4,2,0,85,0,0
84678,-100,4,2,0,90,0,0
85303,-100,4,2,0,95,0,1
85381,-100,4,2,1,70,0,0
105303,-100,4,2,1,65,0,0
115303,-100,4,2,1,70,0,0
115459,-100,4,2,1,65,0,0
124365,-100,4,2,2,45,0,0
124521,-100,4,2,1,65,0,0
125303,-100,4,2,1,70,0,0
132803,-100,4,2,1,55,0,0
133428,-100,4,2,1,60,0,0
134053,-100,4,2,1,65,0,0
134678,-100,4,2,1,70,0,0
134990,-100,4,2,1,65,0,0
135303,-100,4,2,1,75,0,0
135928,-100,4,2,1,80,0,0
136553,-100,4,2,1,85,0,0
137178,-100,4,2,1,90,0,0
137803,-66.6666666666667,4,2,1,95,0,1
137959,-66.6666666666667,4,2,1,70,0,0
142803,-66.6666666666667,4,2,1,80,0,1
142959,-66.6666666666667,4,2,1,70,0,0
147178,-66.6666666666667,4,2,2,60,0,0
147490,-66.6666666666667,4,2,1,60,0,0
147803,-66.6666666666667,4,2,1,70,0,1
147881,-66.6666666666667,4,2,1,30,0,1
147959,-66.6666666666667,4,2,1,60,0,1
148037,-66.6666666666667,4,2,1,30,0,1
148115,-66.6666666666667,4,2,1,60,0,1
148193,-66.6666666666667,4,2,1,30,0,1
148271,-66.6666666666667,4,2,1,60,0,1
148349,-66.6666666666667,4,2,1,30,0,1
148428,-66.6666666666667,4,2,1,60,0,1
148506,-66.6666666666667,4,2,1,30,0,1
148584,-66.6666666666667,4,2,1,60,0,1
148662,-66.6666666666667,4,2,1,30,0,1
148740,-66.6666666666667,4,2,1,60,0,1
148818,-66.6666666666667,4,2,1,30,0,1
148896,-66.6666666666667,4,2,1,60,0,1
148974,-66.6666666666667,4,2,1,30,0,1
149053,-66.6666666666667,4,2,1,60,0,1
150381,-66.6666666666667,4,2,1,30,0,1
150459,-66.6666666666667,4,2,1,60,0,1
150537,-66.6666666666667,4,2,1,30,0,1
150615,-66.6666666666667,4,2,1,60,0,1
150693,-66.6666666666667,4,2,1,30,0,1
150771,-66.6666666666667,4,2,1,60,0,1
150849,-66.6666666666667,4,2,1,30,0,1
150928,-66.6666666666667,4,2,1,60,0,1
151006,-66.6666666666667,4,2,1,30,0,1
151084,-66.6666666666667,4,2,1,60,0,1
151162,-66.6666666666667,4,2,1,30,0,1
151240,-66.6666666666667,4,2,1,60,0,1
151318,-66.6666666666667,4,2,1,30,0,1
151396,-66.6666666666667,4,2,1,60,0,1
151474,-66.6666666666667,4,2,1,30,0,1
151553,-66.6666666666667,4,2,1,60,0,1
152881,-66.6666666666667,4,2,1,30,0,1
152959,-66.6666666666667,4,2,1,60,0,1
153037,-66.6666666666667,4,2,1,30,0,1
153115,-66.6666666666667,4,2,1,60,0,1
153193,-66.6666666666667,4,2,1,30,0,1
153271,-66.6666666666667,4,2,1,60,0,1
153349,-66.6666666666667,4,2,1,30,0,1
153428,-66.6666666666667,4,2,1,60,0,1
153506,-66.6666666666667,4,2,1,30,0,1
153584,-66.6666666666667,4,2,1,60,0,1
153662,-66.6666666666667,4,2,1,30,0,1
153740,-66.6666666666667,4,2,1,60,0,1
153818,-66.6666666666667,4,2,1,30,0,1
153896,-66.6666666666667,4,2,1,60,0,1
153974,-66.6666666666667,4,2,1,30,0,1
154053,-66.6666666666667,4,2,1,60,0,1
154131,-66.6666666666667,4,2,1,30,0,1
154209,-66.6666666666667,4,2,1,60,0,1
154287,-66.6666666666667,4,2,1,30,0,1
154365,-66.6666666666667,4,2,1,60,0,1
154443,-66.6666666666667,4,2,1,30,0,1
154521,-66.6666666666667,4,2,1,60,0,1
154599,-66.6666666666667,4,2,1,30,0,1
154678,-66.6666666666667,4,2,1,60,0,1
154756,-66.6666666666667,4,2,1,30,0,1
154834,-66.6666666666667,4,2,1,60,0,1
154912,-66.6666666666667,4,2,1,30,0,1
154990,-66.6666666666667,4,2,1,60,0,1
155068,-66.6666666666667,4,2,1,30,0,1
155146,-66.6666666666667,4,2,1,60,0,1
155224,-66.6666666666667,4,2,1,30,0,1
155303,-66.6666666666667,4,2,1,60,0,1
155381,-66.6666666666667,4,2,1,30,0,1
155459,-66.6666666666667,4,2,1,60,0,1
155537,-66.6666666666667,4,2,1,30,0,1
155615,-66.6666666666667,4,2,1,60,0,1
155693,-66.6666666666667,4,2,1,30,0,1
155771,-66.6666666666667,4,2,1,60,0,1
155849,-66.6666666666667,4,2,1,30,0,1
155928,-66.6666666666667,4,2,1,60,0,1
156006,-66.6666666666667,4,2,1,30,0,1
156084,-66.6666666666667,4,2,1,60,0,1
156162,-66.6666666666667,4,2,1,30,0,1
156240,-66.6666666666667,4,2,1,60,0,1
156318,-66.6666666666667,4,2,1,30,0,1
156396,-66.6666666666667,4,2,1,60,0,1
156474,-66.6666666666667,4,2,1,30,0,1
156553,-66.6666666666667,4,2,1,60,0,1
157490,-66.6666666666667,4,2,1,60,0,0
157803,-66.6666666666667,4,2,1,70,0,1
157881,-66.6666666666667,4,2,1,30,0,1
157959,-66.6666666666667,4,2,1,60,0,1
158037,-66.6666666666667,4,2,1,30,0,1
158115,-66.6666666666667,4,2,1,60,0,1
158193,-66.6666666666667,4,2,1,30,0,1
158271,-66.6666666666667,4,2,1,60,0,1
158349,-66.6666666666667,4,2,1,30,0,1
158428,-66.6666666666667,4,2,1,60,0,1
158506,-66.6666666666667,4,2,1,30,0,1
158584,-66.6666666666667,4,2,1,60,0,1
158662,-66.6666666666667,4,2,1,30,0,1
158740,-66.6666666666667,4,2,1,60,0,1
158818,-66.6666666666667,4,2,1,30,0,1
158896,-66.6666666666667,4,2,1,60,0,1
158974,-66.6666666666667,4,2,1,30,0,1
159053,-66.6666666666667,4,2,1,60,0,1
159131,-66.6666666666667,4,2,1,30,0,1
159209,-66.6666666666667,4,2,1,60,0,1
159287,-66.6666666666667,4,2,1,30,0,1
159365,-66.6666666666667,4,2,1,60,0,1
159443,-66.6666666666667,4,2,1,30,0,1
159521,-66.6666666666667,4,2,1,60,0,1
159599,-66.6666666666667,4,2,1,30,0,1
159678,-66.6666666666667,4,2,1,60,0,1
159756,-66.6666666666667,4,2,1,30,0,1
159834,-66.6666666666667,4,2,1,60,0,1
159912,-66.6666666666667,4,2,1,30,0,1
159990,-66.6666666666667,4,2,1,60,0,1
160068,-66.6666666666667,4,2,1,30,0,1
160146,-66.6666666666667,4,2,1,60,0,1
160224,-66.6666666666667,4,2,1,30,0,1
160303,-66.6666666666667,4,2,1,60,0,1
160381,-66.6666666666667,4,2,1,30,0,1
160459,-66.6666666666667,4,2,1,60,0,1
160537,-66.6666666666667,4,2,1,30,0,1
160615,-66.6666666666667,4,2,1,60,0,1
160693,-66.6666666666667,4,2,1,30,0,1
160771,-66.6666666666667,4,2,1,60,0,1
160849,-66.6666666666667,4,2,1,30,0,1
160928,-66.6666666666667,4,2,1,60,0,1
161006,-66.6666666666667,4,2,1,30,0,1
161084,-66.6666666666667,4,2,1,60,0,1
161162,-66.6666666666667,4,2,1,30,0,1
161240,-66.6666666666667,4,2,1,60,0,1
161318,-66.6666666666667,4,2,1,30,0,1
161396,-66.6666666666667,4,2,1,60,0,1
161474,-66.6666666666667,4,2,1,30,0,1
161553,-66.6666666666667,4,2,1,60,0,1
162803,-66.6666666666667,4,2,1,60,0,1
162881,-66.6666666666667,4,2,1,30,0,1
162959,-66.6666666666667,4,2,1,60,0,1
163037,-66.6666666666667,4,2,1,30,0,1
163115,-66.6666666666667,4,2,1,60,0,1
163193,-66.6666666666667,4,2,1,30,0,1
163271,-66.6666666666667,4,2,1,60,0,1
163349,-66.6666666666667,4,2,1,30,0,1
163428,-66.6666666666667,4,2,1,60,0,1
163506,-66.6666666666667,4,2,1,30,0,1
163584,-66.6666666666667,4,2,1,60,0,1
163662,-66.6666666666667,4,2,1,30,0,1
163740,-66.6666666666667,4,2,1,60,0,1
163818,-66.6666666666667,4,2,1,30,0,1
163896,-66.6666666666667,4,2,1,60,0,1
163974,-66.6666666666667,4,2,1,30,0,1
164053,-66.6666666666667,4,2,1,60,0,1
164131,-66.6666666666667,4,2,1,30,0,1
164209,-66.6666666666667,4,2,1,60,0,1
164287,-66.6666666666667,4,2,1,30,0,1
164365,-66.6666666666667,4,2,1,60,0,1
164443,-66.6666666666667,4,2,1,30,0,1
164521,-66.6666666666667,4,2,1,60,0,1
164599,-66.6666666666667,4,2,1,30,0,1
164678,-66.6666666666667,4,2,1,60,0,1
164756,-66.6666666666667,4,2,1,30,0,1
164834,-66.6666666666667,4,2,1,60,0,1
164912,-66.6666666666667,4,2,1,30,0,1
164990,-66.6666666666667,4,2,1,60,0,1
165068,-66.6666666666667,4,2,1,30,0,1
165146,-66.6666666666667,4,2,1,60,0,1
165224,-66.6666666666667,4,2,1,30,0,1
165303,-66.6666666666667,4,2,1,60,0,1
167490,-66.6666666666667,4,2,1,60,0,0
167803,-66.6666666666667,4,2,1,70,0,1
167881,-66.6666666666667,4,2,1,60,0,0
175303,319.148936170213,4,2,1,55,1,0
175941,322.58064516129,4,2,1,60,1,0
176586,337.078651685393,4,2,1,65,1,0
177267,370.37037037037,4,2,1,60,1,0
178005,312.5,4,2,1,80,1,1
178005,-66.6666666666667,4,2,1,80,0,1
178161,-66.6666666666667,4,2,1,70,0,0
183005,-66.6666666666667,4,2,1,80,0,1
183161,-66.6666666666667,4,2,1,70,0,0
188005,-66.6666666666667,4,2,1,60,0,1
188083,-66.6666666666667,4,2,1,30,0,1
188161,-66.6666666666667,4,2,1,60,0,1
188239,-66.6666666666667,4,2,1,30,0,1
188317,-66.6666666666667,4,2,1,60,0,1
188395,-66.6666666666667,4,2,1,30,0,1
188473,-66.6666666666667,4,2,1,60,0,1
188551,-66.6666666666667,4,2,1,30,0,1
188630,-66.6666666666667,4,2,1,60,0,1
188708,-66.6666666666667,4,2,1,30,0,1
188786,-66.6666666666667,4,2,1,60,0,1
188864,-66.6666666666667,4,2,1,30,0,1
188942,-66.6666666666667,4,2,1,60,0,1
189020,-66.6666666666667,4,2,1,30,0,1
189098,-66.6666666666667,4,2,1,60,0,1
189176,-66.6666666666667,4,2,1,30,0,1
189255,-66.6666666666667,4,2,1,60,0,1
189333,-66.6666666666667,4,2,1,30,0,1
189411,-66.6666666666667,4,2,1,60,0,1
189489,-66.6666666666667,4,2,1,30,0,1
189567,-66.6666666666667,4,2,1,60,0,1
189645,-66.6666666666667,4,2,1,30,0,1
189723,-66.6666666666667,4,2,1,60,0,1
189801,-66.6666666666667,4,2,1,30,0,1
189880,-66.6666666666667,4,2,1,60,0,1
189958,-66.6666666666667,4,2,1,30,0,1
190036,-66.6666666666667,4,2,1,60,0,1
190114,-66.6666666666667,4,2,1,30,0,1
190192,-66.6666666666667,4,2,1,60,0,1
190270,-66.6666666666667,4,2,1,30,0,1
190348,-66.6666666666667,4,2,1,60,0,1
190426,-66.6666666666667,4,2,1,30,0,1
190505,-66.6666666666667,4,2,1,60,0,1
190583,-66.6666666666667,4,2,1,30,0,1
190661,-66.6666666666667,4,2,1,60,0,1
190739,-66.6666666666667,4,2,1,30,0,1
190817,-66.6666666666667,4,2,1,60,0,1
190895,-66.6666666666667,4,2,1,30,0,1
190973,-66.6666666666667,4,2,1,60,0,1
191051,-66.6666666666667,4,2,1,30,0,1
191130,-66.6666666666667,4,2,1,60,0,1
191208,-66.6666666666667,4,2,1,30,0,1
191286,-66.6666666666667,4,2,1,60,0,1
191364,-66.6666666666667,4,2,1,30,0,1
191442,-66.6666666666667,4,2,1,60,0,1
191520,-66.6666666666667,4,2,1,30,0,1
191598,-66.6666666666667,4,2,1,60,0,1
191676,-66.6666666666667,4,2,1,30,0,1
191755,-66.6666666666667,4,2,1,60,0,1
193083,-66.6666666666667,4,2,1,30,0,1
193161,-66.6666666666667,4,2,1,60,0,1
193239,-66.6666666666667,4,2,1,30,0,1
193317,-66.6666666666667,4,2,1,60,0,1
193395,-66.6666666666667,4,2,1,30,0,1
193473,-66.6666666666667,4,2,1,60,0,1
193551,-66.6666666666667,4,2,1,30,0,1
193630,-66.6666666666667,4,2,1,60,0,1
193708,-66.6666666666667,4,2,1,30,0,1
193786,-66.6666666666667,4,2,1,60,0,1
193864,-66.6666666666667,4,2,1,30,0,1
193942,-66.6666666666667,4,2,1,60,0,1
194020,-66.6666666666667,4,2,1,30,0,1
194098,-66.6666666666667,4,2,1,60,0,1
194176,-66.6666666666667,4,2,1,30,0,1
194255,-66.6666666666667,4,2,1,60,0,1
194333,-66.6666666666667,4,2,1,30,0,1
194411,-66.6666666666667,4,2,1,60,0,1
194489,-66.6666666666667,4,2,1,30,0,1
194567,-66.6666666666667,4,2,1,60,0,1
194645,-66.6666666666667,4,2,1,30,0,1
194723,-66.6666666666667,4,2,1,60,0,1
194801,-66.6666666666667,4,2,1,30,0,1
194880,-66.6666666666667,4,2,1,60,0,1
194958,-66.6666666666667,4,2,1,30,0,1
195036,-66.6666666666667,4,2,1,60,0,1
195114,-66.6666666666667,4,2,1,30,0,1
195192,-66.6666666666667,4,2,1,60,0,1
195270,-66.6666666666667,4,2,1,30,0,1
195348,-66.6666666666667,4,2,1,60,0,1
195426,-66.6666666666667,4,2,1,30,0,1
195505,-66.6666666666667,4,2,1,60,0,1
195583,-66.6666666666667,4,2,1,30,0,1
195661,-66.6666666666667,4,2,1,60,0,1
195739,-66.6666666666667,4,2,1,30,0,1
195817,-66.6666666666667,4,2,1,60,0,1
195895,-66.6666666666667,4,2,1,30,0,1
195973,-66.6666666666667,4,2,1,60,0,1
196051,-66.6666666666667,4,2,1,30,0,1
196130,-66.6666666666667,4,2,1,60,0,1
196208,-66.6666666666667,4,2,1,30,0,1
196286,-66.6666666666667,4,2,1,60,0,1
196364,-66.6666666666667,4,2,1,30,0,1
196442,-66.6666666666667,4,2,1,60,0,1
196520,-66.6666666666667,4,2,1,30,0,1
196598,-66.6666666666667,4,2,1,60,0,1
196676,-66.6666666666667,4,2,1,30,0,1
196755,-66.6666666666667,4,2,1,60,0,1
197380,-66.6666666666667,4,2,1,60,0,0
198005,-66.6666666666667,4,2,1,70,0,1
198161,-66.6666666666667,4,2,1,60,0,0
200505,-100,4,2,1,60,0,0
203005,-66.6666666666667,4,2,1,70,0,1
203161,-66.6666666666667,4,2,1,60,0,0
205817,-66.6666666666667,4,2,0,60,0,0
206442,-66.6666666666667,4,2,0,65,0,0
206755,-66.6666666666667,4,2,0,70,0,0
207067,-50,4,2,0,75,0,0
207380,-50,4,2,0,85,0,0
207419,-50,4,2,0,35,0,0
207692,-50,4,2,0,30,0,0
208005,-50,4,2,0,25,0,0
208317,-50,4,2,0,20,0,0
208630,-50,4,2,0,15,0,0
208942,-50,4,1,0,10,0,0

[Colours]
Combo1 : 147,147,255
Combo2 : 234,117,0
Combo3 : 124,87,223
Combo4 : 247,247,0

[HitObjects]
72,96,2803,5,2,0:0:0:0:
160,104,2959,1,0,0:0:0:0:
256,108,3115,1,0,0:0:0:0:
428,148,3740,1,0,0:0:0:0:
248,272,4053,5,2,0:0:0:0:
140,272,4209,1,0,0:0:0:0:
204,220,4365,1,0,0:0:0:0:
302,299,5303,5,2,0:0:0:0:
356,324,5459,1,0,0:0:0:0:
264,244,5615,1,0,0:0:0:0:
455,206,5928,1,2,0:0:0:0:
240,200,6240,5,0,0:0:0:0:
168,176,6396,1,0,0:0:0:0:
92,192,6553,1,0,0:0:0:0:
289,119,6865,1,2,0:0:0:0:
344,144,7021,1,2,0:0:0:0:
236,64,7178,1,0,0:0:0:0:
78,176,7803,5,2,0:0:0:0:
168,152,7959,1,0,0:0:0:0:
236,200,8115,1,0,0:0:0:0:
116,256,8428,1,2,0:0:0:0:
441,310,8740,5,2,0:0:0:0:
356,336,8896,1,0,0:0:0:0:
444,224,9053,1,0,0:0:0:0:
328,256,9209,1,0,0:0:0:0:
228,256,9365,1,0,0:0:0:0:
72,272,9990,5,0,0:0:0:0:
144,320,10146,1,0,0:0:0:0:
0,180,10303,1,2,0:0:0:0:
88,112,10459,1,0,0:0:0:0:
196,72,10615,1,0,0:0:0:0:
493,133,10928,1,2,0:0:0:0:
267,255,11240,5,0,0:0:0:0:
340,296,11396,1,0,0:0:0:0:
424,336,11553,1,0,0:0:0:0:
160,304,11865,1,0,0:0:0:0:
132,200,12021,1,0,0:0:0:0:
256,200,12178,1,0,0:0:0:0:
28,84,12803,6,0,B|44:236|44:236|204:260,1,300.000011444092,8|8,0:0|0:0,0:0:0:0:
484,84,14053,6,0,B|464:228|464:228|308:256,1,300.000011444092,8|8,0:0|0:0,0:0:0:0:
256,88,15303,6,0,B|184:88|184:88|334:87|334:87|256:88,1,299.999991059304,8|8,0:0|0:0,0:0:0:0:
392,144,16240,5,0,0:0:0:0:
392,144,16396,1,0,0:0:0:0:
392,144,16553,1,8,0:0:0:0:
100,144,16865,1,0,0:0:0:0:
320,144,17178,2,0,B|140:144,1,149.999995529652,8|0,0:0|0:0,0:0:0:0:
170,144,17646,1,0,0:0:0:0:
64,84,17803,5,8,0:0:0:0:
152,64,17959,1,0,0:0:0:0:
244,44,18115,1,0,0:0:0:0:
64,80,18428,6,0,B|18:146|96:228|96:228|264:240,1,299.999991059304,8|8,0:0|0:0,0:0:0:0:
352,224,19209,1,0,0:0:0:0:
464,164,19365,1,0,0:0:0:0:
264,144,19678,6,0,B|296:216|296:216|208:252|208:252|68:248,1,299.999991059304,8|8,0:0|0:0,0:0:0:0:
172,204,20459,1,0,0:0:0:0:
256,188,20614,1,0,0:0:0:0:
464,176,20928,5,8,0:0:0:0:
256,188,21240,1,0,0:0:0:0:
352,188,21396,1,0,0:0:0:0:
228,192,21553,2,0,B|312:56|312:56,1,149.999995529652
472,68,22178,5,10,0:0:0:0:
316,176,22334,1,0,0:0:0:0:
184,256,22490,1,0,0:0:0:0:
104,300,22646,1,0,0:0:0:0:
40,316,22803,6,0,B|76:200|216:140,2,224.999993294478,10|0|8,0:0|0:0|0:0,0:0:0:0:
336,332,24053,5,0,0:0:0:0:
232,272,24209,2,0,B|196:156|128:132,1,150.000005722046,10|0,0:0|0:0,0:0:0:0:
28,184,24678,2,8,B|68:260|160:272,1,150.000005722046,8|0,0:0|0:0,0:0:0:0:
336,272,25146,1,0,0:0:0:0:
236,184,25303,6,0,B|164:156|100:228,1,149.999995529652,10|0,0:0|0:0,0:0:0:0:
384,284,25928,1,8,0:0:0:0:
316,308,26084,2,8,B|177:335|136:300,1,150.000005722046,0|8,0:0|0:0,0:0:0:0:
36,240,26553,5,0,0:0:0:0:
256,160,26865,1,0,0:0:0:0:
56,120,27178,1,10,0:0:0:0:
180,100,27334,1,0,0:0:0:0:
300,88,27490,1,0,0:0:0:0:
388,160,27646,1,0,0:0:0:0:
472,316,27803,6,0,B|436:200|296:140,2,224.999993294478,10|0|8,0:0|0:0|0:0,0:0:0:0:
176,332,29053,5,0,0:0:0:0:
280,272,29209,2,0,B|316:156|384:132,1,150.000005722046,10|0,0:0|0:0,0:0:0:0:
484,184,29678,2,8,B|444:260|352:272,1,150.000005722046,8|0,0:0|0:0,0:0:0:0:
176,272,30146,1,0,0:0:0:0:
276,184,30303,6,0,B|348:156|412:228,1,149.999995529652,10|0,0:0|0:0,0:0:0:0:
128,284,30928,5,8,0:0:0:0:
196,308,31084,2,8,B|335:335|376:300,1,150.000005722046,0|8,0:0|0:0,0:0:0:0:
476,240,31553,1,0,0:0:0:0:
264,168,31865,1,0,0:0:0:0:
456,120,32178,5,10,0:0:0:0:
332,100,32334,1,0,0:0:0:0:
212,88,32490,1,0,0:0:0:0:
92,152,32646,1,0,0:0:0:0:
296,200,32803,6,0,B|396:100,1,100,12|0,0:0|0:0,0:0:0:0:
216,292,33115,2,0,B|132:208,1,100
328,56,33428,1,8,0:0:0:0:
376,120,33584,1,0,0:0:0:0:
184,144,33740,1,8,0:0:0:0:
136,64,33896,1,0,0:0:0:0:
304,232,34053,6,0,B|204:232,2,100,2|0|0,0:0|0:0|0:0,0:0:0:0:
404,240,34521,1,0,0:0:0:0:
204,164,34678,6,8,B|312:164,2,100,10|0|8,0:0|0:0|0:0,0:0:0:0:
96,160,35146,1,0,0:0:0:0:
268,292,35303,6,0,B|164:292,1,100,2|0,0:0|0:0,0:0:0:0:
32,220,35615,2,0,B|152:220,1,100,0|0,0:0|0:0,0:0:0:0:
312,216,35928,2,0,B|204:216,1,100,8|0,0:0|0:0,0:0:0:0:
368,88,36240,1,2,0:0:0:0:
276,144,36396,1,0,0:0:0:0:
368,84,36552,5,2,0:0:0:0:
152,156,36865,1,0,0:0:0:0:
496,184,37178,1,8,0:0:0:0:
428,240,37334,1,0,0:0:0:0:
264,228,37490,1,2,0:0:0:0:
328,320,37647,1,0,0:0:0:0:
128,136,37803,6,0,B|16:136,2,100,2|0|2,0:0|0:0|0:0,0:0:0:0:
256,136,38271,1,0,0:0:0:0:
384,136,38428,2,0,B|484:136,2,100,8|0|8,0:0|0:0|0:0,0:0:0:0:
256,136,38896,1,0,0:0:0:0:
84,136,39053,6,0,B|200:136,2,100,2|0|2,0:0|0:0|0:0,0:0:0:0:
256,136,39521,1,0,0:0:0:0:
428,136,39678,2,0,B|312:136,2,100,10|0|8,0:0|0:0|0:0,0:0:0:0:
256,136,40146,1,0,0:0:0:0:
112,132,40303,5,2,0:0:0:0:
256,136,40459,1,0,0:0:0:0:
156,132,40615,2,0,B|256:84,1,100
72,200,40928,1,8,0:0:0:0:
376,192,41240,1,2,0:0:0:0:
296,276,41396,1,0,0:0:0:0:
184,336,41553,6,0,B|128:322|120:264,1,100,2|0,0:0|0:0,0:0:0:0:
328,336,41865,2,0,B|384:322|392:264,1,100
204,336,42178,5,8,0:0:0:0:
308,336,42334,1,0,0:0:0:0:
168,336,42490,1,0,0:0:0:0:
336,336,42646,1,0,0:0:0:0:
112,92,42803,5,2,0:0:0:0:
228,48,42959,1,0,0:0:0:0:
124,172,43115,1,0,0:0:0:0:
12,224,43272,1,0,0:0:0:0:
124,172,43428,1,8,0:0:0:0:
240,208,43584,1,0,0:0:0:0:
240,207,43740,1,0,0:0:0:0:
360,268,43896,1,0,0:0:0:0:
496,80,44053,6,0,B|392:80,1,100,2|0,0:0|0:0,0:0:0:0:
248,152,44365,2,0,B|325:83,1,100
488,204,44678,2,0,B|368:204,1,100,8|0,0:0|0:0,0:0:0:0:
248,152,44990,2,0,B|172:76,1,100
400,92,45303,5,2,0:0:0:0:
284,48,45459,1,0,0:0:0:0:
388,172,45615,1,0,0:0:0:0:
500,224,45772,1,0,0:0:0:0:
388,172,45928,1,8,0:0:0:0:
272,208,46084,1,0,0:0:0:0:
272,207,46240,1,0,0:0:0:0:
152,268,46396,1,0,0:0:0:0:
16,80,46553,6,0,B|120:80,1,100,2|0,0:0|0:0,0:0:0:0:
264,152,46865,2,0,B|187:83,1,100
24,204,47178,2,0,B|144:204,1,100,8|0,0:0|0:0,0:0:0:0:
264,152,47490,1,0,0:0:0:0:
120,260,47646,1,0,0:0:0:0:
264,152,47803,5,2,0:0:0:0:
404,152,47959,2,0,B|516:64,2,100
264,152,48428,1,8,0:0:0:0:
100,244,48584,2,0,B|-8:312,2,100
412,156,49053,5,2,0:0:0:0:
316,156,49209,1,0,0:0:0:0:
160,156,49365,1,0,0:0:0:0:
224,156,49521,1,0,0:0:0:0:
408,316,49678,1,8,0:0:0:0:
408,244,49834,1,0,0:0:0:0:
228,304,49990,1,0,0:0:0:0:
328,308,50146,1,0,0:0:0:0:
160,48,50303,6,0,B|48:68|-8:152,1,200,2|0,0:0|0:0,0:0:0:0:
176,196,50771,1,0,0:0:0:0:
280,312,50928,2,0,B|392:340|472:284,1,200,8|0,0:0|0:0,0:0:0:0:
304,248,51396,1,0,0:0:0:0:
176,196,51553,5,2,0:0:0:0:
496,152,51865,1,0,0:0:0:0:
88,140,52178,1,4,0:0:0:0:
448,68,52490,1,4,0:0:0:0:
448,68,52646,1,0,0:0:0:0:
164,284,52803,5,6,0:0:0:0:
256,284,52959,1,0,0:0:0:0:
128,232,53115,1,0,0:0:0:0:
292,232,53272,1,0,0:0:0:0:
216,232,53428,5,2,0:0:0:0:
308,232,53584,1,0,0:0:0:0:
180,180,53740,1,0,0:0:0:0:
344,180,53897,1,0,0:0:0:0:
480,40,54053,5,2,0:0:0:0:
480,112,54209,1,0,0:0:0:0:
288,48,54365,1,0,0:0:0:0:
288,120,54521,1,0,0:0:0:0:
128,52,54678,1,8,0:0:0:0:
128,120,54834,1,0,0:0:0:0:
8,128,54990,1,0,0:0:0:0:
8,52,55146,1,0,0:0:0:0:
324,120,55303,6,0,B|240:180,1,100,4|0,0:0|0:0,0:0:0:0:
408,216,55615,1,0,0:0:0:0:
480,268,55771,1,0,0:0:0:0:
272,168,55928,6,0,B|184:228,1,100,8|0,0:0|0:0,0:0:0:0:
364,232,56240,1,0,0:0:0:0:
304,288,56396,1,2,0:0:0:0:
152,104,56553,6,0,B|152:212,1,100,2|0,0:0|0:0,0:0:0:0:
303,199,56865,2,0,B|300:100,1,100,0|0,0:0|0:0,0:0:0:0:
112,100,57178,2,0,B|114:200,1,100,8|0,0:0|0:0,0:0:0:0:
336,100,57490,1,0,0:0:0:0:
152,96,57646,1,0,0:0:0:0:
38,259,57803,6,0,B|144:240|200:124,1,200,2|0,0:0|0:0,0:0:0:0:
336,128,58271,1,0,0:0:0:0:
192,140,58428,6,0,B|239:238|345:257,1,200,2|0,0:0|0:0,0:0:0:0:
484,272,58896,1,0,0:0:0:0:
368,188,59053,5,2,0:0:0:0:
272,168,59209,1,0,0:0:0:0:
200,120,59365,1,0,0:0:0:0:
40,160,59521,1,0,0:0:0:0:
188,232,59678,5,8,0:0:0:0:
272,276,59834,1,0,0:0:0:0:
368,288,59990,1,0,0:0:0:0:
248,312,60146,1,0,0:0:0:0:
64,244,60303,6,0,B|64:128,1,100,2|0,0:0|0:0,0:0:0:0:
304,168,60615,2,0,B|300:284,1,100
40,108,60928,2,0,B|108:24,1,100,8|0,0:0|0:0,0:0:0:0:
252,92,61240,2,0,B|327:157,1,100
148,164,61553,6,0,B|100:124,4,50
396,164,62021,1,0,0:0:0:0:
260,164,62178,1,4,0:0:0:0:
264,248,62490,1,0,0:0:0:0:
264,248,62646,1,2,0:0:0:0:
80,208,62803,5,6,0:0:0:0:
32,152,62959,1,0,0:0:0:0:
204,88,63115,1,0,0:0:0:0:
264,32,63271,1,0,0:0:0:0:
440,176,63428,1,8,0:0:0:0:
392,240,63584,1,0,0:0:0:0:
216,224,63740,1,0,0:0:0:0:
392,240,63896,1,0,0:0:0:0:
336,248,64053,6,0,B|340:372,1,100,2|0,0:0|0:0,0:0:0:0:
128,336,64365,2,0,B|124:216,1,100
284,240,64678,2,0,B|287:339,1,100,8|0,0:0|0:0,0:0:0:0:
100,328,64990,2,0,B|201:329,1,100
336,248,65303,5,2,0:0:0:0:
208,180,65459,1,0,0:0:0:0:
312,88,65615,1,2,0:0:0:0:
452,72,65771,1,0,0:0:0:0:
308,176,65928,1,8,0:0:0:0:
148,240,66084,1,0,0:0:0:0:
48,280,66240,1,0,0:0:0:0:
248,280,66396,1,0,0:0:0:0:
80,180,66553,6,0,B|80:48,1,100,2|0,0:0|0:0,0:0:0:0:
224,168,66865,2,0,B|224:64,1,100,2|0,0:0|0:0,0:0:0:0:
56,176,67178,2,0,B|56:76,1,100,8|0,0:0|0:0,0:0:0:0:
252,168,67490,2,0,B|132:168,1,100
392,96,67803,6,2,B|172:96,1,200
96,220,68271,1,0,0:0:0:0:
264,232,68428,2,0,B|264:124,1,100,8|0,0:0|0:0,0:0:0:0:
96,220,68740,1,0,0:0:0:0:
264,232,68896,1,0,0:0:0:0:
60,104,69053,6,2,B|280:104,1,200
380,188,69521,1,0,0:0:0:0:
224,208,69678,1,8,0:0:0:0:
224,108,69834,1,0,0:0:0:0:
376,192,69990,1,0,0:0:0:0:
224,212,70146,1,0,0:0:0:0:
44,116,70303,5,2,0:0:0:0:
336,184,70615,2,0,B|260:120|260:120|160:120,1,200,0|8,0:0|0:0,0:0:0:0:
424,116,71240,1,0,0:0:0:0:
156,212,71553,2,0,B|232:148|232:148|332:148,1,200,0|8,0:0|0:0,0:0:0:0:
84,224,72178,2,0,B|88:16,1,200,8|0,0:0|0:0,0:0:0:0:
488,56,72803,6,0,B|380:56,1,100,6|0,0:0|0:0,0:0:0:0:
224,140,73115,1,0,0:0:0:0:
292,72,73271,1,0,0:0:0:0:
152,68,73428,2,0,B|52:68,1,100,8|0,0:0|0:0,0:0:0:0:
224,140,73740,1,0,0:0:0:0:
348,140,73896,1,0,0:0:0:0:
148,224,74053,5,2,0:0:0:0:
148,224,74131,1,0,0:0:0:0:
148,220,74209,1,0,0:0:0:0:
260,220,74365,1,0,0:0:0:0:
300,220,74443,1,0,0:0:0:0:
260,220,74521,1,0,0:0:0:0:
96,280,74678,1,8,0:0:0:0:
40,280,74756,1,0,0:0:0:0:
96,280,74834,1,0,0:0:0:0:
284,288,74990,1,8,0:0:0:0:
356,288,75068,1,0,0:0:0:0:
284,288,75146,1,0,0:0:0:0:
92,200,75303,6,0,B|236:100,2,150,2|0|2,0:0|0:0|0:0,0:0:0:0:
240,216,75928,2,0,B|108:216,1,100,2|0,0:0|0:0,0:0:0:0:
332,224,76240,2,0,B|332:112,1,100
148,224,76553,5,2,0:0:0:0:
80,224,76631,1,0,0:0:0:0:
148,220,76709,1,0,0:0:0:0:
300,224,76865,1,0,0:0:0:0:
352,224,76943,1,0,0:0:0:0:
300,224,77021,1,0,0:0:0:0:
188,284,77178,1,8,0:0:0:0:
156,284,77256,1,0,0:0:0:0:
188,284,77334,1,0,0:0:0:0:
384,280,77490,1,0,0:0:0:0:
384,280,77568,1,0,0:0:0:0:
384,280,77646,1,0,0:0:0:0:
267,292,77803,5,2,0:0:0:0:
380,280,77959,1,0,0:0:0:0:
172,228,78115,1,0,0:0:0:0:
240,180,78271,1,0,0:0:0:0:
396,120,78428,1,8,0:0:0:0:
272,120,78584,1,0,0:0:0:0:
344,120,78740,1,0,0:0:0:0:
180,120,78896,1,0,0:0:0:0:
344,120,79053,6,0,B|382:138|382:138|396:224,1,100,2|0,0:0|0:0,0:0:0:0:
188,232,79365,2,0,B|226:214|226:214|240:152,1,100,2|0,0:0|0:0,0:0:0:0:
52,192,79678,2,0,B|14:210|14:210|0:272,1,100,8|0,0:0|0:0,0:0:0:0:
200,312,79990,1,0,0:0:0:0:
164,196,80146,1,0,0:0:0:0:
324,316,80303,5,10,0:0:0:0:
368,284,80459,1,0,0:0:0:0:
276,292,80615,1,0,0:0:0:0:
384,232,80771,1,0,0:0:0:0:
320,200,80928,5,10,0:0:0:0:
272,160,81084,1,0,0:0:0:0:
380,180,81240,1,0,0:0:0:0:
312,128,81396,1,0,0:0:0:0:
216,116,81553,5,2,0:0:0:0:
96,116,81709,1,0,0:0:0:0:
200,200,81865,1,2,0:0:0:0:
320,132,82021,1,0,0:0:0:0:
204,88,82178,5,8,0:0:0:0:
124,184,82334,1,0,0:0:0:0:
240,200,82490,1,0,0:0:0:0:
340,96,82646,1,0,0:0:0:0:
160,104,82803,5,2,0:0:0:0:
112,212,82959,1,0,0:0:0:0:
300,248,83115,1,0,0:0:0:0:
244,140,83271,1,0,0:0:0:0:
76,88,83428,5,2,0:0:0:0:
244,116,83584,1,0,0:0:0:0:
168,176,83740,1,0,0:0:0:0:
316,112,83896,1,0,0:0:0:0:
508,84,84053,5,2,0:0:0:0:
284,224,84209,1,0,0:0:0:0:
404,132,84365,1,0,0:0:0:0:
232,120,84521,1,0,0:0:0:0:
68,80,84678,5,2,0:0:0:0:
264,196,84834,1,0,0:0:0:0:
116,228,84990,1,0,0:0:0:0:
384,64,85146,1,0,0:0:0:0:
0,172,85303,5,2,0:0:0:0:
48,152,94053,6,0,B|464:128,1,400
328,212,94834,5,0,0:0:0:0:
256,232,94990,1,0,0:0:0:0:
196,264,95068,1,0,0:0:0:0:
180,324,95146,1,2,0:0:0:0:
288,328,95224,1,2,0:0:0:0:
416,324,95303,6,0,B|388:356|388:356|320:356,1,100,4|0,0:0|0:0,0:0:0:0:
168,296,95615,1,0,0:0:0:0:
208,204,95771,1,0,0:0:0:0:
396,224,95928,2,0,B|484:132,1,100,8|0,0:0|0:0,0:0:0:0:
304,160,96240,1,0,0:0:0:0:
188,228,96397,1,0,0:0:0:0:
16,96,96553,6,0,B|112:164,1,100,2|0,0:0|0:0,0:0:0:0:
268,144,96865,2,0,B|228:44,1,100
416,144,97178,2,0,B|196:148,1,200
300,212,97646,1,0,0:0:0:0:
128,260,97803,6,0,B|222:226,1,100
68,288,98115,1,0,0:0:0:0:
416,152,98428,1,8,0:0:0:0:
128,260,98740,6,0,B|136:132,1,100
316,140,99053,2,0,B|220:208,1,100,2|0,0:0|0:0,0:0:0:0:
428,208,99365,1,0,0:0:0:0:
312,140,99521,1,0,0:0:0:0:
148,160,99678,2,0,B|252:308,2,150,8|0|0,0:0|0:0|0:0,0:0:0:0:
360,100,100303,6,0,B|324:120|256:120,1,100,2|0,0:0|0:0,0:0:0:0:
156,92,100615,1,0,0:0:0:0:
244,184,100771,1,0,0:0:0:0:
40,192,100928,2,0,B|76:212|144:212,1,100,8|0,0:0|0:0,0:0:0:0:
244,184,101240,1,0,0:0:0:0:
156,276,101396,1,0,0:0:0:0:
360,284,101553,6,0,B|284:212,1,100
404,288,101865,1,0,0:0:0:0:
252,288,102021,1,0,0:0:0:0:
68,220,102178,2,8,B|276:224,1,200,8|0,0:0|0:0,0:0:0:0:
148,220,102646,1,0,0:0:0:0:
344,304,102803,6,0,B|316:333|316:333|256:332,2,100,2|0|0,0:0|0:0|0:0,0:0:0:0:
236,256,103271,1,0,0:0:0:0:
88,292,103428,2,0,B|116:321|116:321|240:320,2,150,10|0|0,0:0|0:0|0:0,0:0:0:0:
272,320,104053,5,2,0:0:0:0:
164,216,104209,1,0,0:0:0:0:
316,116,104365,2,0,B|224:192,1,100,2|0,0:0|0:0,0:0:0:0:
24,120,104678,2,0,B|244:160,1,200,8|0,0:0|0:0,0:0:0:0:
368,264,105146,1,0,0:0:0:0:
340,240,105303,5,2,0:0:0:0:
228,192,105459,1,0,0:0:0:0:
432,140,105615,2,0,B|380:196,4,50,2|0|0|0|8,0:0|0:0|0:0|0:0|0:0,0:0:0:0:
296,128,106084,1,0,0:0:0:0:
464,140,106240,1,0,0:0:0:0:
328,128,106396,1,0,0:0:0:0:
184,224,106553,5,2,0:0:0:0:
296,176,106709,1,0,0:0:0:0:
104,132,106865,2,0,B|164:188,4,50,2|0|0|0|8,0:0|0:0|0:0|0:0|0:0,0:0:0:0:
228,112,107334,1,0,0:0:0:0:
80,132,107490,1,0,0:0:0:0:
244,112,107646,1,0,0:0:0:0:
48,192,107803,6,0,B|76:220|120:284,1,100,2|0,0:0|0:0,0:0:0:0:
304,208,108115,2,0,B|276:236|176:236,1,100,0|0,0:0|0:0,0:0:0:0:
424,148,108428,2,0,B|387:194,2,50,8|0|0,0:0|0:0|0:0,0:0:0:0:
256,144,108740,2,0,B|196:144,2,50,2|0|0,0:0|0:0|0:0,0:0:0:0:
116,280,109053,5,2,0:0:0:0:
332,152,109365,2,0,B|272:236,1,100,2|0,0:0|0:0,0:0:0:0:
104,152,109678,2,0,B|168:72,1,100,8|0,0:0|0:0,0:0:0:0:
72,152,109990,1,0,0:0:0:0:
244,144,110146,1,0,0:0:0:0:
56,300,110303,5,2,0:0:0:0:
184,300,110459,1,0,0:0:0:0:
348,304,110615,1,2,0:0:0:0:
200,300,110771,1,0,0:0:0:0:
356,292,110928,2,0,B|414:269,4,50,8|0|0|0|0,0:0|0:0|0:0|0:0|0:0,0:0:0:0:
228,196,111396,1,0,0:0:0:0:
428,292,111553,5,2,0:0:0:0:
300,292,111709,1,0,0:0:0:0:
144,296,111865,1,2,0:0:0:0:
280,296,112021,1,0,0:0:0:0:
92,288,112178,2,0,B|164:256,4,50,8|0|0|0|0,0:0|0:0|0:0|0:0|0:0,0:0:0:0:
272,204,112646,1,0,0:0:0:0:
60,124,112803,6,2,B|88:152|88:152|164:152,1,100,2|0,0:0|0:0,0:0:0:0:
312,216,113115,2,0,B|284:188|284:188|216:188,1,100
412,184,113428,2,0,B|268:40,1,200
412,184,113896,1,2,0:0:0:0:
240,280,114053,6,0,B|212:248|212:248|212:192,1,100,2|0,0:0|0:0,0:0:0:0:
36,176,114365,2,0,B|64:208|64:208|64:264,1,100,2|0,0:0|0:0,0:0:0:0:
276,216,114678,1,8,0:0:0:0:
328,92,114834,1,0,0:0:0:0:
172,136,114990,1,0,0:0:0:0:
108,256,115146,1,0,0:0:0:0:
316,280,115303,5,6,0:0:0:0:
424,312,115459,1,0,0:0:0:0:
316,196,115615,1,0,0:0:0:0:
472,248,115771,1,0,0:0:0:0:
180,296,115928,5,6,0:0:0:0:
288,336,116084,1,0,0:0:0:0:
192,220,116240,1,0,0:0:0:0:
332,280,116396,1,0,0:0:0:0:
64,172,116553,6,0,B|176:172,1,100,2|0,0:0|0:0,0:0:0:0:
348,176,116865,2,0,B|260:104,1,100
104,176,117178,2,0,B|104:284,1,100,8|0,0:0|0:0,0:0:0:0:
260,240,117490,1,0,0:0:0:0:
168,184,117646,1,0,0:0:0:0:
464,180,117803,5,6,0:0:0:0:
320,224,117959,1,0,0:0:0:0:
232,168,118115,1,0,0:0:0:0:
392,252,118271,1,0,0:0:0:0:
140,192,118428,5,6,0:0:0:0:
284,236,118584,1,0,0:0:0:0:
372,180,118740,1,0,0:0:0:0:
212,264,118896,1,0,0:0:0:0:
328,156,119053,6,0,B|247:92,1,100,2|0,0:0|0:0,0:0:0:0:
155,185,119365,2,0,B|216:156|216:156|220:92,1,100
372,100,119678,2,0,B|312:192,1,100,8|0,0:0|0:0,0:0:0:0:
156,188,119990,1,0,0:0:0:0:
332,192,120146,1,0,0:0:0:0:
96,192,120303,6,0,B|96:236|96:236|172:236,1,100,2|0,0:0|0:0,0:0:0:0:
332,248,120615,1,0,0:0:0:0:
240,316,120771,1,0,0:0:0:0:
416,192,120928,6,0,B|416:236|416:236|340:236,1,100,2|0,0:0|0:0,0:0:0:0:
180,248,121240,1,0,0:0:0:0:
272,316,121396,1,0,0:0:0:0:
24,152,121553,6,0,B|104:80,1,100,2|0,0:0|0:0,0:0:0:0:
284,88,121865,2,0,B|220:164,1,100,2|0,0:0|0:0,0:0:0:0:
24,152,122178,2,0,B|80:44,1,100,8|0,0:0|0:0,0:0:0:0:
248,92,122490,1,0,0:0:0:0:
72,64,122646,1,0,0:0:0:0:
404,316,122803,5,2,0:0:0:0:
72,320,123115,1,0,0:0:0:0:
324,316,123428,1,0,0:0:0:0:
152,316,123584,1,0,0:0:0:0:
0,320,123740,1,0,0:0:0:0:
388,244,124053,5,2,0:0:0:0:
344,176,124209,1,0,0:0:0:0:
120,232,124365,2,0,B|161:267,2,50
312,132,124678,2,0,B|180:132|180:132|260:148,1,200
160,136,125146,1,0,0:0:0:0:
296,140,125302,1,0,0:0:0:0:
296,140,125303,2,0,B|116:208,1,175
132,201,125615,2,0,B|308:263,1,175
297,259,125928,2,0,B|440:132,1,175
424,148,126240,2,0,B|295:142,2,100
436,64,126592,6,0,B|248:72,1,175,0|4,0:0|0:0,0:0:0:0:
256,148,126904,2,4,B|340:276,1,150,0|4,0:0|0:0,0:0:0:0:
340,323,127178,2,4,B|148:327,1,175
166,327,127490,2,4,B|268:324,2,100
32,228,127959,1,0,0:0:0:0:
184,160,128115,2,0,B|300:160,2,100
80,64,128584,2,0,B|216:64,1,100
8,152,128896,1,0,0:0:0:0:
208,116,129053,6,4,B|92:272,1,175,0|4,0:0|0:0,0:0:0:0:
108,252,129365,2,0,B|262:146,1,175
252,152,129678,2,0,B|66:163,1,175,4|0,0:0|0:0,0:0:0:0:
77,162,129990,1,0,0:0:0:0:
172,208,130146,1,0,0:0:0:0:
280,216,130303,6,0,B|200:292,2,100
356,128,130771,1,0,0:0:0:0:
176,140,130928,2,0,B|116:52,1,100,4|0,0:0|0:0,0:0:0:0:
280,144,131240,6,0,B|166:144,1,100,0|0,0:0|0:0,0:0:0:0:
352,80,131513,2,0,L|408:168,1,100,0|0,0:0|0:0,0:0:0:0:
248,156,131865,2,0,B|342:156,3,50,0|0|0|0,0:0|0:0|0:0|0:0,0:0:0:0:
244,220,132178,2,0,B|52:224,1,175,4|0,0:0|0:0,0:0:0:0:
40,148,132490,2,0,B|104:71,1,100,0|0,0:0|0:0,0:0:0:0:
320,112,132803,1,0,0:0:0:0:
256,192,132959,12,0,134053,0:0:0:0:
396,192,134365,5,0,0:0:0:0:
316,136,134521,1,0,0:0:0:0:
140,156,134678,5,8,0:0:0:0:
260,232,134834,1,0,0:0:0:0:
368,336,134990,1,0,0:0:0:0:
256,192,135303,12,0,137490,0:0:0:0:
160,181,137803,5,2,0:0:0:0:
194,204,137881,1,0,0:0:0:0:
228,228,137959,1,0,0:0:0:0:
352,216,138115,2,0,B|260:84,1,149.999995529652
464,64,138428,5,8,0:0:0:0:
422,64,138506,1,0,0:0:0:0:
380,64,138584,1,0,0:0:0:0:
260,136,138740,1,0,0:0:0:0:
392,236,138896,1,0,0:0:0:0:
112,284,139053,5,2,0:0:0:0:
156,300,139131,1,0,0:0:0:0:
200,320,139209,2,0,B|255:342|255:342|344:344,1,149.999995529652
216,228,139521,1,0,0:0:0:0:
430,133,139678,5,8,0:0:0:0:
404,100,139756,1,0,0:0:0:0:
377,67,139834,1,0,0:0:0:0:
184,64,139990,2,0,B|120:88|120:88|64:160,1,150.000005722046
358,236,140303,5,2,0:0:0:0:
320,252,140381,1,0,0:0:0:0:
270,268,140459,1,0,0:0:0:0:
384,160,140615,1,0,0:0:0:0:
208,228,140771,1,0,0:0:0:0:
456,184,140928,5,8,0:0:0:0:
276,160,141240,6,0,B|254:105|254:105|356:108,1,149.999995529652,0|2,0:0|0:0,0:0:0:0:
188,128,141553,5,2,0:0:0:0:
60,120,141709,1,0,0:0:0:0:
188,128,141865,2,0,B|228:175|228:175|132:176,1,149.999995529652,2|0,0:0|0:0,0:0:0:0:
8,248,142178,6,0,B|112:128,1,150.000005722046,8|0,0:0|0:0,0:0:0:0:
288,152,142490,1,0,0:0:0:0:
500,252,142646,1,0,0:0:0:0:
204,208,142803,5,2,0:0:0:0:
204,208,142881,1,0,0:0:0:0:
204,208,142959,1,0,0:0:0:0:
200,144,143115,1,0,0:0:0:0:
392,104,143271,1,0,0:0:0:0:
104,206,143428,5,8,0:0:0:0:
104,208,143506,1,0,0:0:0:0:
104,206,143584,1,0,0:0:0:0:
256,232,143740,1,0,0:0:0:0:
36,296,143896,1,2,0:0:0:0:
208,308,144053,5,2,0:0:0:0:
208,308,144131,1,0,0:0:0:0:
208,308,144209,1,0,0:0:0:0:
324,304,144365,1,0,0:0:0:0:
136,244,144521,1,0,0:0:0:0:
368,80,144678,5,8,0:0:0:0:
368,80,144756,1,0,0:0:0:0:
368,80,144834,1,0,0:0:0:0:
212,132,144990,1,0,0:0:0:0:
300,204,145146,1,0,0:0:0:0:
136,280,145303,6,0,B|8:200,2,150.000005722046,2|0|0,0:0|0:0|0:0,0:0:0:0:
272,328,145771,1,0,0:0:0:0:
456,336,145928,6,0,B|336:224,1,149.999995529652,8|0,0:0|0:0,0:0:0:0:
188,252,146240,2,0,B|332:168,1,149.999995529652,0|2,0:0|0:0,0:0:0:0:
488,112,146553,5,2,0:0:0:0:
488,112,146709,1,0,0:0:0:0:
300,284,146865,2,0,B|374:231|374:231|300:188,1,149.999995529652
136,328,147178,5,12,0:0:0:0:
252,332,147334,1,0,0:0:0:0:
68,328,147490,1,2,0:0:0:0:
252,332,147646,1,0,0:0:0:0:
148,44,147803,6,0,B|76:112,1,74.9999977648259,6|0,0:0|0:0,0:0:0:0:
36,168,147959,2,0,B|128:168,1,74.9999977648259
168,44,148115,6,0,B|92:108,1,74.9999977648259,6|0,0:0|0:0,0:0:0:0:
52,168,148271,2,0,B|132:168,1,74.9999977648259,0|0,0:0|0:0,0:0:0:0:
184,44,148428,6,0,B|108:112,1,74.9999977648259,6|0,0:0|0:0,0:0:0:0:
64,168,148584,2,0,B|144:168,1,74.9999977648259,0|0,0:0|0:0,0:0:0:0:
200,44,148740,6,0,B|124:108,1,74.9999977648259,6|0,0:0|0:0,0:0:0:0:
76,168,148896,2,0,B|160:168,1,74.9999977648259
232,56,149053,6,0,B|116:152,1,149.999995529652,2|0,0:0|0:0,0:0:0:0:
244,224,149365,2,0,B|356:108,1,150.000005722046
484,84,149678,2,0,B|308:80,1,149.999995529652,8|0,0:0|0:0,0:0:0:0:
204,276,149990,2,0,B|348:172,1,149.999995529652
364,44,150303,6,0,B|436:112,1,74.9999977648259,6|0,0:0|0:0,0:0:0:0:
476,168,150459,2,0,B|384:168,1,74.9999977648259,0|0,0:0|0:0,0:0:0:0:
344,40,150615,6,0,B|420:104,1,74.9999977648259,6|0,0:0|0:0,0:0:0:0:
460,164,150771,2,0,B|380:164,1,74.9999977648259,0|0,0:0|0:0,0:0:0:0:
328,40,150928,6,0,B|404:108,1,74.9999977648259,6|0,0:0|0:0,0:0:0:0:
448,164,151084,2,0,B|368:164,1,74.9999977648259,0|0,0:0|0:0,0:0:0:0:
316,40,151240,6,0,B|392:104,1,74.9999977648259,6|0,0:0|0:0,0:0:0:0:
440,164,151396,2,0,B|356:164,1,74.9999977648259
268,168,151553,6,0,B|132:52,2,149.999995529652,2|0|2,0:0|0:0|0:0,0:0:0:0:
132,204,152021,1,0,0:0:0:0:
288,252,152178,2,0,B|408:124,3,149.999995529652
284,108,152803,6,0,B|340:48,1,75.0000028610231,6|0,0:0|0:0,0:0:0:0:
264,104,152959,2,0,B|316:40,1,75.0000028610231
240,104,153115,2,0,B|284:40,1,75.0000028610231
220,104,153271,2,0,B|244:32,1,75.0000028610231
172,100,153428,6,0,B|204:168,1,74.9999977648259,4|0,0:0|0:0,0:0:0:0:
140,104,153584,2,0,B|188:168,1,74.9999977648259
124,104,153740,2,0,B|180:160,1,74.9999977648259
108,104,153896,2,0,B|152:168,1,75.0000028610231,2|0,0:0|0:0,0:0:0:0:
120,236,154053,6,0,B|68:176,1,75.0000028610231,6|0,0:0|0:0,0:0:0:0:
140,232,154209,2,0,B|80:176,1,74.9999977648259
164,228,154365,2,0,B|116:164,1,74.9999977648259
200,228,154521,2,0,B|168:160,1,74.9999977648259
240,240,154678,6,0,B|208:308,1,74.9999977648259,4|0,0:0|0:0,0:0:0:0:
284,244,154834,2,0,B|236:308,1,74.9999977648259
304,244,154990,2,0,B|260:320,1,75.0000028610231
344,252,155146,2,0,B|296:316,1,75.0000028610231,2|0,0:0|0:0,0:0:0:0:
204,96,155303,6,0,B|248:4,1,75.0000028610231,6|0,0:0|0:0,0:0:0:0:
336,108,155459,2,0,B|288:20,1,74.9999977648259
228,144,155615,2,0,B|280:60,1,75.0000028610231,2|0,0:0|0:0,0:0:0:0:
364,192,155771,2,0,B|324:116,1,74.9999977648259
216,148,155928,6,0,B|272:68,1,75.0000028610231,6|0,0:0|0:0,0:0:0:0:
212,152,156084,2,0,B|156:72,1,75.0000028610231
228,96,156240,2,0,B|312:56,1,75.0000028610231,6|0,0:0|0:0,0:0:0:0:
256,204,156396,2,0,B|168:168,1,75.0000028610231
116,64,156553,6,0,B|168:32|168:32|260:32,1,149.999995529652
340,120,156865,2,0,B|288:152|288:152|200:152,1,149.999995529652
328,256,157178,1,14,0:0:0:0:
256,68,157490,1,10,0:0:0:0:
256,68,157646,1,0,0:0:0:0:
180,84,157803,6,0,B|104:116,1,74.9999977648259,6|0,0:0|0:0,0:0:0:0:
72,180,157959,2,0,B|128:232,1,74.9999977648259
184,248,158115,2,0,B|256:216,1,74.9999977648259
328,208,158271,2,0,B|396:136,1,75.0000028610231
304,148,158428,6,0,B|276:68,3,75.0000028610231
192,156,158740,2,0,B|220:61,2,75.0000028610231
232,76,158974,1,0,0:0:0:0:
284,244,159053,6,0,B|216:196,1,75.0000028610231,2|0,0:0|0:0,0:0:0:0:
120,236,159209,1,0,0:0:0:0:
200,176,159287,1,0,0:0:0:0:
292,192,159365,2,0,B|364:132,2,75.0000028610231
200,248,159599,1,0,0:0:0:0:
124,84,159678,6,0,B|183:132,1,74.9999977648259
252,180,159834,1,0,0:0:0:0:
172,204,159912,1,0,0:0:0:0:
84,200,159990,2,0,B|25:153,2,74.9999977648259
182,131,160224,1,0,0:0:0:0:
272,80,160303,6,0,B|348:112,1,74.9999977648259,6|0,0:0|0:0,0:0:0:0:
384,184,160459,2,0,B|328:236,1,74.9999977648259
256,248,160615,2,0,B|184:216,1,74.9999977648259
112,200,160771,2,0,B|76:136,1,74.9999977648259
184,152,160928,6,0,B|208:68,3,75.0000028610231
300,156,161240,2,0,B|256:72,3,75.0000028610231
244,248,161553,6,0,B|320:248,1,74.9999977648259,2|0,0:0|0:0,0:0:0:0:
384,244,161709,2,0,B|384:152,1,74.9999977648259
308,172,161865,2,0,B|232:172,1,74.9999977648259,2|0,0:0|0:0,0:0:0:0:
176,248,162021,2,0,B|176:132,1,74.9999977648259
268,104,162178,6,0,B|343:104,1,74.9999977648259,2|0,0:0|0:0,0:0:0:0:
444,120,162334,2,0,B|444:208,1,74.9999977648259
356,236,162490,2,0,B|268:236,1,74.9999977648259,2|0,0:0|0:0,0:0:0:0:
180,172,162646,2,0,B|120:100,1,74.9999977648259
48,188,162803,6,0,B|140:292,1,74.9999977648259,6|0,0:0|0:0,0:0:0:0:
192,208,162959,2,0,B|96:272,1,74.9999977648259
72,328,163115,2,0,B|148:276,1,74.9999977648259
216,248,163271,2,0,B|140:300,1,74.9999977648259
76,280,163428,6,0,B|0:228,2,75.0000028610231
168,332,163662,1,0,0:0:0:0:
248,280,163740,2,0,B|332:220,2,74.9999977648259
160,280,163974,1,0,0:0:0:0:
52,216,164053,6,0,B|-20:168,1,74.9999977648259
76,216,164209,2,0,B|12:152,1,74.9999977648259
104,216,164365,2,0,B|32:140,1,74.9999977648259
128,216,164521,2,0,B|76:152,1,74.9999977648259
156,212,164678,2,0,B|120:148,1,74.9999977648259
188,208,164834,2,0,B|136:140,1,75.0000028610231
216,208,164990,2,0,B|164:128,1,75.0000028610231
240,212,165146,2,0,B|184:144,1,75.0000028610231
260,232,165303,6,0,B|348:88|348:88|476:40,1,299.999991059304,2|0,0:0|0:0,0:0:0:0:
264,52,165771,1,0,0:0:0:0:
164,68,165928,2,0,B|108:32|16:80,2,149.999995529652,8|0|0,0:0|0:0|0:0,0:0:0:0:
400,284,166553,5,2,0:0:0:0:
400,284,166631,1,0,0:0:0:0:
0,280,166865,1,2,0:0:0:0:
0,280,166943,1,0,0:0:0:0:
184,260,167178,5,14,0:0:0:0:
440,44,167490,2,0,B|436:200,1,149.999995529652
260,192,167803,5,10,0:0:0:0:
52,184,175303,5,2,0:0:0:0:
124,152,175462,1,0,0:0:0:0:
196,120,175622,1,2,0:0:0:0:
268,88,175781,1,0,0:0:0:0:
460,184,175941,5,2,0:0:0:0:
388,152,176102,1,0,0:0:0:0:
316,120,176263,1,2,0:0:0:0:
244,88,176424,1,0,0:0:0:0:
44,272,176586,6,0,B|176:268,1,100,2|0,0:0|0:0,0:0:0:0:
276,280,176923,2,0,B|344:184,1,100,2|0,0:0|0:0,0:0:0:0:
464,176,177267,6,0,B|392:60,3,100,8|0|2|0,0:0|0:0|0:0|0:0,0:0:0:0:
308,328,178005,5,6,0:0:0:0:
376,280,178083,1,0,0:0:0:0:
416,220,178161,1,0,0:0:0:0:
252,144,178317,2,0,B|288:76|288:76|384:76,1,149.999995529652
216,288,178630,5,8,0:0:0:0:
128,244,178708,1,0,0:0:0:0:
144,156,178786,1,0,0:0:0:0:
324,152,178942,2,0,B|384:160|384:160|408:260,1,149.999995529652,2|0,0:0|0:0,0:0:0:0:
216,356,179255,5,2,0:0:0:0:
140,304,179333,1,0,0:0:0:0:
216,248,179411,1,0,0:0:0:0:
380,224,179567,1,0,0:0:0:0:
216,216,179723,1,0,0:0:0:0:
28,128,179880,5,8,0:0:0:0:
68,128,179958,1,0,0:0:0:0:
108,128,180036,1,0,0:0:0:0:
288,128,180192,2,0,B|176:24|176:24|288:128,1,299.999991059304
200,220,180583,5,0,0:0:0:0:
124,300,180661,2,0,B|73:341|73:341|1:297,2,149.999995529652,0|2|0,0:0|0:0|0:0,0:0:0:0:
288,192,181130,1,8,0:0:0:0:
0,104,181442,2,0,B|132:244,1,149.999995529652,0|2,0:0|0:0,0:0:0:0:
208,148,181755,6,0,B|238:199|238:199|118:248,1,149.999995529652,2|0,0:0|0:0,0:0:0:0:
356,264,182067,2,0,B|326:213|326:213|412:160,1,149.999995529652,2|0,0:0|0:0,0:0:0:0:
236,31,182380,1,8,0:0:0:0:
72,76,182536,1,0,0:0:0:0:
184,180,182692,1,2,0:0:0:0:
12,240,182848,1,2,0:0:0:0:
255,327,183005,5,2,0:0:0:0:
255,327,183083,1,0,0:0:0:0:
255,327,183161,2,0,B|194:304|194:304|120:200,2,149.999995529652,0|0|2,0:0|0:0|0:0,0:0:0:0:
440,104,183630,5,8,0:0:0:0:
440,104,183708,1,0,0:0:0:0:
440,104,183786,2,0,B|379:127|379:127|329:195,2,149.999995529652,0|0|2,0:0|0:0|0:0,0:0:0:0:
188,180,184255,6,0,B|100:180,2,74.9999977648259
188,280,184567,2,0,B|192:96,1,149.999995529652
324,180,184880,6,0,B|412:180,2,74.9999977648259,8|0|0,0:0|0:0|0:0,0:0:0:0:
324,280,185192,2,0,B|320:96,1,149.999995529652
148,96,185505,5,2,0:0:0:0:
228,76,185583,1,0,0:0:0:0:
304,72,185661,1,0,0:0:0:0:
96,256,185817,1,0,0:0:0:0:
500,256,186130,5,8,0:0:0:0:
296,292,186442,5,0,0:0:0:0:
188,236,186598,1,2,0:0:0:0:
380,200,186755,1,2,0:0:0:0:
436,152,186911,1,0,0:0:0:0:
197,332,187067,1,2,0:0:0:0:
392,116,187223,1,0,0:0:0:0:
192,132,187380,1,10,0:0:0:0:
396,196,187692,5,8,0:0:0:0:
396,196,187848,1,0,0:0:0:0:
92,76,188005,2,0,B|92:160,3,74.9999977648259
148,76,188317,2,0,B|112:156,3,75.0000028610231
176,72,188630,6,0,B|140:144,1,75.0000028610231
220,76,188786,2,0,B|172:144,1,75.0000028610231
260,80,188942,2,0,B|220:148,1,75.0000028610231
300,80,189098,2,0,B|268:156,1,74.9999977648259
328,80,189255,6,0,B|328:164,3,74.9999977648259
344,88,189567,2,0,B|392:160,3,74.9999977648259
296,92,189880,6,0,B|344:148,1,74.9999977648259
264,92,190036,2,0,B|312:160,1,75.0000028610231
228,92,190192,2,0,B|272:160,1,74.9999977648259
196,96,190348,2,0,B|228:168,1,74.9999977648259
164,100,190505,6,0,B|100:180,1,74.9999977648259
180,96,190661,2,0,B|244:176,1,74.9999977648259
280,96,190817,2,0,B|216:176,1,74.9999977648259
292,104,190973,2,0,B|356:184,1,74.9999977648259
304,192,191130,6,0,B|244:268,3,74.9999977648259
172,184,191442,2,0,B|232:260,3,74.9999977648259
200,28,191755,6,0,B|296:32|368:52|408:100|452:180,1,299.999991059304,2|2,0:0|0:0,0:0:0:0:
256,192,192223,1,0,0:0:0:0:
88,200,192380,6,0,B|125:268|165:316|237:336|333:340,1,299.999991059304,2|2,0:0|0:0,0:0:0:0:
420,76,193005,2,0,B|420:160,3,74.9999977648259
376,76,193317,2,0,B|408:156,3,75.0000028610231
332,72,193630,2,0,B|376:132,1,75.0000028610231
296,76,193786,6,0,B|356:128,1,74.9999977648259
264,76,193942,2,0,B|308:140,1,74.9999977648259
228,80,194098,2,0,B|260:156,1,74.9999977648259
200,80,194255,6,0,B|200:164,3,74.9999977648259
184,80,194567,2,0,B|144:160,3,75.0000028610231
224,88,194880,6,0,B|172:148,1,75.0000028610231
260,88,195036,2,0,B|216:164,1,75.0000028610231
304,84,195192,2,0,B|272:160,1,75.0000028610231
336,84,195348,2,0,B|312:160,1,75.0000028610231
352,88,195505,6,0,B|416:168,1,74.9999977648259
324,96,195661,2,0,B|260:176,1,74.9999977648259
228,96,195817,2,0,B|292:176,1,74.9999977648259
176,96,195973,2,0,B|112:176,1,74.9999977648259
208,192,196130,6,0,B|268:268,3,74.9999977648259
340,184,196442,2,0,B|280:260,3,74.9999977648259
320,108,196755,6,0,B|472:164,1,149.999995529652,2|2,0:0|0:0,0:0:0:0:
280,336,197067,2,0,B|128:280,1,149.999995529652
320,108,197380,1,8,0:0:0:0:
408,180,197692,5,0,0:0:0:0:
352,180,197770,1,0,0:0:0:0:
304,180,197848,1,0,0:0:0:0:
264,180,197926,1,0,0:0:0:0:
108,168,198005,6,0,B|256:96,1,149.999995529652,6|0,0:0|0:0,0:0:0:0:
400,104,198317,1,0,0:0:0:0:
240,316,198630,5,0,0:0:0:0:
184,244,198708,1,0,0:0:0:0:
240,184,198786,1,0,0:0:0:0:
324,192,198942,1,0,0:0:0:0:
68,104,199255,5,0,0:0:0:0:
8,160,199333,1,0,0:0:0:0:
96,208,199411,1,0,0:0:0:0:
224,280,199567,1,0,0:0:0:0:
444,104,199880,5,0,0:0:0:0:
504,160,199958,1,0,0:0:0:0:
412,200,200036,1,0,0:0:0:0:
288,280,200192,1,0,0:0:0:0:
440,60,200505,5,0,0:0:0:0:
360,60,200583,1,0,0:0:0:0:
280,60,200661,1,0,0:0:0:0:
184,60,200817,2,0,B|76:64|76:64|28:164,2,200
272,60,201598,1,0,0:0:0:0:
104,184,201755,6,0,B|152:188|197:152,1,100
352,204,202067,2,0,B|306:239|258:235,1,100
460,276,202380,1,0,0:0:0:0:
488,156,202692,5,0,0:0:0:0:
452,152,202731,1,0,0:0:0:0:
416,156,202770,1,0,0:0:0:0:
384,156,202809,1,0,0:0:0:0:
356,152,202848,1,0,0:0:0:0:
324,152,202887,1,0,0:0:0:0:
296,152,202926,1,0,0:0:0:0:
264,152,202965,1,0,0:0:0:0:
240,152,203005,6,0,B|108:240,2,149.999995529652
400,32,203473,1,0,0:0:0:0:
204,88,203630,1,0,0:0:0:0:
356,292,203786,2,0,B|300:296|300:296|252:216,1,150.000005722046
460,296,204098,1,0,0:0:0:0:
340,176,204255,5,0,0:0:0:0:
292,176,204333,1,0,0:0:0:0:
340,176,204411,1,0,0:0:0:0:
388,176,204489,1,0,0:0:0:0:
340,176,204567,2,0,B|184:172,1,149.999995529652
152,164,204880,5,0,0:0:0:0:
96,164,204958,1,0,0:0:0:0:
152,164,205036,1,0,0:0:0:0:
208,164,205114,1,0,0:0:0:0:
152,164,205192,2,0,B|28:52,1,150.000005722046
88,280,205505,6,0,B|172:284,1,74.9999977648259
252,288,205661,2,0,B|332:292,1,74.9999977648259
416,304,205817,2,0,B|164:160,1,262.500010013581
404,92,206286,1,0,0:0:0:0:
200,140,206442,2,0,B|300:280,1,150.000005722046
48,192,206755,1,0,0:0:0:0:
415,195,207067,5,0,0:0:0:0:
376,193,207106,1,0,0:0:0:0:
336,193,207145,1,0,0:0:0:0:
296,193,207184,1,0,0:0:0:0:
256,193,207223,1,0,0:0:0:0:
216,194,207262,1,0,0:0:0:0:
176,194,207301,1,0,0:0:0:0:
136,193,207340,1,0,0:0:0:0:
95,194,207380,1,0,0:0:0:0:
256,192,207536,12,0,209255,0:0:0:0:
