osu file format v14

[General]
AudioFilename: Maskim - Croatian Rhapsody.mp3
AudioLeadIn: 0
PreviewTime: 137788
Countdown: 0
SampleSet: Soft
StackLeniency: 0.7
Mode: 2
LetterboxInBreaks: 1
WidescreenStoryboard: 0

[Editor]
Bookmarks: 97178
DistanceSpacing: 0.8
BeatDivisor: 4
GridSize: 4
TimelineZoom: 3.099999

[Metadata]
Title:Croatian Rhapsody
TitleUnicode:Croatian Rhapsody
Artist:Maksim Mrvica
ArtistUnicode:Maksim Mrvica
Creator:ZHSteven
Version:Hard
Source:The Piano Player
Tags:
BeatmapID:880434
BeatmapSetID:191590

[Difficulty]
HPDrainRate:5
CircleSize:3.5
OverallDifficulty:8
ApproachRate:8
SliderMultiplier:2
SliderTickRate:1

[Events]
//Background and Video events
0,0,"190328138867_996.jpg",0,0
//Break Periods
2,85503,93303
2,168003,174553
//Storyboard Layer 0 (Background)
//Storyboard Layer 1 (Fail)
//Storyboard Layer 2 (Pass)
//Storyboard Layer 3 (Foreground)
//Storyboard Sound Samples

[TimingPoints]
303,312.5,4,2,0,45,1,0
303,-133.333333333333,4,2,0,45,0,0
12786,-133.333333333333,4,2,1,40,0,0
22178,-133.333333333333,4,2,1,43,0,0
22781,-133.333333333333,4,2,1,45,0,0
27178,-133.333333333333,4,2,1,48,0,0
27778,-133.333333333333,4,2,1,50,0,0
29678,-133.333333333333,4,2,1,53,0,0
30277,-133.333333333333,4,2,1,55,0,0
31553,-100,4,2,1,60,0,0
32803,-100,4,2,1,70,0,0
33115,-100,4,2,1,60,0,0
42803,-100,4,2,1,55,0,0
51709,-100,4,2,2,60,0,0
52334,-100,4,2,1,60,0,0
52490,-100,4,2,2,45,0,0
52803,-100,4,2,1,65,0,0
70303,-100,4,2,1,60,0,0
72803,-100,4,2,1,65,0,0
80303,-100,4,2,1,55,0,0
80928,-100,4,2,1,60,0,0
81553,-100,4,2,1,65,0,0
82178,-100,4,2,1,70,0,0
82803,-100,4,2,1,75,0,0
83428,-100,4,2,0,80,0,0
84053,-100,4,2,0,85,0,0
84678,-100,4,2,0,90,0,0
85303,-100,4,2,0,95,0,1
85381,-100,4,2,1,70,0,0
105303,-100,4,2,1,65,0,0
115303,-100,4,2,1,70,0,0
115459,-100,4,2,1,65,0,0
124365,-100,4,2,2,45,0,0
124521,-100,4,2,1,65,0,0
125303,-100,4,2,1,70,0,0
132803,-100,4,2,1,55,0,0
133428,-100,4,2,1,60,0,0
134053,-100,4,2,1,65,0,0
134678,-100,4,2,1,70,0,0
134990,-100,4,2,1,65,0,0
135303,-100,4,2,1,75,0,0
135928,-100,4,2,1,80,0,0
136553,-100,4,2,1,85,0,0
137178,-100,4,2,1,90,0,0
137803,-66.6666666666667,4,2,1,95,0,1
137959,-66.6666666666667,4,2,1,70,0,0
142803,-66.6666666666667,4,2,1,80,0,1
142959,-66.6666666666667,4,2,1,70,0,0
147178,-66.6666666666667,4,2,2,60,0,0
147490,-66.6666666666667,4,2,1,60,0,0
147803,-100,4,2,1,70,0,1
147881,-100,4,2,1,30,0,1
147959,-100,4,2,1,60,0,1
148037,-100,4,2,1,30,0,1
148115,-100,4,2,1,60,0,1
148193,-100,4,2,1,30,0,1
148271,-100,4,2,1,60,0,1
148349,-100,4,2,1,30,0,1
148428,-100,4,2,1,60,0,1
148506,-100,4,2,1,30,0,1
148584,-100,4,2,1,60,0,1
148662,-100,4,2,1,30,0,1
148740,-100,4,2,1,60,0,1
148818,-100,4,2,1,30,0,1
148896,-100,4,2,1,60,0,1
148974,-100,4,2,1,30,0,1
149053,-100,4,2,1,60,0,1
150381,-100,4,2,1,30,0,1
150459,-100,4,2,1,60,0,1
150537,-100,4,2,1,30,0,1
150615,-100,4,2,1,60,0,1
150693,-100,4,2,1,30,0,1
150771,-100,4,2,1,60,0,1
150849,-100,4,2,1,30,0,1
150928,-100,4,2,1,60,0,1
151006,-100,4,2,1,30,0,1
151084,-100,4,2,1,60,0,1
151162,-100,4,2,1,30,0,1
151240,-100,4,2,1,60,0,1
151318,-100,4,2,1,30,0,1
151396,-100,4,2,1,60,0,1
151474,-100,4,2,1,30,0,1
151553,-100,4,2,1,60,0,1
152881,-100,4,2,1,30,0,1
152959,-100,4,2,1,60,0,1
153037,-100,4,2,1,30,0,1
153115,-100,4,2,1,60,0,1
153193,-100,4,2,1,30,0,1
153271,-100,4,2,1,60,0,1
153349,-100,4,2,1,30,0,1
153428,-100,4,2,1,60,0,1
153506,-100,4,2,1,30,0,1
153584,-100,4,2,1,60,0,1
153662,-100,4,2,1,30,0,1
153740,-100,4,2,1,60,0,1
153818,-100,4,2,1,30,0,1
153896,-100,4,2,1,60,0,1
153974,-100,4,2,1,30,0,1
154053,-100,4,2,1,60,0,1
154131,-100,4,2,1,30,0,1
154209,-100,4,2,1,60,0,1
154287,-100,4,2,1,30,0,1
154365,-100,4,2,1,60,0,1
154443,-100,4,2,1,30,0,1
154521,-100,4,2,1,60,0,1
154599,-100,4,2,1,30,0,1
154678,-100,4,2,1,60,0,1
154756,-100,4,2,1,30,0,1
154834,-100,4,2,1,60,0,1
154912,-100,4,2,1,30,0,1
154990,-100,4,2,1,60,0,1
155068,-100,4,2,1,30,0,1
155146,-100,4,2,1,60,0,1
155224,-100,4,2,1,30,0,1
155303,-100,4,2,1,60,0,1
155381,-100,4,2,1,30,0,1
155459,-100,4,2,1,60,0,1
155537,-100,4,2,1,30,0,1
155615,-100,4,2,1,60,0,1
155693,-100,4,2,1,30,0,1
155771,-100,4,2,1,60,0,1
155849,-100,4,2,1,30,0,1
155928,-100,4,2,1,60,0,1
156006,-100,4,2,1,30,0,1
156084,-100,4,2,1,60,0,1
156162,-100,4,2,1,30,0,1
156240,-100,4,2,1,60,0,1
156318,-100,4,2,1,30,0,1
156396,-100,4,2,1,60,0,1
156474,-100,4,2,1,30,0,1
156553,-100,4,2,1,60,0,1
157490,-100,4,2,1,60,0,0
157803,-100,4,2,1,70,0,1
157881,-100,4,2,1,30,0,1
157959,-100,4,2,1,60,0,1
158037,-100,4,2,1,30,0,1
158115,-100,4,2,1,60,0,1
158193,-100,4,2,1,30,0,1
158271,-100,4,2,1,60,0,1
158349,-100,4,2,1,30,0,1
158428,-100,4,2,1,60,0,1
158506,-100,4,2,1,30,0,1
158584,-100,4,2,1,60,0,1
158662,-100,4,2,1,30,0,1
158740,-100,4,2,1,60,0,1
158818,-100,4,2,1,30,0,1
158896,-100,4,2,1,60,0,1
158974,-100,4,2,1,30,0,1
159053,-100,4,2,1,60,0,1
159131,-100,4,2,1,30,0,1
159209,-100,4,2,1,60,0,1
159287,-100,4,2,1,30,0,1
159365,-100,4,2,1,60,0,1
159443,-100,4,2,1,30,0,1
159521,-100,4,2,1,60,0,1
159599,-100,4,2,1,30,0,1
159678,-100,4,2,1,60,0,1
159756,-100,4,2,1,30,0,1
159834,-100,4,2,1,60,0,1
159912,-100,4,2,1,30,0,1
159990,-100,4,2,1,60,0,1
160068,-100,4,2,1,30,0,1
160146,-100,4,2,1,60,0,1
160224,-100,4,2,1,30,0,1
160303,-100,4,2,1,60,0,1
160381,-100,4,2,1,30,0,1
160459,-100,4,2,1,60,0,1
160537,-100,4,2,1,30,0,1
160615,-100,4,2,1,60,0,1
160693,-100,4,2,1,30,0,1
160771,-100,4,2,1,60,0,1
160849,-100,4,2,1,30,0,1
160928,-100,4,2,1,60,0,1
161006,-100,4,2,1,30,0,1
161084,-100,4,2,1,60,0,1
161162,-100,4,2,1,30,0,1
161240,-100,4,2,1,60,0,1
161318,-100,4,2,1,30,0,1
161396,-100,4,2,1,60,0,1
161474,-100,4,2,1,30,0,1
161553,-100,4,2,1,60,0,1
162803,-100,4,2,1,60,0,1
162881,-100,4,2,1,30,0,1
162959,-100,4,2,1,60,0,1
163037,-100,4,2,1,30,0,1
163115,-100,4,2,1,60,0,1
163193,-100,4,2,1,30,0,1
163271,-100,4,2,1,60,0,1
163349,-100,4,2,1,30,0,1
163428,-100,4,2,1,60,0,1
163506,-100,4,2,1,30,0,1
163584,-100,4,2,1,60,0,1
163662,-100,4,2,1,30,0,1
163740,-100,4,2,1,60,0,1
163818,-100,4,2,1,30,0,1
163896,-100,4,2,1,60,0,1
163974,-100,4,2,1,30,0,1
164053,-100,4,2,1,60,0,1
164131,-100,4,2,1,30,0,1
164209,-100,4,2,1,60,0,1
164287,-100,4,2,1,30,0,1
164365,-100,4,2,1,60,0,1
164443,-100,4,2,1,30,0,1
164521,-100,4,2,1,60,0,1
164599,-100,4,2,1,30,0,1
164678,-100,4,2,1,60,0,1
164756,-100,4,2,1,30,0,1
164834,-100,4,2,1,60,0,1
164912,-100,4,2,1,30,0,1
164990,-100,4,2,1,60,0,1
165068,-100,4,2,1,30,0,1
165146,-100,4,2,1,60,0,1
165224,-100,4,2,1,30,0,1
165303,-100,4,2,1,60,0,1
167490,-100,4,2,1,60,0,0
167803,-100,4,2,1,70,0,1
167881,-100,4,2,1,60,0,0
175303,319.148936170213,4,2,1,55,1,0
175941,322.58064516129,4,2,1,60,1,0
176586,337.078651685393,4,2,1,65,1,0
177267,370.37037037037,4,2,1,60,1,0
178005,312.5,4,2,1,80,1,1
178005,-100,4,2,1,80,0,1
178161,-100,4,2,1,70,0,0
183005,-100,4,2,1,80,0,1
183161,-100,4,2,1,70,0,0
188005,-100,4,2,1,60,0,1
188083,-100,4,2,1,30,0,1
188161,-100,4,2,1,60,0,1
188239,-100,4,2,1,30,0,1
188317,-100,4,2,1,60,0,1
188395,-100,4,2,1,30,0,1
188473,-100,4,2,1,60,0,1
188551,-100,4,2,1,30,0,1
188630,-100,4,2,1,60,0,1
188708,-100,4,2,1,30,0,1
188786,-100,4,2,1,60,0,1
188864,-100,4,2,1,30,0,1
188942,-100,4,2,1,60,0,1
189020,-100,4,2,1,30,0,1
189098,-100,4,2,1,60,0,1
189176,-100,4,2,1,30,0,1
189255,-100,4,2,1,60,0,1
189333,-100,4,2,1,30,0,1
189411,-100,4,2,1,60,0,1
189489,-100,4,2,1,30,0,1
189567,-100,4,2,1,60,0,1
189645,-100,4,2,1,30,0,1
189723,-100,4,2,1,60,0,1
189801,-100,4,2,1,30,0,1
189880,-100,4,2,1,60,0,1
189958,-100,4,2,1,30,0,1
190036,-100,4,2,1,60,0,1
190114,-100,4,2,1,30,0,1
190192,-100,4,2,1,60,0,1
190270,-100,4,2,1,30,0,1
190348,-100,4,2,1,60,0,1
190426,-100,4,2,1,30,0,1
190505,-100,4,2,1,60,0,1
190583,-100,4,2,1,30,0,1
190661,-100,4,2,1,60,0,1
190739,-100,4,2,1,30,0,1
190817,-100,4,2,1,60,0,1
190895,-100,4,2,1,30,0,1
190973,-100,4,2,1,60,0,1
191051,-100,4,2,1,30,0,1
191130,-100,4,2,1,60,0,1
191208,-100,4,2,1,30,0,1
191286,-100,4,2,1,60,0,1
191364,-100,4,2,1,30,0,1
191442,-100,4,2,1,60,0,1
191520,-100,4,2,1,30,0,1
191598,-100,4,2,1,60,0,1
191676,-100,4,2,1,30,0,1
191755,-100,4,2,1,60,0,1
193083,-100,4,2,1,30,0,1
193161,-100,4,2,1,60,0,1
193239,-100,4,2,1,30,0,1
193317,-100,4,2,1,60,0,1
193395,-100,4,2,1,30,0,1
193473,-100,4,2,1,60,0,1
193551,-100,4,2,1,30,0,1
193630,-100,4,2,1,60,0,1
193708,-100,4,2,1,30,0,1
193786,-100,4,2,1,60,0,1
193864,-100,4,2,1,30,0,1
193942,-100,4,2,1,60,0,1
194020,-100,4,2,1,30,0,1
194098,-100,4,2,1,60,0,1
194176,-100,4,2,1,30,0,1
194255,-100,4,2,1,60,0,1
194333,-100,4,2,1,30,0,1
194411,-100,4,2,1,60,0,1
194489,-100,4,2,1,30,0,1
194567,-100,4,2,1,60,0,1
194645,-100,4,2,1,30,0,1
194723,-100,4,2,1,60,0,1
194801,-100,4,2,1,30,0,1
194880,-100,4,2,1,60,0,1
194958,-100,4,2,1,30,0,1
195036,-100,4,2,1,60,0,1
195114,-100,4,2,1,30,0,1
195192,-100,4,2,1,60,0,1
195270,-100,4,2,1,30,0,1
195348,-100,4,2,1,60,0,1
195426,-100,4,2,1,30,0,1
195505,-100,4,2,1,60,0,1
195583,-100,4,2,1,30,0,1
195661,-100,4,2,1,60,0,1
195739,-100,4,2,1,30,0,1
195817,-100,4,2,1,60,0,1
195895,-100,4,2,1,30,0,1
195973,-100,4,2,1,60,0,1
196051,-100,4,2,1,30,0,1
196130,-100,4,2,1,60,0,1
196208,-100,4,2,1,30,0,1
196286,-100,4,2,1,60,0,1
196364,-100,4,2,1,30,0,1
196442,-100,4,2,1,60,0,1
196520,-100,4,2,1,30,0,1
196598,-100,4,2,1,60,0,1
196676,-100,4,2,1,30,0,1
196755,-100,4,2,1,60,0,1
197380,-100,4,2,1,60,0,0
198005,-100,4,2,1,70,0,1
198161,-100,4,2,1,60,0,0
200505,-100,4,2,1,60,0,0
203005,-100,4,2,1,70,0,1
203161,-100,4,2,1,60,0,0
205817,-100,4,2,0,60,0,0
206442,-100,4,2,0,65,0,0
206755,-100,4,2,0,70,0,0
207067,-100,4,2,0,75,0,0
207380,-100,4,2,0,85,0,0
207419,-100,4,2,0,35,0,0
207692,-100,4,2,0,30,0,0
208005,-100,4,2,0,25,0,0
208317,-100,4,2,0,20,0,0
208630,-100,4,2,0,15,0,0
208942,-100,4,1,0,10,0,0

[Colours]
Combo1 : 147,147,255
Combo2 : 234,117,0
Combo3 : 124,87,223
Combo4 : 247,247,0

[HitObjects]
144,96,2803,5,2,0:0:0:0:
84,228,3115,1,0,0:0:0:0:
368,112,4053,5,2,0:0:0:0:
312,232,4365,1,0,0:0:0:0:
108,288,5303,5,2,0:0:0:0:
356,228,5928,1,2,0:0:0:0:
208,156,6553,1,0,0:0:0:0:
160,132,6865,1,2,0:0:0:0:
104,112,7178,1,0,0:0:0:0:
80,164,7803,5,2,0:0:0:0:
168,172,8115,2,0,B|224:108|224:108|276:68|276:68|124:64,1,300.000011444092,0|2,0:0|0:0,0:0:0:0:
280,56,9053,1,2,0:0:0:0:
192,160,9365,2,0,B|136:96|136:96|84:56|84:56|236:52,1,300.000011444092,0|2,0:0|0:0,0:0:0:0:
344,216,10303,1,2,0:0:0:0:
160,228,10928,1,2,0:0:0:0:
348,132,11553,2,0,B|284:128|284:128|444:128|444:128|336:132|336:132,1,300.000011444092,0|0,0:0|0:0,0:0:0:0:
100,120,12803,5,8,0:0:0:0:
352,132,13428,1,2,0:0:0:0:
92,108,14053,1,8,0:0:0:0:
164,180,14365,1,0,0:0:0:0:
256,200,14678,1,2,0:0:0:0:
416,88,15303,5,2,0:0:0:0:
212,96,15928,1,2,0:0:0:0:
416,88,16553,1,2,0:0:0:0:
356,184,16865,1,0,0:0:0:0:
248,192,17178,2,0,B|160:132|160:132|216:64|216:64|252:64|252:64|324:68,1,300.000011444092,2|2,0:0|0:0,0:0:0:0:
108,64,18428,1,2,0:0:0:0:
324,60,19053,1,2,0:0:0:0:
248,144,19365,1,0,0:0:0:0:
144,200,19678,2,0,B|180:276|180:276|272:216|272:216|348:292,1,300.000011444092,2|2,0:0|0:0,0:0:0:0:
152,112,20928,5,2,0:0:0:0:
296,232,21553,2,0,B|316:76|316:76,1,150.000005722046,0|0,0:0|0:0,0:0:0:0:
180,88,22178,5,2,0:0:0:0:
156,20,22803,2,0,L|63:138,1,150.000005722046,2|0,0:0|0:0,0:0:0:0:
264,32,23428,2,0,L|168:148,1,150.000005722046,8|0,0:0|0:0,0:0:0:0:
316,140,24053,5,2,0:0:0:0:
232,144,24365,2,0,L|332:256,1,150.000005722046,0|8,0:0|0:0,0:0:0:0:
136,160,24990,2,0,L|244:280,1,150.000005722046,0|2,0:0|0:0,0:0:0:0:
432,176,25928,1,8,0:0:0:0:
140,80,26553,2,8,B|224:112|224:112|224:204,1,150.000005722046,2|0,0:0|0:0,0:0:0:0:
136,176,27178,1,8,0:0:0:0:
476,136,27803,6,0,B|468:60|468:60|360:64,1,150.000005722046,2|0,0:0|0:0,0:0:0:0:
328,172,28428,2,0,B|264:212|264:212|192:172,1,150.000005722046,8|0,0:0|0:0,0:0:0:0:
100,160,29053,2,0,B|136:52|204:28,1,150.000005722046,2|0,0:0|0:0,0:0:0:0:
264,44,29678,1,8,0:0:0:0:
100,160,30303,6,0,B|172:132|236:204,1,149.999995529652,2|0,0:0|0:0,0:0:0:0:
316,196,30928,1,8,0:0:0:0:
208,200,31240,2,8,B|168:136|168:136|176:212|228:144,1,150.000005722046,0|2,0:0|0:0,0:0:0:0:
312,152,31865,1,0,0:0:0:0:
408,112,32178,1,2,0:0:0:0:
316,88,32334,1,2,0:0:0:0:
224,88,32490,1,2,0:0:0:0:
172,92,32646,1,2,0:0:0:0:
92,248,32803,6,0,B|192:148,1,100,4|0,0:0|0:0,0:0:0:0:
216,128,33115,1,0,0:0:0:0:
264,88,33271,1,0,0:0:0:0:
216,248,33428,6,0,B|316:148,1,100,8|0,0:0|0:0,0:0:0:0:
384,136,33740,1,0,0:0:0:0:
384,72,33896,1,0,0:0:0:0:
452,260,34053,6,0,B|352:160,1,100,2|2,0:0|0:0,0:0:0:0:
328,128,34365,1,0,0:0:0:0:
244,108,34521,1,0,0:0:0:0:
288,240,34678,6,0,B|188:140,1,100,8|0,0:0|0:0,0:0:0:0:
136,152,34990,1,0,0:0:0:0:
132,80,35146,1,0,0:0:0:0:
56,264,35303,6,0,B|136:180,1,100,2|0,0:0|0:0,0:0:0:0:
216,180,35615,2,0,B|284:104,2,100,0|0|8,0:0|0:0|0:0,0:0:0:0:
128,176,36240,1,0,0:0:0:0:
128,176,36396,1,0,0:0:0:0:
232,176,36552,5,2,0:0:0:0:
340,176,36865,1,0,0:0:0:0:
152,176,37178,1,8,0:0:0:0:
152,176,37334,1,0,0:0:0:0:
208,172,37490,1,0,0:0:0:0:
152,176,37646,1,0,0:0:0:0:
260,176,37803,6,0,B|180:92,1,100,2|0,0:0|0:0,0:0:0:0:
104,124,38115,1,0,0:0:0:0:
68,204,38271,1,0,0:0:0:0:
156,244,38428,2,0,B|228:176,1,100,8|0,0:0|0:0,0:0:0:0:
344,124,38740,1,0,0:0:0:0:
340,196,38896,1,0,0:0:0:0:
248,200,39053,6,0,B|324:120,1,100,2|0,0:0|0:0,0:0:0:0:
408,132,39365,1,0,0:0:0:0:
464,188,39521,1,0,0:0:0:0:
360,240,39678,2,0,B|288:172,1,100,8|0,0:0|0:0,0:0:0:0:
212,128,39990,1,0,0:0:0:0:
184,184,40146,1,0,0:0:0:0:
216,252,40303,5,2,0:0:0:0:
140,240,40459,1,0,0:0:0:0:
64,212,40615,2,0,B|120:112,1,100,0|0,0:0|0:0,0:0:0:0:
220,124,40928,1,8,0:0:0:0:
308,160,41240,1,0,0:0:0:0:
272,208,41396,1,0,0:0:0:0:
348,240,41553,6,0,B|404:226|412:168,1,100,2|0,0:0|0:0,0:0:0:0:
320,116,41865,2,0,B|312:170|256:184,1,100,0|0,0:0|0:0,0:0:0:0:
168,180,42178,5,8,0:0:0:0:
56,64,42490,1,2,0:0:0:0:
60,120,42646,1,0,0:0:0:0:
92,156,42803,6,0,L|164:236,1,100,2|0,0:0|0:0,0:0:0:0:
220,232,43115,2,0,L|296:156,1,100,0|0,0:0|0:0,0:0:0:0:
359,233,43428,2,0,L|271:141,1,100,8|0,0:0|0:0,0:0:0:0:
232,156,43740,2,0,L|144:236,1,100,0|0,0:0|0:0,0:0:0:0:
87,158,44053,6,0,B|43:26,1,100,2|0,0:0|0:0,0:0:0:0:
148,156,44365,2,0,B|200:64,1,100,0|0,0:0|0:0,0:0:0:0:
280,156,44678,2,0,B|368:96,1,100,8|0,0:0|0:0,0:0:0:0:
440,184,44990,2,0,B|341:180,1,100,0|0,0:0|0:0,0:0:0:0:
272,176,45303,6,0,L|200:256,1,100,2|0,0:0|0:0,0:0:0:0:
136,232,45615,2,0,L|216:152,1,100,0|0,0:0|0:0,0:0:0:0:
144,136,45928,2,0,L|74:208,1,100,8|0,0:0|0:0,0:0:0:0:
172,216,46240,2,0,L|252:304,1,100,0|0,0:0|0:0,0:0:0:0:
352,80,46553,6,0,B|260:20,1,100,2|0,0:0|0:0,0:0:0:0:
192,144,46865,2,0,B|136:48,1,100,0|0,0:0|0:0,0:0:0:0:
64,200,47178,2,0,B|76:68,1,100,8|0,0:0|0:0,0:0:0:0:
176,116,47490,2,0,B|252:28,1,100,0|0,0:0|0:0,0:0:0:0:
156,212,47803,6,0,B|72:108,2,100,2|0|0,0:0|0:0|0:0,0:0:0:0:
256,220,48272,1,0,0:0:0:0:
340,224,48428,2,0,B|416:324,2,100,8|0|0,0:0|0:0|0:0,0:0:0:0:
256,220,48896,5,0,0:0:0:0:
168,216,49051,1,0,0:0:0:0:
108,136,49209,1,0,0:0:0:0:
216,216,49365,1,0,0:0:0:0:
156,136,49521,1,0,0:0:0:0:
276,216,49678,1,8,0:0:0:0:
212,136,49834,1,0,0:0:0:0:
328,212,49990,1,0,0:0:0:0:
264,136,50146,1,0,0:0:0:0:
400,132,50303,6,0,B|460:152|460:152|460:308,1,200,2|0,0:0|0:0,0:0:0:0:
212,288,50928,2,0,B|144:288|144:288|148:140,1,200,8|0,0:0|0:0,0:0:0:0:
336,152,51553,5,2,0:0:0:0:
147,156,51865,1,0,0:0:0:0:
380,152,52178,1,0,0:0:0:0:
208,124,52803,5,2,0:0:0:0:
312,200,52959,1,0,0:0:0:0:
288,156,53115,1,0,0:0:0:0:
244,116,53272,1,0,0:0:0:0:
120,120,53428,5,8,0:0:0:0:
28,196,53584,1,0,0:0:0:0:
72,152,53740,1,0,0:0:0:0:
128,108,53897,1,0,0:0:0:0:
240,64,54053,5,2,0:0:0:0:
288,120,54209,1,0,0:0:0:0:
168,60,54365,1,0,0:0:0:0:
120,116,54521,1,0,0:0:0:0:
248,100,54678,1,8,0:0:0:0:
304,148,54834,1,0,0:0:0:0:
180,148,54990,1,0,0:0:0:0:
144,200,55146,1,0,0:0:0:0:
256,176,55303,5,2,0:0:0:0:
152,252,55459,1,0,0:0:0:0:
176,204,55615,1,0,0:0:0:0:
220,168,55772,1,0,0:0:0:0:
312,132,55928,5,8,0:0:0:0:
408,208,56084,1,0,0:0:0:0:
372,164,56240,1,0,0:0:0:0:
304,120,56397,1,0,0:0:0:0:
236,208,56553,6,0,B|278:118,1,100,2|0,0:0|0:0,0:0:0:0:
376,208,56865,2,0,B|332:116,1,100,0|0,0:0|0:0,0:0:0:0:
240,128,57178,2,0,B|312:216,1,100,8|0,0:0|0:0,0:0:0:0:
376,112,57490,1,0,0:0:0:0:
284,112,57646,1,0,0:0:0:0:
200,240,57803,6,0,B|288:244|288:244|324:132,1,200,2|0,0:0|0:0,0:0:0:0:
236,88,58271,1,0,0:0:0:0:
156,184,58428,6,0,B|247:182|247:182|294:84,1,200,8|0,0:0|0:0,0:0:0:0:
148,96,58896,1,0,0:0:0:0:
56,184,59053,5,2,0:0:0:0:
152,168,59209,1,0,0:0:0:0:
220,112,59365,1,0,0:0:0:0:
124,104,59521,1,0,0:0:0:0:
72,192,59678,5,8,0:0:0:0:
168,252,59834,1,0,0:0:0:0:
92,228,59990,1,0,0:0:0:0:
184,192,60146,1,2,0:0:0:0:
264,244,60303,6,0,B|376:172,1,100,2|0,0:0|0:0,0:0:0:0:
248,144,60615,2,0,B|244:260,1,100,0|0,0:0|0:0,0:0:0:0:
140,216,60928,2,2,B|208:132,1,100,8|0,0:0|0:0,0:0:0:0:
304,124,61240,2,0,B|229:59,1,100,0|0,0:0|0:0,0:0:0:0:
124,64,61553,5,2,0:0:0:0:
320,48,61865,1,0,0:0:0:0:
232,124,62178,1,8,0:0:0:0:
132,236,62490,1,0,0:0:0:0:
132,236,62646,1,0,0:0:0:0:
248,244,62803,5,6,0:0:0:0:
160,176,62959,1,0,0:0:0:0:
244,136,63115,2,0,L|328:52,1,100,0|0,0:0|0:0,0:0:0:0:
412,72,63428,1,8,0:0:0:0:
472,144,63584,1,0,0:0:0:0:
368,204,63740,2,0,L|292:128,1,100,0|0,0:0|0:0,0:0:0:0:
192,144,64053,6,0,B|192:272,1,100,2|0,0:0|0:0,0:0:0:0:
88,216,64365,2,0,B|166:153,1,100,0|0,0:0|0:0,0:0:0:0:
72,128,64678,2,0,B|68:240,1,100,8|0,0:0|0:0,0:0:0:0:
192,144,64990,2,0,B|272:208,1,100,0|0,0:0|0:0,0:0:0:0:
412,84,65303,5,2,0:0:0:0:
352,184,65459,1,0,0:0:0:0:
260,248,65615,2,0,L|156:176,1,100,0|0,0:0|0:0,0:0:0:0:
80,120,65928,1,8,0:0:0:0:
152,180,66084,2,0,L|216:268,1,100,0|0,0:0|0:0,0:0:0:0:
348,256,66396,1,0,0:0:0:0:
304,156,66553,6,0,B|204:88,1,100,2|0,0:0|0:0,0:0:0:0:
304,156,66865,2,0,B|304:24,1,100,0|0,0:0|0:0,0:0:0:0:
196,136,67178,2,0,B|272:56,1,100,8|0,0:0|0:0,0:0:0:0:
156,136,67490,2,0,B|160:32,1,100,0|0,0:0|0:0,0:0:0:0:
268,136,67803,6,2,B|184:188|184:188|112:112,1,200,2|0,0:0|0:0,0:0:0:0:
184,52,68271,1,0,0:0:0:0:
268,224,68428,2,0,B|228:116,1,100,8|0,0:0|0:0,0:0:0:0:
140,208,68740,1,0,0:0:0:0:
56,144,68896,1,0,0:0:0:0:
184,76,69053,6,2,B|280:88|280:88|324:200,1,200,2|0,0:0|0:0,0:0:0:0:
212,80,69678,1,8,0:0:0:0:
140,160,69990,1,0,0:0:0:0:
268,176,70303,5,2,0:0:0:0:
44,204,70615,1,2,0:0:0:0:
348,176,70928,1,8,0:0:0:0:
280,248,71240,2,0,B|224:172|224:172|324:84,1,200,0|2,0:0|0:0,0:0:0:0:
164,100,71865,1,2,0:0:0:0:
352,72,72178,1,8,0:0:0:0:
468,104,72803,6,0,B|392:188,1,100,2|0,0:0|0:0,0:0:0:0:
304,212,73115,1,0,0:0:0:0:
216,140,73271,1,0,0:0:0:0:
104,136,73428,2,0,B|188:72,1,100,8|0,0:0|0:0,0:0:0:0:
284,68,73740,1,0,0:0:0:0:
176,64,73896,1,0,0:0:0:0:
240,144,74053,5,2,0:0:0:0:
184,208,74209,1,0,0:0:0:0:
272,220,74365,1,2,0:0:0:0:
316,276,74521,1,0,0:0:0:0:
200,280,74678,1,8,0:0:0:0:
176,196,74834,1,0,0:0:0:0:
316,184,74990,1,2,0:0:0:0:
364,272,75146,1,0,0:0:0:0:
232,148,75303,5,2,0:0:0:0:
192,144,75459,1,0,0:0:0:0:
232,84,75615,1,0,0:0:0:0:
324,144,75771,1,0,0:0:0:0:
320,64,75928,2,0,B|396:172,1,100,2|0,0:0|0:0,0:0:0:0:
256,176,76240,2,0,B|208:80,1,100,0|0,0:0|0:0,0:0:0:0:
96,116,76553,5,2,0:0:0:0:
188,172,76709,1,0,0:0:0:0:
284,120,76865,1,2,0:0:0:0:
368,192,77021,1,0,0:0:0:0:
252,272,77178,1,8,0:0:0:0:
204,196,77334,1,0,0:0:0:0:
296,160,77490,1,2,0:0:0:0:
208,100,77646,1,0,0:0:0:0:
352,68,77803,5,2,0:0:0:0:
300,128,77959,1,0,0:0:0:0:
192,72,78115,1,0,0:0:0:0:
284,80,78271,1,0,0:0:0:0:
196,160,78428,1,8,0:0:0:0:
116,224,78584,1,0,0:0:0:0:
240,164,78740,1,0,0:0:0:0:
132,120,78896,1,0,0:0:0:0:
196,144,79053,6,0,B|234:162|234:162|248:248,1,100,2|0,0:0|0:0,0:0:0:0:
320,220,79365,2,0,B|358:202|358:202|372:140,1,100,0|0,0:0|0:0,0:0:0:0:
484,152,79678,2,0,B|446:170|446:170|376:200,1,100,8|0,0:0|0:0,0:0:0:0:
296,216,79990,1,0,0:0:0:0:
256,144,80146,1,0,0:0:0:0:
172,224,80303,5,2,0:0:0:0:
172,296,80459,1,0,0:0:0:0:
248,296,80615,1,0,0:0:0:0:
192,292,80771,1,0,0:0:0:0:
92,288,80928,5,8,0:0:0:0:
204,260,81084,1,0,0:0:0:0:
200,192,81240,1,0,0:0:0:0:
96,140,81396,1,0,0:0:0:0:
208,108,81553,5,2,0:0:0:0:
288,56,81709,1,0,0:0:0:0:
224,136,81865,1,0,0:0:0:0:
148,200,82021,1,0,0:0:0:0:
284,136,82178,5,8,0:0:0:0:
304,216,82334,1,0,0:0:0:0:
184,192,82490,1,0,0:0:0:0:
256,124,82646,1,0,0:0:0:0:
144,68,82803,5,2,0:0:0:0:
80,128,82959,1,0,0:0:0:0:
152,168,83115,1,0,0:0:0:0:
260,176,83271,1,0,0:0:0:0:
388,168,83428,5,2,0:0:0:0:
388,248,83584,1,0,0:0:0:0:
288,220,83740,1,0,0:0:0:0:
208,136,83896,1,0,0:0:0:0:
80,156,84053,5,2,0:0:0:0:
188,184,84209,1,0,0:0:0:0:
120,224,84365,1,0,0:0:0:0:
240,108,84521,1,0,0:0:0:0:
372,84,84678,5,2,0:0:0:0:
280,184,84834,1,0,0:0:0:0:
384,176,84990,1,0,0:0:0:0:
272,96,85146,1,0,0:0:0:0:
120,188,85303,5,2,0:0:0:0:
144,196,94053,6,0,B|304:48|304:48|432:136|432:136|480:192,1,400,0|8,0:0|0:0,0:0:0:0:
284,208,94990,1,0,0:0:0:0:
196,256,95146,1,0,0:0:0:0:
108,308,95303,6,0,B|20:304|20:304|116:236,1,200,4|0,0:0|0:0,0:0:0:0:
336,308,95928,2,0,B|412:256|412:256|340:132,1,200,8|2,0:0|0:0,0:0:0:0:
236,172,96553,2,0,L|156:256,2,100,2|0|0,0:0|0:0|0:0,0:0:0:0:
336,108,97178,2,0,L|425:63,2,100,8|0|0,0:0|0:0|0:0,0:0:0:0:
184,212,97803,6,0,B|236:112,1,100,2|0,0:0|0:0,0:0:0:0:
336,116,98115,1,0,0:0:0:0:
336,116,98428,1,8,0:0:0:0:
192,232,98740,6,0,B|232:108,1,100,0|0,0:0|0:0,0:0:0:0:
120,128,99053,1,2,0:0:0:0:
264,76,99365,1,0,0:0:0:0:
356,132,99521,1,0,0:0:0:0:
256,160,99678,1,8,0:0:0:0:
288,248,100303,6,0,B|324:268|344:328,1,100,2|0,0:0|0:0,0:0:0:0:
304,156,100615,1,0,0:0:0:0:
172,212,100928,2,0,B|136:232|80:172,1,100,8|0,0:0|0:0,0:0:0:0:
176,108,101240,1,0,0:0:0:0:
288,196,101553,6,0,B|288:96,1,100,2|0,0:0|0:0,0:0:0:0:
288,196,101865,1,0,0:0:0:0:
420,192,102178,2,0,B|344:120,2,100,8|0|0,0:0|0:0|0:0,0:0:0:0:
252,204,102803,6,0,B|212:244|212:244|124:252,1,100,2|0,0:0|0:0,0:0:0:0:
64,172,103115,1,0,0:0:0:0:
264,136,103428,1,8,0:0:0:0:
264,136,103740,2,0,L|339:70,1,100,0|0,0:0|0:0,0:0:0:0:
264,136,104053,5,2,0:0:0:0:
96,200,104365,2,0,B|188:276,1,100,2|0,0:0|0:0,0:0:0:0:
279,247,104678,2,0,B|339:179|339:179|339:67,1,200,8|2,0:0|0:0,0:0:0:0:
124,136,105303,6,0,L|52:212,2,100,2|0|0,0:0|0:0|0:0,0:0:0:0:
312,128,105928,1,8,0:0:0:0:
124,136,106240,1,0,0:0:0:0:
236,132,106396,1,0,0:0:0:0:
340,140,106553,6,0,L|428:240,2,100,2|0|0,0:0|0:0|0:0,0:0:0:0:
144,136,107178,1,8,0:0:0:0:
340,140,107490,1,0,0:0:0:0:
448,136,107646,1,0,0:0:0:0:
340,140,107803,6,0,B|312:168|268:232,1,100,2|0,0:0|0:0,0:0:0:0:
188,244,108115,1,0,0:0:0:0:
0,176,108428,1,8,0:0:0:0:
176,132,108740,2,0,B|260:64,1,100,0|0,0:0|0:0,0:0:0:0:
344,64,109053,1,2,0:0:0:0:
124,208,109365,2,0,L|44:132,2,100,2|0|8,0:0|0:0|0:0,0:0:0:0:
248,156,109990,1,0,0:0:0:0:
388,136,110303,6,0,L|460:212,2,100,2|0|0,0:0|0:0|0:0,0:0:0:0:
200,128,110928,1,8,0:0:0:0:
388,136,111240,1,0,0:0:0:0:
276,132,111396,1,0,0:0:0:0:
172,140,111553,6,0,L|84:240,2,100,2|0|0,0:0|0:0|0:0,0:0:0:0:
368,136,112178,5,8,0:0:0:0:
172,140,112490,1,0,0:0:0:0:
64,128,112646,1,0,0:0:0:0:
172,140,112803,6,0,B|200:168|244:232,1,100,2|0,0:0|0:0,0:0:0:0:
324,244,113115,1,2,0:0:0:0:
512,176,113428,1,8,0:0:0:0:
336,132,113740,2,0,B|252:64,1,100,0|0,0:0|0:0,0:0:0:0:
168,64,114053,1,2,0:0:0:0:
388,208,114365,2,0,L|468:132,2,100,2|0|8,0:0|0:0|0:0,0:0:0:0:
212,212,114990,2,0,L|152:128,1,100,0|0,0:0|0:0,0:0:0:0:
52,120,115303,5,4,0:0:0:0:
153,130,115459,1,0,0:0:0:0:
216,180,115615,1,0,0:0:0:0:
252,240,115771,1,0,0:0:0:0:
336,160,115928,5,8,0:0:0:0:
232,160,116084,1,0,0:0:0:0:
176,200,116240,1,0,0:0:0:0:
88,240,116396,1,0,0:0:0:0:
0,128,116553,6,0,B|84:52,1,100,2|0,0:0|0:0,0:0:0:0:
172,108,116865,2,0,B|80:180,1,100,2|0,0:0|0:0,0:0:0:0:
176,212,117178,2,0,B|280:296,1,100,8|0,0:0|0:0,0:0:0:0:
364,208,117490,2,0,B|356:312,1,100,0|0,0:0|0:0,0:0:0:0:
460,120,117803,5,2,0:0:0:0:
359,130,117959,1,0,0:0:0:0:
296,180,118115,1,0,0:0:0:0:
260,240,118271,1,0,0:0:0:0:
176,160,118428,5,8,0:0:0:0:
280,160,118584,1,0,0:0:0:0:
336,200,118740,1,0,0:0:0:0:
424,240,118896,1,0,0:0:0:0:
512,128,119053,6,0,B|428:52,1,100,2|0,0:0|0:0,0:0:0:0:
340,108,119365,2,0,B|432:180,1,100,2|0,0:0|0:0,0:0:0:0:
336,212,119678,2,0,B|232:296,1,100,8|0,0:0|0:0,0:0:0:0:
263,215,119990,2,0,B|164:212,1,100,0|0,0:0|0:0,0:0:0:0:
76,80,120303,5,2,0:0:0:0:
0,140,120459,1,0,0:0:0:0:
96,184,120615,1,0,0:0:0:0:
164,212,120771,1,0,0:0:0:0:
292,112,120928,5,8,0:0:0:0:
352,184,121084,1,0,0:0:0:0:
272,228,121240,1,0,0:0:0:0:
148,248,121396,1,0,0:0:0:0:
72,192,121553,6,0,B|152:120,1,100,2|0,0:0|0:0,0:0:0:0:
228,128,121865,2,0,B|164:204,1,100,2|0,0:0|0:0,0:0:0:0:
72,192,122178,2,0,B|128:84,1,100,8|0,0:0|0:0,0:0:0:0:
240,92,122490,1,0,0:0:0:0:
320,148,122646,1,0,0:0:0:0:
188,144,122803,5,2,0:0:0:0:
320,148,123115,1,0,0:0:0:0:
120,112,123428,1,8,0:0:0:0:
228,184,123740,1,0,0:0:0:0:
384,244,124053,5,2,0:0:0:0:
200,200,124365,2,0,B|200:256,2,50,4|0|0,0:0|0:0|0:0,0:0:0:0:
364,124,124678,1,8,0:0:0:0:
272,132,125303,6,0,B|152:132|152:132|152:224,1,200,6|0,0:0|0:0,0:0:0:0:
208,224,125772,1,0,0:0:0:0:
320,216,125928,2,0,B|320:136|320:136|192:132,1,200,8|0,0:0|0:0,0:0:0:0:
104,136,126396,1,0,0:0:0:0:
216,128,126553,6,0,B|348:64,1,100,2|0,0:0|0:0,0:0:0:0:
408,124,126865,2,0,L|296:176,1,100,0|0,0:0|0:0,0:0:0:0:
260,240,127178,2,4,B|356:188,1,100,8|0,0:0|0:0,0:0:0:0:
216,112,127490,1,0,0:0:0:0:
220,196,127646,1,0,0:0:0:0:
108,112,127803,2,0,B|4:200,2,100,2|0|0,0:0|0:0|0:0,0:0:0:0:
216,128,128271,1,0,0:0:0:0:
108,112,128428,2,0,B|192:196,1,100,8|0,0:0|0:0,0:0:0:0:
316,180,128740,2,0,B|412:104,1,100,0|0,0:0|0:0,0:0:0:0:
316,180,129053,6,4,B|246:107,1,100,2|0,0:0|0:0,0:0:0:0:
132,152,129365,2,0,B|59:220,1,100,2|0,0:0|0:0,0:0:0:0:
168,240,129678,2,0,L|288:192,1,100,8|0,0:0|0:0,0:0:0:0:
356,196,129990,6,0,B|408:100,1,100,0|0,0:0|0:0,0:0:0:0:
312,104,130303,1,2,0:0:0:0:
224,112,130459,6,0,B|148:32,2,100,0|0|0,0:0|0:0|0:0,0:0:0:0:
312,104,130928,1,8,0:0:0:0:
296,232,131084,2,0,L|388:188,1,100,0|0,0:0|0:0,0:0:0:0:
440,120,131396,1,0,0:0:0:0:
348,112,131553,2,0,L|260:160,1,100,2|0,0:0|0:0,0:0:0:0:
156,188,131865,2,0,L|200:76,1,100,0|0,0:0|0:0,0:0:0:0:
268,96,132178,2,0,B|300:57,3,50,8|0|0|0,0:0|0:0|0:0|0:0,0:0:0:0:
320,84,132490,2,0,B|352:45,3,50,0|0|0|0,0:0|0:0|0:0|0:0,0:0:0:0:
396,48,132803,1,2,0:0:0:0:
256,192,132959,12,0,134053,0:0:0:0:
312,176,134365,5,0,0:0:0:0:
316,80,134521,1,0,0:0:0:0:
216,84,134678,5,8,0:0:0:0:
216,176,134834,1,0,0:0:0:0:
120,180,134990,1,0,0:0:0:0:
256,192,135303,12,0,137490,0:0:0:0:
160,181,137803,5,2,0:0:0:0:
160,181,137881,1,0,0:0:0:0:
160,181,137959,1,0,0:0:0:0:
256,184,138115,2,0,B|256:24,1,150.000005722046,0|0,0:0|0:0,0:0:0:0:
316,176,138428,5,8,0:0:0:0:
316,176,138506,1,0,0:0:0:0:
316,176,138584,1,0,0:0:0:0:
204,180,138740,2,0,B|200:8,1,150.000005722046,0|0,0:0|0:0,0:0:0:0:
320,172,139053,5,2,0:0:0:0:
320,172,139131,1,0,0:0:0:0:
320,172,139209,1,0,0:0:0:0:
408,180,139365,2,0,B|344:204|344:204|312:116,1,150.000005722046,0|0,0:0|0:0,0:0:0:0:
232,136,139678,5,8,0:0:0:0:
232,136,139756,1,0,0:0:0:0:
232,136,139834,1,0,0:0:0:0:
156,64,139990,2,0,B|220:88|220:88|276:160,1,150.000005722046,0|0,0:0|0:0,0:0:0:0:
344,264,140303,5,2,0:0:0:0:
308,224,140381,1,0,0:0:0:0:
308,160,140459,1,0,0:0:0:0:
392,96,140615,1,0,0:0:0:0:
248,88,140928,5,8,0:0:0:0:
136,212,141240,6,0,B|114:157|114:157|160:76,1,150.000005722046,0|0,0:0|0:0,0:0:0:0:
268,76,141553,5,2,0:0:0:0:
268,76,141709,1,0,0:0:0:0:
376,80,141865,2,0,B|416:127|416:127|344:212,1,150.000005722046,0|0,0:0|0:0,0:0:0:0:
236,300,142178,6,0,B|120:16,2,300.000011444092,8|0|2,0:0|0:0|0:0,0:0:0:0:
236,300,142881,1,0,0:0:0:0:
236,300,142959,1,0,0:0:0:0:
324,216,143115,1,0,0:0:0:0:
240,148,143271,1,2,0:0:0:0:
132,144,143428,5,8,0:0:0:0:
120,96,143506,1,0,0:0:0:0:
108,52,143584,1,0,0:0:0:0:
232,172,143740,1,2,0:0:0:0:
320,120,143896,1,0,0:0:0:0:
424,76,144053,5,2,0:0:0:0:
424,100,144131,1,0,0:0:0:0:
424,120,144209,1,0,0:0:0:0:
336,232,144365,1,0,0:0:0:0:
272,180,144521,1,2,0:0:0:0:
160,192,144678,5,8,0:0:0:0:
132,220,144756,1,0,0:0:0:0:
168,256,144834,1,0,0:0:0:0:
284,252,144990,1,2,0:0:0:0:
356,180,145146,1,0,0:0:0:0:
264,148,145303,6,0,B|192:16,2,150.000005722046,2|0|0,0:0|0:0|0:0,0:0:0:0:
404,144,145928,1,8,0:0:0:0:
264,204,146240,2,0,B|168:328,1,150.000005722046,0|0,0:0|0:0,0:0:0:0:
212,92,146553,5,2,0:0:0:0:
212,92,146709,1,0,0:0:0:0:
104,108,146865,2,0,B|61:156|61:156|117:220,1,150.000005722046,2|0,0:0|0:0,0:0:0:0:
216,172,147178,5,4,0:0:0:0:
172,72,147334,1,0,0:0:0:0:
164,72,147412,1,0,0:0:0:0:
168,80,147490,1,2,0:0:0:0:
256,88,147646,1,0,0:0:0:0:
152,224,147803,6,0,B|228:120,1,100,6|0,0:0|0:0,0:0:0:0:
288,228,148115,2,0,B|220:132,1,100,0|0,0:0|0:0,0:0:0:0:
152,224,148428,6,0,B|228:120,1,100,8|0,0:0|0:0,0:0:0:0:
288,228,148740,2,0,B|220:132,1,100,0|0,0:0|0:0,0:0:0:0:
148,140,149053,2,0,L|76:60,1,100,2|0,0:0|0:0,0:0:0:0:
196,136,149365,2,0,L|268:40,1,100,0|0,0:0|0:0,0:0:0:0:
148,140,149678,2,0,L|76:60,1,100,8|0,0:0|0:0,0:0:0:0:
196,136,149990,2,0,L|268:40,1,100,2|0,0:0|0:0,0:0:0:0:
380,168,150303,6,0,B|376:50,1,100,2|0,0:0|0:0,0:0:0:0:
256,168,150615,2,0,B|256:60,1,100,2|0,0:0|0:0,0:0:0:0:
136,164,150928,6,0,B|132:24,1,100,8|0,0:0|0:0,0:0:0:0:
20,80,151240,2,0,B|20:188,1,100,2|0,0:0|0:0,0:0:0:0:
152,188,151553,6,0,B|268:144,1,100,0|0,0:0|0:0,0:0:0:0:
360,156,151865,2,0,B|272:64,2,100,0|0|8,0:0|0:0|0:0,0:0:0:0:
360,224,152803,6,0,B|284:120,1,100,2|0,0:0|0:0,0:0:0:0:
224,228,153115,2,0,B|292:132,1,100,0|0,0:0|0:0,0:0:0:0:
360,224,153428,6,0,B|284:120,1,100,8|0,0:0|0:0,0:0:0:0:
224,228,153740,2,0,B|292:132,1,100,2|0,0:0|0:0,0:0:0:0:
404,144,154053,2,0,L|476:64,1,100,2|0,0:0|0:0,0:0:0:0:
352,144,154365,2,0,L|280:48,1,100,0|0,0:0|0:0,0:0:0:0:
404,144,154678,2,0,L|476:64,1,100,8|0,0:0|0:0,0:0:0:0:
352,144,154990,2,0,L|280:48,1,100,2|0,0:0|0:0,0:0:0:0:
184,168,155303,6,0,B|188:50,1,100,2|0,0:0|0:0,0:0:0:0:
288,168,155615,2,0,B|288:60,1,100,0|0,0:0|0:0,0:0:0:0:
400,168,155928,6,0,B|404:28,1,100,8|0,0:0|0:0,0:0:0:0:
508,72,156240,2,0,B|508:180,1,100,2|2,0:0|0:0,0:0:0:0:
392,172,156553,6,0,B|276:128,1,100,2|0,0:0|0:0,0:0:0:0:
184,168,156865,1,2,0:0:0:0:
84,132,157021,1,0,0:0:0:0:
164,80,157178,1,8,0:0:0:0:
292,96,157490,5,2,0:0:0:0:
292,96,157646,1,0,0:0:0:0:
360,272,157803,6,0,L|256:200,1,100,4|0,0:0|0:0,0:0:0:0:
228,196,158115,2,0,L|332:108,1,100,0|0,0:0|0:0,0:0:0:0:
372,116,158428,2,0,L|268:44,1,100,8|0,0:0|0:0,0:0:0:0:
208,172,158740,2,0,L|172:60,1,100,2|0,0:0|0:0,0:0:0:0:
248,152,159053,6,0,L|164:80,1,100,2|0,0:0|0:0,0:0:0:0:
106,162,159365,2,0,L|182:74,1,100,0|0,0:0|0:0,0:0:0:0:
244,172,159678,2,0,L|164:72,1,100,8|0,0:0|0:0,0:0:0:0:
272,168,159990,2,0,L|332:48,1,100,0|0,0:0|0:0,0:0:0:0:
264,112,160303,6,0,L|188:212,1,100,2|0,0:0|0:0,0:0:0:0:
112,116,160615,2,0,L|184:200,1,100,0|0,0:0|0:0,0:0:0:0:
256,192,160928,2,0,L|316:112,1,100,8|0,0:0|0:0,0:0:0:0:
232,168,161240,2,0,L|316:56,1,100,0|0,0:0|0:0,0:0:0:0:
388,108,161553,6,0,L|335:193,1,100,2|0,0:0|0:0,0:0:0:0:
288,192,161865,2,0,L|232:96,1,100,2|0,0:0|0:0,0:0:0:0:
152,188,162178,2,0,L|212:100,1,100,8|0,0:0|0:0,0:0:0:0:
120,72,162490,1,2,0:0:0:0:
240,48,162646,1,0,0:0:0:0:
236,168,162803,6,0,L|312:272,1,100,2|0,0:0|0:0,0:0:0:0:
236,168,163115,2,0,L|124:244,1,100,0|0,0:0|0:0,0:0:0:0:
236,168,163428,2,0,L|368:160,1,100,8|0,0:0|0:0,0:0:0:0:
236,168,163740,2,0,L|240:48,1,100,2|0,0:0|0:0,0:0:0:0:
324,88,164053,5,2,0:0:0:0:
324,96,164209,1,0,0:0:0:0:
192,208,164365,1,2,0:0:0:0:
192,208,164521,1,0,0:0:0:0:
288,200,164678,1,8,0:0:0:0:
288,200,164834,1,0,0:0:0:0:
120,196,164990,1,2,0:0:0:0:
120,196,165146,1,0,0:0:0:0:
316,140,165303,5,2,0:0:0:0:
316,140,165459,1,0,0:0:0:0:
316,140,165615,1,0,0:0:0:0:
112,200,165928,2,0,L|196:136,2,100,8|0|0,0:0|0:0|0:0,0:0:0:0:
300,216,166553,1,2,0:0:0:0:
408,192,166865,2,0,L|368:244,2,50,0|0|0,0:0|0:0|0:0,0:0:0:0:
288,192,167178,1,8,0:0:0:0:
144,140,167490,1,0,0:0:0:0:
144,140,167646,1,0,0:0:0:0:
248,92,167803,1,4,0:0:0:0:
30,231,175303,6,0,L|80:128,3,100,2|0|0|0,0:0|0:0|0:0|0:0,0:0:0:0:
176,152,175941,2,0,L|232:264,3,100,8|0|2|2,0:0|0:0|0:0|0:0,0:0:0:0:
320,164,176586,2,0,L|260:76,3,100,2|0|2|0,0:0|0:0|0:0|0:0,0:0:0:0:
176,116,177260,1,8,0:0:0:0:
264,88,177452,1,0,0:0:0:0:
344,80,177637,1,0,0:0:0:0:
428,88,177822,1,0,0:0:0:0:
296,292,178005,6,0,L|244:256,2,50,4|0|0,0:0|0:0|0:0,0:0:0:0:
388,248,178317,1,0,0:0:0:0:
304,200,178473,1,2,0:0:0:0:
209,153,178630,2,0,L|173:113,2,50,8|0|0,0:0|0:0|0:0,0:0:0:0:
308,100,178942,1,2,0:0:0:0:
416,88,179098,1,0,0:0:0:0:
308,100,179255,5,2,0:0:0:0:
272,100,179333,1,0,0:0:0:0:
236,100,179411,1,0,0:0:0:0:
124,100,179567,1,0,0:0:0:0:
236,100,179723,1,2,0:0:0:0:
120,232,179880,5,8,0:0:0:0:
156,232,179958,1,0,0:0:0:0:
192,232,180036,1,0,0:0:0:0:
304,232,180192,1,2,0:0:0:0:
192,232,180348,1,0,0:0:0:0:
300,180,180505,5,2,0:0:0:0:
300,132,180583,1,0,0:0:0:0:
304,80,180661,1,0,0:0:0:0:
196,176,180817,1,2,0:0:0:0:
300,180,181130,1,8,0:0:0:0:
196,104,181442,2,0,L|120:168,2,100,0|0|2,0:0|0:0|0:0,0:0:0:0:
328,100,182067,2,0,L|384:144,2,50,0|0|0,0:0|0:0|0:0,0:0:0:0:
196,104,182380,5,8,0:0:0:0:
120,128,182692,1,0,0:0:0:0:
120,128,182848,1,0,0:0:0:0:
216,292,183005,6,0,L|268:256,2,50,2|0|0,0:0|0:0|0:0,0:0:0:0:
124,248,183317,1,0,0:0:0:0:
208,200,183473,1,2,0:0:0:0:
303,153,183630,2,0,L|339:113,2,50,8|0|0,0:0|0:0|0:0,0:0:0:0:
204,100,183942,1,2,0:0:0:0:
96,88,184098,1,0,0:0:0:0:
204,100,184255,5,2,0:0:0:0:
240,100,184333,1,0,0:0:0:0:
276,100,184411,1,0,0:0:0:0:
388,100,184567,1,2,0:0:0:0:
276,100,184723,1,0,0:0:0:0:
392,232,184880,5,8,0:0:0:0:
356,232,184958,1,0,0:0:0:0:
320,232,185036,1,0,0:0:0:0:
208,232,185192,1,2,0:0:0:0:
320,232,185348,1,0,0:0:0:0:
212,180,185505,5,2,0:0:0:0:
212,132,185583,1,0,0:0:0:0:
208,80,185661,1,0,0:0:0:0:
316,176,185817,1,0,0:0:0:0:
212,180,186130,1,8,0:0:0:0:
316,104,186442,2,0,L|392:168,2,100,0|0|2,0:0|0:0|0:0,0:0:0:0:
184,100,187067,2,0,L|128:144,2,50,0|0|0,0:0|0:0|0:0,0:0:0:0:
316,104,187380,5,8,0:0:0:0:
392,128,187692,1,0,0:0:0:0:
392,128,187848,1,0,0:0:0:0:
312,140,188005,6,0,L|272:172,7,50,2|0|0|0|0|0|2|0,0:0|0:0|0:0|0:0|0:0|0:0|0:0|0:0,0:0:0:0:
255,184,188630,2,0,L|215:216,7,50,8|0|0|0|2|0|0|0,0:0|0:0|0:0|0:0|0:0|0:0|0:0|0:0,0:0:0:0:
184,140,189255,6,0,L|224:172,7,50,2|0|0|0|2|0|0|0,0:0|0:0|0:0|0:0|0:0|0:0|0:0|0:0,0:0:0:0:
216,216,189880,6,0,L|256:248,7,50,8|0|0|0|2|0|0|0,0:0|0:0|0:0|0:0|0:0|0:0|0:0|0:0,0:0:0:0:
248,124,190505,6,0,L|208:172,3,50,2|0|0|0,0:0|0:0|0:0|0:0,0:0:0:0:
204,180,190817,2,0,L|171:218,3,50,0|0|2|0,0:0|0:0|0:0|0:0,0:0:0:0:
120,208,191130,6,0,L|152:169,3,50,8|0|0|0,0:0|0:0|0:0|0:0,0:0:0:0:
164,140,191442,6,0,L|196:101,3,50,2|0|0|0,0:0|0:0|0:0|0:0,0:0:0:0:
228,80,191755,2,0,L|274:60,1,50,2|0,0:0|0:0,0:0:0:0:
308,68,191911,2,0,L|353:88,1,50,0|0,0:0|0:0,0:0:0:0:
388,116,192067,2,0,L|342:136,1,50,0|0,0:0|0:0,0:0:0:0:
320,144,192223,2,0,L|268:120,2,50,0|0|8,0:0|0:0|0:0,0:0:0:0:
200,140,193005,6,0,L|240:172,7,50,2|0|0|0|0|0|2|0,0:0|0:0|0:0|0:0|0:0|0:0|0:0|0:0,0:0:0:0:
257,184,193630,2,0,L|297:216,7,50,8|0|0|0|2|0|0|0,0:0|0:0|0:0|0:0|0:0|0:0|0:0|0:0,0:0:0:0:
328,140,194255,6,0,L|288:172,7,50,2|2|2|2|0|0|0|0,0:0|0:0|0:0|0:0|0:0|0:0|0:0|0:0,0:0:0:0:
296,216,194880,6,0,L|256:248,7,50,0|0|0|0|0|0|0|0,0:0|0:0|0:0|0:0|0:0|0:0|0:0|0:0,0:0:0:0:
264,124,195505,6,0,L|304:172,3,50,2|0|0|0,0:0|0:0|0:0|0:0,0:0:0:0:
308,180,195817,2,0,L|341:218,3,50,0|0|2|0,0:0|0:0|0:0|0:0,0:0:0:0:
392,208,196130,6,0,L|360:169,3,50,8|0|0|0,0:0|0:0|0:0|0:0,0:0:0:0:
348,140,196442,6,0,L|316:101,3,50,2|0|0|0,0:0|0:0|0:0|0:0,0:0:0:0:
284,80,196755,2,0,L|238:60,1,50,2|0,0:0|0:0,0:0:0:0:
204,68,196911,6,0,L|159:88,1,50,0|0,0:0|0:0,0:0:0:0:
124,116,197067,2,0,L|170:136,1,50,2|0,0:0|0:0,0:0:0:0:
192,144,197223,2,0,L|244:120,2,50,0|0|8,0:0|0:0|0:0,0:0:0:0:
56,88,197692,6,0,L|68:144,3,50,0|0|0|0,0:0|0:0|0:0|0:0,0:0:0:0:
120,248,198005,1,2,0:0:0:0:
172,228,198083,1,0,0:0:0:0:
224,204,198161,1,0,0:0:0:0:
344,116,198317,1,0,0:0:0:0:
208,132,198630,2,0,L|148:88,2,50,8|0|0,0:0|0:0|0:0,0:0:0:0:
312,172,198942,1,0,0:0:0:0:
160,164,199255,5,2,0:0:0:0:
196,144,199333,1,0,0:0:0:0:
224,124,199411,1,0,0:0:0:0:
148,56,199567,1,0,0:0:0:0:
288,72,199880,2,0,L|352:116,2,50,8|0|0,0:0|0:0|0:0,0:0:0:0:
192,60,200192,1,0,0:0:0:0:
364,168,200505,6,0,L|416:120,2,50,2|0|0,0:0|0:0|0:0,0:0:0:0:
248,220,200817,2,0,L|164:120,1,100,0|0,0:0|0:0,0:0:0:0:
88,116,201130,2,0,L|48:147,2,50,8|0|0,0:0|0:0|0:0,0:0:0:0:
176,136,201442,2,0,L|288:40,1,100,0|0,0:0|0:0,0:0:0:0:
388,72,201755,6,0,L|388:196,1,100,2|0,0:0|0:0,0:0:0:0:
302,223,202067,2,0,L|414:155,1,100,0|0,0:0|0:0,0:0:0:0:
284,224,202380,1,8,0:0:0:0:
140,184,202692,1,0,0:0:0:0:
184,100,202848,1,0,0:0:0:0:
280,64,203005,6,0,L|392:20,1,100,2|0,0:0|0:0,0:0:0:0:
288,132,203317,2,0,L|264:84,3,50,0|0|2|0,0:0|0:0|0:0|0:0,0:0:0:0:
320,220,203630,2,0,L|196:248,1,100,8|0,0:0|0:0,0:0:0:0:
112,248,203942,2,0,L|88:200,3,50,0|0|2|0,0:0|0:0|0:0|0:0,0:0:0:0:
72,192,204255,6,0,L|72:76,1,100,2|0,0:0|0:0,0:0:0:0:
180,96,204567,2,0,L|204:172,3,50,0|0|0|0,0:0|0:0|0:0|0:0,0:0:0:0:
220,152,204880,2,0,L|300:56,1,100,8|0,0:0|0:0,0:0:0:0:
396,80,205192,2,0,L|456:144,1,50,2|0,0:0|0:0,0:0:0:0:
392,140,205348,2,0,L|352:100,1,50,0|0,0:0|0:0,0:0:0:0:
328,100,205505,2,0,L|236:8,1,100,2|2,0:0|0:0,0:0:0:0:
136,192,205817,2,0,L|248:104,1,100,0|0,0:0|0:0,0:0:0:0:
300,184,206130,2,0,L|292:124,3,50,8|0|0|0,0:0|0:0|0:0|0:0,0:0:0:0:
240,124,206442,2,0,L|200:80,3,50,2|0|2|0,0:0|0:0|0:0|0:0,0:0:0:0:
168,56,206755,1,2,0:0:0:0:
380,60,207067,6,0,L|440:116,2,50
80,64,207380,1,2,0:0:0:0:
256,192,207536,12,0,209255,0:0:0:0:
