osu file format v14

[General]
AudioFilename: Maskim - Croatian Rhapsody.mp3
AudioLeadIn: 0
PreviewTime: 137788
Countdown: 0
SampleSet: Soft
StackLeniency: 0.7
Mode: 2
LetterboxInBreaks: 1
WidescreenStoryboard: 0

[Editor]
DistanceSpacing: 0.8
BeatDivisor: 4
GridSize: 4
TimelineZoom: 3.099999

[Metadata]
Title:Croatian Rhapsody
TitleUnicode:Croatian Rhapsody
Artist:Maksim Mrvica
ArtistUnicode:Maksim Mrvica
Creator:ZHSteven
Version:Insane
Source:The Piano Player
Tags:
BeatmapID:881329
BeatmapSetID:191590

[Difficulty]
HPDrainRate:6
CircleSize:4
OverallDifficulty:9
ApproachRate:9
SliderMultiplier:2
SliderTickRate:1

[Events]
//Background and Video events
0,0,"190328138867_996.jpg",0,0
//Break Periods
2,85503,93453
2,168003,174703
//Storyboard Layer 0 (Background)
//Storyboard Layer 1 (Fail)
//Storyboard Layer 2 (Pass)
//Storyboard Layer 3 (Foreground)
//Storyboard Sound Samples

[TimingPoints]
303,312.5,4,2,0,45,1,0
303,-133.333333333333,4,2,0,45,0,0
12786,-133.333333333333,4,2,1,40,0,0
22178,-133.333333333333,4,2,1,43,0,0
22781,-133.333333333333,4,2,1,45,0,0
27178,-133.333333333333,4,2,1,48,0,0
27778,-133.333333333333,4,2,1,50,0,0
29678,-133.333333333333,4,2,1,53,0,0
30277,-133.333333333333,4,2,1,55,0,0
31553,-100,4,2,1,60,0,0
32803,-100,4,2,1,70,0,0
33115,-100,4,2,1,60,0,0
42803,-100,4,2,1,55,0,0
51709,-100,4,2,2,60,0,0
52334,-100,4,2,1,60,0,0
52490,-100,4,2,2,45,0,0
52803,-100,4,2,1,65,0,0
70303,-100,4,2,1,60,0,0
72803,-100,4,2,1,65,0,0
80303,-100,4,2,1,55,0,0
80928,-100,4,2,1,60,0,0
81553,-100,4,2,1,65,0,0
82178,-100,4,2,1,70,0,0
82803,-100,4,2,1,75,0,0
83428,-100,4,2,0,80,0,0
84053,-100,4,2,0,85,0,0
84678,-100,4,2,0,90,0,0
85303,-100,4,2,0,95,0,1
85381,-100,4,2,1,70,0,0
105303,-100,4,2,1,65,0,0
115303,-100,4,2,1,70,0,0
115459,-100,4,2,1,65,0,0
124365,-100,4,2,2,45,0,0
124521,-100,4,2,1,65,0,0
125303,-100,4,2,1,70,0,0
132803,-100,4,2,1,55,0,0
133428,-100,4,2,1,60,0,0
134053,-100,4,2,1,65,0,0
134678,-100,4,2,1,70,0,0
134990,-100,4,2,1,65,0,0
135303,-100,4,2,1,75,0,0
135928,-100,4,2,1,80,0,0
136553,-100,4,2,1,85,0,0
137178,-100,4,2,1,90,0,0
137803,-66.6666666666667,4,2,1,95,0,1
137959,-66.6666666666667,4,2,1,70,0,0
142803,-66.6666666666667,4,2,1,80,0,1
142959,-66.6666666666667,4,2,1,70,0,0
147178,-66.6666666666667,4,2,2,60,0,0
147490,-66.6666666666667,4,2,1,60,0,0
147803,-100,4,2,1,70,0,1
147881,-100,4,2,1,30,0,1
147959,-100,4,2,1,60,0,1
148037,-100,4,2,1,30,0,1
148115,-100,4,2,1,60,0,1
148193,-100,4,2,1,30,0,1
148271,-100,4,2,1,60,0,1
148349,-100,4,2,1,30,0,1
148428,-100,4,2,1,60,0,1
148506,-100,4,2,1,30,0,1
148584,-100,4,2,1,60,0,1
148662,-100,4,2,1,30,0,1
148740,-100,4,2,1,60,0,1
148818,-100,4,2,1,30,0,1
148896,-100,4,2,1,60,0,1
148974,-100,4,2,1,30,0,1
149053,-100,4,2,1,60,0,1
150381,-100,4,2,1,30,0,1
150459,-100,4,2,1,60,0,1
150537,-100,4,2,1,30,0,1
150615,-100,4,2,1,60,0,1
150693,-100,4,2,1,30,0,1
150771,-100,4,2,1,60,0,1
150849,-100,4,2,1,30,0,1
150928,-100,4,2,1,60,0,1
151006,-100,4,2,1,30,0,1
151084,-100,4,2,1,60,0,1
151162,-100,4,2,1,30,0,1
151240,-100,4,2,1,60,0,1
151318,-100,4,2,1,30,0,1
151396,-100,4,2,1,60,0,1
151474,-100,4,2,1,30,0,1
151553,-100,4,2,1,60,0,1
152881,-100,4,2,1,30,0,1
152959,-100,4,2,1,60,0,1
153037,-100,4,2,1,30,0,1
153115,-100,4,2,1,60,0,1
153193,-100,4,2,1,30,0,1
153271,-100,4,2,1,60,0,1
153349,-100,4,2,1,30,0,1
153428,-100,4,2,1,60,0,1
153506,-100,4,2,1,30,0,1
153584,-100,4,2,1,60,0,1
153662,-100,4,2,1,30,0,1
153740,-100,4,2,1,60,0,1
153818,-100,4,2,1,30,0,1
153896,-100,4,2,1,60,0,1
153974,-100,4,2,1,30,0,1
154053,-100,4,2,1,60,0,1
154131,-100,4,2,1,30,0,1
154209,-100,4,2,1,60,0,1
154287,-100,4,2,1,30,0,1
154365,-100,4,2,1,60,0,1
154443,-100,4,2,1,30,0,1
154521,-100,4,2,1,60,0,1
154599,-100,4,2,1,30,0,1
154678,-100,4,2,1,60,0,1
154756,-100,4,2,1,30,0,1
154834,-100,4,2,1,60,0,1
154912,-100,4,2,1,30,0,1
154990,-100,4,2,1,60,0,1
155068,-100,4,2,1,30,0,1
155146,-100,4,2,1,60,0,1
155224,-100,4,2,1,30,0,1
155303,-100,4,2,1,60,0,1
155381,-100,4,2,1,30,0,1
155459,-100,4,2,1,60,0,1
155537,-100,4,2,1,30,0,1
155615,-100,4,2,1,60,0,1
155693,-100,4,2,1,30,0,1
155771,-100,4,2,1,60,0,1
155849,-100,4,2,1,30,0,1
155928,-100,4,2,1,60,0,1
156006,-100,4,2,1,30,0,1
156084,-100,4,2,1,60,0,1
156162,-100,4,2,1,30,0,1
156240,-100,4,2,1,60,0,1
156318,-100,4,2,1,30,0,1
156396,-100,4,2,1,60,0,1
156474,-100,4,2,1,30,0,1
156553,-100,4,2,1,60,0,1
157490,-100,4,2,1,60,0,0
157803,-100,4,2,1,70,0,1
157881,-100,4,2,1,30,0,1
157959,-100,4,2,1,60,0,1
158037,-100,4,2,1,30,0,1
158115,-100,4,2,1,60,0,1
158193,-100,4,2,1,30,0,1
158271,-100,4,2,1,60,0,1
158349,-100,4,2,1,30,0,1
158428,-100,4,2,1,60,0,1
158506,-100,4,2,1,30,0,1
158584,-100,4,2,1,60,0,1
158662,-100,4,2,1,30,0,1
158740,-100,4,2,1,60,0,1
158818,-100,4,2,1,30,0,1
158896,-100,4,2,1,60,0,1
158974,-100,4,2,1,30,0,1
159053,-100,4,2,1,60,0,1
159131,-100,4,2,1,30,0,1
159209,-100,4,2,1,60,0,1
159287,-100,4,2,1,30,0,1
159365,-100,4,2,1,60,0,1
159443,-100,4,2,1,30,0,1
159521,-100,4,2,1,60,0,1
159599,-100,4,2,1,30,0,1
159678,-100,4,2,1,60,0,1
159756,-100,4,2,1,30,0,1
159834,-100,4,2,1,60,0,1
159912,-100,4,2,1,30,0,1
159990,-100,4,2,1,60,0,1
160068,-100,4,2,1,30,0,1
160146,-100,4,2,1,60,0,1
160224,-100,4,2,1,30,0,1
160303,-100,4,2,1,60,0,1
160381,-100,4,2,1,30,0,1
160459,-100,4,2,1,60,0,1
160537,-100,4,2,1,30,0,1
160615,-100,4,2,1,60,0,1
160693,-100,4,2,1,30,0,1
160771,-100,4,2,1,60,0,1
160849,-100,4,2,1,30,0,1
160928,-100,4,2,1,60,0,1
161006,-100,4,2,1,30,0,1
161084,-100,4,2,1,60,0,1
161162,-100,4,2,1,30,0,1
161240,-100,4,2,1,60,0,1
161318,-100,4,2,1,30,0,1
161396,-100,4,2,1,60,0,1
161474,-100,4,2,1,30,0,1
161553,-100,4,2,1,60,0,1
162803,-100,4,2,1,60,0,1
162881,-100,4,2,1,30,0,1
162959,-100,4,2,1,60,0,1
163037,-100,4,2,1,30,0,1
163115,-100,4,2,1,60,0,1
163193,-100,4,2,1,30,0,1
163271,-100,4,2,1,60,0,1
163349,-100,4,2,1,30,0,1
163428,-100,4,2,1,60,0,1
163506,-100,4,2,1,30,0,1
163584,-100,4,2,1,60,0,1
163662,-100,4,2,1,30,0,1
163740,-100,4,2,1,60,0,1
163818,-100,4,2,1,30,0,1
163896,-100,4,2,1,60,0,1
163974,-100,4,2,1,30,0,1
164053,-100,4,2,1,60,0,1
164131,-100,4,2,1,30,0,1
164209,-100,4,2,1,60,0,1
164287,-100,4,2,1,30,0,1
164365,-100,4,2,1,60,0,1
164443,-100,4,2,1,30,0,1
164521,-100,4,2,1,60,0,1
164599,-100,4,2,1,30,0,1
164678,-100,4,2,1,60,0,1
164756,-100,4,2,1,30,0,1
164834,-100,4,2,1,60,0,1
164912,-100,4,2,1,30,0,1
164990,-100,4,2,1,60,0,1
165068,-100,4,2,1,30,0,1
165146,-100,4,2,1,60,0,1
165224,-100,4,2,1,30,0,1
165303,-100,4,2,1,60,0,1
167490,-100,4,2,1,60,0,0
167803,-100,4,2,1,70,0,1
167881,-100,4,2,1,60,0,0
175303,319.148936170213,4,2,1,55,1,0
175941,322.58064516129,4,2,1,60,1,0
176586,337.078651685393,4,2,1,65,1,0
177267,370.37037037037,4,2,1,60,1,0
178005,312.5,4,2,1,80,1,1
178005,-100,4,2,1,80,0,1
178161,-100,4,2,1,70,0,0
183005,-100,4,2,1,80,0,1
183161,-100,4,2,1,70,0,0
188005,-100,4,2,1,60,0,1
188083,-100,4,2,1,30,0,1
188161,-100,4,2,1,60,0,1
188239,-100,4,2,1,30,0,1
188317,-100,4,2,1,60,0,1
188395,-100,4,2,1,30,0,1
188473,-100,4,2,1,60,0,1
188551,-100,4,2,1,30,0,1
188630,-100,4,2,1,60,0,1
188708,-100,4,2,1,30,0,1
188786,-100,4,2,1,60,0,1
188864,-100,4,2,1,30,0,1
188942,-100,4,2,1,60,0,1
189020,-100,4,2,1,30,0,1
189098,-100,4,2,1,60,0,1
189176,-100,4,2,1,30,0,1
189255,-100,4,2,1,60,0,1
189333,-100,4,2,1,30,0,1
189411,-100,4,2,1,60,0,1
189489,-100,4,2,1,30,0,1
189567,-100,4,2,1,60,0,1
189645,-100,4,2,1,30,0,1
189723,-100,4,2,1,60,0,1
189801,-100,4,2,1,30,0,1
189880,-100,4,2,1,60,0,1
189958,-100,4,2,1,30,0,1
190036,-100,4,2,1,60,0,1
190114,-100,4,2,1,30,0,1
190192,-100,4,2,1,60,0,1
190270,-100,4,2,1,30,0,1
190348,-100,4,2,1,60,0,1
190426,-100,4,2,1,30,0,1
190505,-100,4,2,1,60,0,1
190583,-100,4,2,1,30,0,1
190661,-100,4,2,1,60,0,1
190739,-100,4,2,1,30,0,1
190817,-100,4,2,1,60,0,1
190895,-100,4,2,1,30,0,1
190973,-100,4,2,1,60,0,1
191051,-100,4,2,1,30,0,1
191130,-100,4,2,1,60,0,1
191208,-100,4,2,1,30,0,1
191286,-100,4,2,1,60,0,1
191364,-100,4,2,1,30,0,1
191442,-100,4,2,1,60,0,1
191520,-100,4,2,1,30,0,1
191598,-100,4,2,1,60,0,1
191676,-100,4,2,1,30,0,1
191755,-100,4,2,1,60,0,1
193083,-100,4,2,1,30,0,1
193161,-100,4,2,1,60,0,1
193239,-100,4,2,1,30,0,1
193317,-100,4,2,1,60,0,1
193395,-100,4,2,1,30,0,1
193473,-100,4,2,1,60,0,1
193551,-100,4,2,1,30,0,1
193630,-100,4,2,1,60,0,1
193708,-100,4,2,1,30,0,1
193786,-100,4,2,1,60,0,1
193864,-100,4,2,1,30,0,1
193942,-100,4,2,1,60,0,1
194020,-100,4,2,1,30,0,1
194098,-100,4,2,1,60,0,1
194176,-100,4,2,1,30,0,1
194255,-100,4,2,1,60,0,1
194333,-100,4,2,1,30,0,1
194411,-100,4,2,1,60,0,1
194489,-100,4,2,1,30,0,1
194567,-100,4,2,1,60,0,1
194645,-100,4,2,1,30,0,1
194723,-100,4,2,1,60,0,1
194801,-100,4,2,1,30,0,1
194880,-100,4,2,1,60,0,1
194958,-100,4,2,1,30,0,1
195036,-100,4,2,1,60,0,1
195114,-100,4,2,1,30,0,1
195192,-100,4,2,1,60,0,1
195270,-100,4,2,1,30,0,1
195348,-100,4,2,1,60,0,1
195426,-100,4,2,1,30,0,1
195505,-100,4,2,1,60,0,1
195583,-100,4,2,1,30,0,1
195661,-100,4,2,1,60,0,1
195739,-100,4,2,1,30,0,1
195817,-100,4,2,1,60,0,1
195895,-100,4,2,1,30,0,1
195973,-100,4,2,1,60,0,1
196051,-100,4,2,1,30,0,1
196130,-100,4,2,1,60,0,1
196208,-100,4,2,1,30,0,1
196286,-100,4,2,1,60,0,1
196364,-100,4,2,1,30,0,1
196442,-100,4,2,1,60,0,1
196520,-100,4,2,1,30,0,1
196598,-100,4,2,1,60,0,1
196676,-100,4,2,1,30,0,1
196755,-100,4,2,1,60,0,1
197380,-100,4,2,1,60,0,0
198005,-100,4,2,1,70,0,1
198161,-100,4,2,1,60,0,0
200505,-100,4,2,1,60,0,0
203005,-100,4,2,1,70,0,1
203161,-100,4,2,1,60,0,0
205817,-100,4,2,0,60,0,0
206442,-100,4,2,0,65,0,0
206755,-100,4,2,0,70,0,0
207067,-100,4,2,0,75,0,0
207380,-100,4,2,0,85,0,0
207419,-100,4,2,0,35,0,0
207692,-100,4,2,0,30,0,0
208005,-100,4,2,0,25,0,0
208317,-100,4,2,0,20,0,0
208630,-100,4,2,0,15,0,0
208942,-100,4,1,0,10,0,0

[Colours]
Combo1 : 147,147,255
Combo2 : 234,117,0
Combo3 : 124,87,223
Combo4 : 247,247,0

[HitObjects]
72,96,2803,5,2,0:0:0:0:
144,96,2959,1,0,0:0:0:0:
212,96,3115,1,0,0:0:0:0:
212,164,3740,1,0,0:0:0:0:
440,96,4053,5,2,0:0:0:0:
368,96,4209,1,0,0:0:0:0:
300,96,4365,1,0,0:0:0:0:
160,88,4990,1,0,0:0:0:0:
312,312,5303,5,2,0:0:0:0:
368,268,5459,1,0,0:0:0:0:
388,204,5615,1,0,0:0:0:0:
252,116,5928,1,2,0:0:0:0:
92,120,6240,5,0,0:0:0:0:
32,176,6396,1,0,0:0:0:0:
96,220,6553,1,0,0:0:0:0:
248,156,6865,1,2,0:0:0:0:
312,184,7021,1,2,0:0:0:0:
384,196,7178,1,0,0:0:0:0:
78,176,7803,5,2,0:0:0:0:
168,152,7959,1,0,0:0:0:0:
140,228,8115,1,0,0:0:0:0:
472,300,8740,5,2,0:0:0:0:
396,320,8896,1,0,0:0:0:0:
412,240,9053,1,2,0:0:0:0:
324,268,9209,1,0,0:0:0:0:
240,260,9365,1,0,0:0:0:0:
100,320,9990,5,2,0:0:0:0:
28,272,10146,1,0,0:0:0:0:
136,240,10303,1,2,0:0:0:0:
216,160,10459,1,0,0:0:0:0:
276,80,10615,1,0,0:0:0:0:
493,133,10928,1,2,0:0:0:0:
356,192,11240,5,0,0:0:0:0:
300,256,11396,1,0,0:0:0:0:
376,312,11553,1,0,0:0:0:0:
212,296,11865,1,2,0:0:0:0:
128,224,12021,1,2,0:0:0:0:
104,148,12178,1,0,0:0:0:0:
96,88,12803,5,8,0:0:0:0:
232,92,13115,1,0,0:0:0:0:
352,132,13428,1,2,0:0:0:0:
96,88,14053,1,8,0:0:0:0:
96,184,14365,1,0,0:0:0:0:
256,188,14678,1,2,0:0:0:0:
256,124,14834,2,0,L|420:124,1,150.000005722046
416,88,15303,5,2,0:0:0:0:
280,92,15615,1,0,0:0:0:0:
160,132,15928,1,2,0:0:0:0:
172,96,16240,1,0,0:0:0:0:
304,88,16396,1,0,0:0:0:0:
416,88,16553,1,2,0:0:0:0:
416,184,16865,1,0,0:0:0:0:
256,188,17178,1,2,0:0:0:0:
256,124,17334,2,0,L|92:124,1,150.000005722046
108,76,17803,6,0,B|62:142|140:224|140:224|308:236,1,299.999991059304,2|2,0:0|0:0,0:0:0:0:
420,80,19053,1,2,0:0:0:0:
256,108,19365,1,0,0:0:0:0:
420,80,19678,1,2,0:0:0:0:
416,224,19834,2,0,L|236:220,1,150.000005722046
144,212,20303,1,2,0:0:0:0:
252,136,20615,1,0,0:0:0:0:
360,56,20928,5,2,0:0:0:0:
96,72,21240,1,0,0:0:0:0:
88,148,21396,1,0,0:0:0:0:
184,216,21553,2,0,B|344:180|344:180,1,150.000005722046
332,92,22178,5,2,0:0:0:0:
36,136,22803,2,0,L|200:64,1,150.000005722046,2|0,0:0|0:0,0:0:0:0:
360,168,23428,2,0,L|200:112,1,150.000005722046,8|0,0:0|0:0,0:0:0:0:
100,88,23896,5,0,0:0:0:0:
232,272,24053,2,0,B|196:156|128:132,1,150.000005722046,2|0,0:0|0:0,0:0:0:0:
24,108,24678,1,8,0:0:0:0:
72,168,24834,1,0,0:0:0:0:
164,200,24990,1,0,0:0:0:0:
264,208,25146,1,0,0:0:0:0:
368,124,25303,6,0,B|296:96|232:168,1,149.999995529652,2|0,0:0|0:0,0:0:0:0:
432,144,25928,1,8,0:0:0:0:
428,224,26084,2,8,B|289:251|248:216,1,150.000005722046,0|0,0:0|0:0,0:0:0:0:
140,224,26553,5,2,0:0:0:0:
256,160,26865,1,0,0:0:0:0:
60,124,27178,2,0,L|224:92,1,150.000005722046,8|0,0:0|0:0,0:0:0:0:
352,88,27646,1,0,0:0:0:0:
476,136,27803,6,0,L|312:64,1,150.000005722046,2|0,0:0|0:0,0:0:0:0:
152,168,28428,2,0,L|312:112,1,150.000005722046,8|0,0:0|0:0,0:0:0:0:
412,88,28896,5,0,0:0:0:0:
280,272,29053,2,0,B|316:156|384:132,1,150.000005722046,2|0,0:0|0:0,0:0:0:0:
488,108,29678,1,8,0:0:0:0:
436,168,29834,1,0,0:0:0:0:
348,196,29990,1,0,0:0:0:0:
248,208,30146,1,0,0:0:0:0:
144,124,30303,6,0,B|216:96|280:168,1,149.999995529652,2|0,0:0|0:0,0:0:0:0:
80,144,30928,1,8,0:0:0:0:
84,224,31084,2,8,B|223:251|264:216,1,150.000005722046,0|0,0:0|0:0,0:0:0:0:
372,224,31553,5,2,0:0:0:0:
256,160,31865,1,0,0:0:0:0:
416,112,32178,1,2,0:0:0:0:
296,96,32334,1,2,0:0:0:0:
244,64,32412,1,0,0:0:0:0:
188,92,32490,1,2,0:0:0:0:
84,104,32646,1,2,0:0:0:0:
228,240,32803,6,0,B|328:140,1,100,4|0,0:0|0:0,0:0:0:0:
384,80,33115,1,0,0:0:0:0:
260,104,33271,1,0,0:0:0:0:
136,244,33428,6,0,B|236:144,1,100,8|0,0:0|0:0,0:0:0:0:
296,112,33740,1,0,0:0:0:0:
148,108,33896,1,0,0:0:0:0:
248,240,34053,6,2,B|148:140,1,100
104,96,34365,1,0,0:0:0:0:
252,116,34521,1,0,0:0:0:0:
392,240,34678,6,0,B|292:140,1,100,8|0,0:0|0:0,0:0:0:0:
236,140,34990,1,0,0:0:0:0:
380,136,35146,1,0,0:0:0:0:
240,228,35303,6,0,B|320:144,1,100,2|0,0:0|0:0,0:0:0:0:
208,160,35615,2,0,B|128:88,1,100
284,88,35928,1,8,0:0:0:0:
280,152,36084,1,0,0:0:0:0:
180,152,36240,1,0,0:0:0:0:
280,152,36396,1,0,0:0:0:0:
112,76,36552,5,2,0:0:0:0:
108,152,36709,1,0,0:0:0:0:
280,152,36865,1,0,0:0:0:0:
196,152,37021,1,0,0:0:0:0:
108,152,37178,1,8,0:0:0:0:
320,240,37490,1,0,0:0:0:0:
168,152,37803,6,0,B|92:72,1,100,2|0,0:0|0:0,0:0:0:0:
256,152,38115,1,0,0:0:0:0:
256,152,38271,1,0,0:0:0:0:
420,88,38428,2,0,B|348:156,1,100,8|0,0:0|0:0,0:0:0:0:
252,148,38740,1,0,0:0:0:0:
252,148,38896,1,0,0:0:0:0:
168,148,39053,6,0,B|272:76,1,100,2|0,0:0|0:0,0:0:0:0:
156,88,39365,1,0,0:0:0:0:
156,88,39521,1,0,0:0:0:0:
352,152,39678,6,0,B|248:80,1,100,8|0,0:0|0:0,0:0:0:0:
404,92,39990,1,0,0:0:0:0:
344,92,40146,1,0,0:0:0:0:
252,248,40303,5,2,0:0:0:0:
164,248,40459,1,0,0:0:0:0:
68,184,40615,2,0,B|168:136,1,100
304,144,40928,1,8,0:0:0:0:
296,144,41084,1,0,0:0:0:0:
444,148,41240,1,0,0:0:0:0:
304,144,41396,1,0,0:0:0:0:
436,152,41553,6,0,B|492:138|500:80,1,100,2|0,0:0|0:0,0:0:0:0:
336,144,41865,2,0,B|392:130|400:72,1,100
264,152,42178,5,8,0:0:0:0:
188,92,42334,1,0,0:0:0:0:
104,140,42490,1,2,0:0:0:0:
220,140,42646,1,0,0:0:0:0:
44,144,42803,6,0,L|116:224,1,100,2|0,0:0|0:0,0:0:0:0:
236,220,43115,2,0,L|316:140,1,100
480,224,43428,2,0,L|392:132,1,100,8|0,0:0|0:0,0:0:0:0:
288,148,43740,2,0,L|208:236,1,100
352,72,44053,6,0,B|248:72,1,100,2|0,0:0|0:0,0:0:0:0:
144,160,44365,2,0,B|221:91,1,100
52,164,44678,2,0,B|60:48,1,100,8|0,0:0|0:0,0:0:0:0:
236,152,44990,2,0,B|316:80,1,100
468,144,45303,6,0,L|396:224,1,100,2|0,0:0|0:0,0:0:0:0:
276,220,45615,2,0,L|196:140,1,100
32,224,45928,2,0,L|120:132,1,100,8|0,0:0|0:0,0:0:0:0:
224,148,46240,2,0,L|304:236,1,100
160,72,46553,6,0,B|264:72,1,100,2|0,0:0|0:0,0:0:0:0:
368,160,46865,2,0,B|291:91,1,100
460,164,47178,2,0,B|452:48,1,100,8|0,0:0|0:0,0:0:0:0:
276,152,47490,2,0,B|372:92,1,100
200,152,47803,5,2,0:0:0:0:
96,144,47959,2,0,B|-16:56,2,100
200,152,48428,1,8,0:0:0:0:
316,164,48584,2,0,B|424:232,2,100
200,152,49053,5,2,0:0:0:0:
304,152,49209,1,0,0:0:0:0:
200,152,49365,1,0,0:0:0:0:
96,144,49521,1,0,0:0:0:0:
208,152,49678,1,8,0:0:0:0:
352,152,49834,1,0,0:0:0:0:
200,152,49990,1,0,0:0:0:0:
44,144,50146,1,0,0:0:0:0:
384,68,50303,6,0,B|444:88|444:88|444:244,1,200,2|0,0:0|0:0,0:0:0:0:
184,264,50928,2,0,B|116:264|116:264|120:116,1,200,8|0,0:0|0:0,0:0:0:0:
320,124,51553,5,2,0:0:0:0:
496,152,51865,1,0,0:0:0:0:
248,124,52178,1,0,0:0:0:0:
436,88,52490,1,4,0:0:0:0:
436,88,52646,1,0,0:0:0:0:
248,124,52803,5,2,0:0:0:0:
336,212,52959,1,0,0:0:0:0:
264,128,53115,1,0,0:0:0:0:
164,192,53272,1,0,0:0:0:0:
12,116,53428,5,8,0:0:0:0:
84,188,53584,1,0,0:0:0:0:
160,120,53740,1,0,0:0:0:0:
12,116,53897,1,0,0:0:0:0:
292,56,54053,5,2,0:0:0:0:
288,120,54209,1,0,0:0:0:0:
160,52,54365,1,0,0:0:0:0:
160,124,54521,1,0,0:0:0:0:
32,52,54678,1,8,0:0:0:0:
32,120,54834,1,0,0:0:0:0:
160,52,54990,1,0,0:0:0:0:
68,52,55146,1,0,0:0:0:0:
160,124,55303,6,0,B|241:182,1,100,2|0,0:0|0:0,0:0:0:0:
368,224,55615,1,0,0:0:0:0:
480,268,55771,1,0,0:0:0:0:
388,72,55928,6,0,B|300:132,1,100,8|0,0:0|0:0,0:0:0:0:
208,204,56240,1,0,0:0:0:0:
304,272,56396,1,0,0:0:0:0:
80,96,56553,6,0,B|80:204,1,100,2|0,0:0|0:0,0:0:0:0:
292,196,56865,2,0,B|289:97,1,100
80,96,57178,2,0,B|184:96,1,100,8|0,0:0|0:0,0:0:0:0:
376,96,57490,1,0,0:0:0:0:
320,168,57646,1,0,0:0:0:0:
108,264,57803,6,0,B|214:245|270:129,1,200,2|0,0:0|0:0,0:0:0:0:
256,56,58271,1,0,0:0:0:0:
456,160,58428,6,0,B|409:258|303:277,1,200,8|0,0:0|0:0,0:0:0:0:
300,192,58896,1,0,0:0:0:0:
56,216,59053,5,2,0:0:0:0:
136,192,59209,1,0,0:0:0:0:
160,128,59365,1,0,0:0:0:0:
0,168,59521,1,0,0:0:0:0:
136,204,59678,5,8,0:0:0:0:
224,248,59834,1,0,0:0:0:0:
320,264,59990,1,0,0:0:0:0:
208,160,60146,1,2,0:0:0:0:
444,224,60303,6,0,B|444:108,1,100,2|0,0:0|0:0,0:0:0:0:
248,128,60615,2,0,B|340:192,1,100
140,172,60928,2,0,B|68:96,1,100,8|0,0:0|0:0,0:0:0:0:
276,64,61240,2,0,B|272:176,1,100
84,80,61553,5,2,0:0:0:0:
360,72,61865,1,0,0:0:0:0:
172,140,62178,1,8,0:0:0:0:
24,140,62490,1,0,0:0:0:0:
24,140,62646,1,0,0:0:0:0:
248,244,62803,5,6,0:0:0:0:
160,176,62959,1,0,0:0:0:0:
256,120,63115,2,0,L|364:76,1,100
148,44,63428,1,8,0:0:0:0:
64,112,63584,1,0,0:0:0:0:
148,212,63740,1,0,0:0:0:0:
316,224,63896,1,0,0:0:0:0:
200,216,64053,6,0,B|200:344,1,100,2|0,0:0|0:0,0:0:0:0:
108,184,64365,2,0,B|12:260,1,100
248,80,64678,2,0,B|244:192,1,100,8|0,0:0|0:0,0:0:0:0:
88,76,64990,2,0,B|189:77,1,100
324,124,65303,5,2,0:0:0:0:
404,192,65459,1,0,0:0:0:0:
316,272,65615,2,0,L|184:268,1,100
120,176,65928,1,8,0:0:0:0:
200,248,66084,1,0,0:0:0:0:
304,172,66240,1,0,0:0:0:0:
120,176,66396,1,0,0:0:0:0:
224,168,66553,6,0,B|224:36,1,100,2|0,0:0|0:0,0:0:0:0:
364,172,66865,2,0,B|264:104,1,100
152,168,67178,2,0,B|152:68,1,100,8|0,0:0|0:0,0:0:0:0:
292,256,67490,2,0,B|412:256,1,100
500,104,67803,6,0,B|280:104,1,200,2|0,0:0|0:0,0:0:0:0:
304,36,68271,1,0,0:0:0:0:
136,212,68428,2,0,B|140:104,1,100,8|0,0:0|0:0,0:0:0:0:
264,96,68740,1,0,0:0:0:0:
136,96,68896,1,0,0:0:0:0:
264,160,69053,6,0,B|484:160,1,200,2|0,0:0|0:0,0:0:0:0:
212,232,69678,1,8,0:0:0:0:
224,76,69834,1,0,0:0:0:0:
128,148,69990,1,0,0:0:0:0:
424,144,70303,5,2,0:0:0:0:
264,144,70615,2,0,B|340:80|340:80|440:80,1,200,2|8,0:0|0:0,0:0:0:0:
264,120,71240,1,0,0:0:0:0:
268,248,71553,2,0,B|192:184|192:184|92:184,1,200,2|2,0:0|0:0,0:0:0:0:
336,252,72178,1,8,0:0:0:0:
148,248,72490,1,2,0:0:0:0:
512,60,72803,6,0,B|404:60,1,100,2|0,0:0|0:0,0:0:0:0:
304,116,73115,1,0,0:0:0:0:
248,196,73271,1,0,0:0:0:0:
104,72,73428,2,0,B|204:72,1,100,8|0,0:0|0:0,0:0:0:0:
348,112,73740,1,0,0:0:0:0:
340,204,73896,1,0,0:0:0:0:
240,144,74053,5,2,0:0:0:0:
184,208,74209,1,0,0:0:0:0:
328,208,74365,1,2,0:0:0:0:
368,280,74521,1,0,0:0:0:0:
160,288,74678,1,8,0:0:0:0:
128,192,74834,1,0,0:0:0:0:
340,184,74990,1,2,0:0:0:0:
372,268,75146,1,0,0:0:0:0:
144,120,75303,5,2,0:0:0:0:
376,148,75615,1,0,0:0:0:0:
376,76,75771,1,0,0:0:0:0:
280,72,75928,2,0,B|412:72,1,100,2|0,0:0|0:0,0:0:0:0:
204,176,76240,2,0,B|204:64,1,100
408,260,76553,5,2,0:0:0:0:
348,180,76709,1,0,0:0:0:0:
136,196,76865,1,2,0:0:0:0:
180,280,77021,1,0,0:0:0:0:
368,272,77178,1,8,0:0:0:0:
320,200,77334,1,0,0:0:0:0:
180,208,77490,1,2,0:0:0:0:
208,128,77646,1,0,0:0:0:0:
352,68,77803,5,2,0:0:0:0:
300,128,77959,1,0,0:0:0:0:
192,72,78115,1,0,0:0:0:0:
284,80,78271,1,0,0:0:0:0:
196,160,78428,1,8,0:0:0:0:
116,224,78584,1,0,0:0:0:0:
240,164,78740,1,0,0:0:0:0:
320,112,78896,1,0,0:0:0:0:
132,152,79053,6,0,B|170:170|170:170|184:256,1,100,2|0,0:0|0:0,0:0:0:0:
288,220,79365,2,0,B|326:202|326:202|340:140,1,100
484,152,79678,2,0,B|446:170|446:170|432:232,1,100,8|0,0:0|0:0,0:0:0:0:
268,220,79990,1,0,0:0:0:0:
360,216,80146,1,0,0:0:0:0:
172,224,80303,5,2,0:0:0:0:
172,296,80459,1,0,0:0:0:0:
260,296,80615,1,0,0:0:0:0:
200,292,80771,1,0,0:0:0:0:
312,296,80928,5,8,0:0:0:0:
312,220,81084,1,0,0:0:0:0:
180,224,81240,1,0,0:0:0:0:
116,160,81396,1,0,0:0:0:0:
276,140,81553,5,2,0:0:0:0:
280,64,81709,1,0,0:0:0:0:
440,184,81865,1,0,0:0:0:0:
512,108,82021,1,0,0:0:0:0:
312,132,82178,5,8,0:0:0:0:
308,208,82334,1,0,0:0:0:0:
152,200,82490,1,0,0:0:0:0:
308,88,82646,1,0,0:0:0:0:
124,96,82803,5,2,0:0:0:0:
128,184,82959,1,0,0:0:0:0:
264,204,83115,1,0,0:0:0:0:
348,128,83271,1,0,0:0:0:0:
504,108,83428,5,2,0:0:0:0:
504,204,83584,1,0,0:0:0:0:
300,192,83740,1,0,0:0:0:0:
168,112,83896,1,0,0:0:0:0:
368,88,84053,5,2,0:0:0:0:
356,228,84209,1,0,0:0:0:0:
200,200,84365,1,0,0:0:0:0:
348,136,84521,1,0,0:0:0:0:
152,104,84678,5,2,0:0:0:0:
152,192,84834,1,0,0:0:0:0:
360,200,84990,1,0,0:0:0:0:
184,88,85146,1,0,0:0:0:0:
472,112,85303,5,2,0:0:0:0:
144,196,94053,6,0,B|304:48|304:48|432:136|432:136|480:192,1,400,0|8,0:0|0:0,0:0:0:0:
248,216,94990,1,0,0:0:0:0:
216,244,95068,1,0,0:0:0:0:
192,268,95146,1,0,0:0:0:0:
168,292,95224,1,0,0:0:0:0:
144,324,95303,6,0,B|164:348|164:348|240:356,1,100,4|0,0:0|0:0,0:0:0:0:
360,332,95615,1,0,0:0:0:0:
300,252,95771,1,2,0:0:0:0:
120,216,95928,2,0,B|216:120,1,100,8|0,0:0|0:0,0:0:0:0:
300,140,96240,1,2,0:0:0:0:
240,216,96397,1,0,0:0:0:0:
172,128,96553,6,0,B|208:240,1,100,2|0,0:0|0:0,0:0:0:0:
336,216,96865,2,2,B|288:112,1,100,0|0,0:0|0:0,0:0:0:0:
440,104,97178,2,0,L|344:160,1,100,8|0,0:0|0:0,0:0:0:0:
236,200,97490,1,0,0:0:0:0:
196,112,97646,1,0,0:0:0:0:
72,244,97803,6,0,B|116:144,1,100,2|0,0:0|0:0,0:0:0:0:
240,160,98115,1,0,0:0:0:0:
108,144,98428,1,8,0:0:0:0:
332,224,98740,6,0,B|340:96,1,100
220,176,99053,2,0,B|316:244,1,100,2|0,0:0|0:0,0:0:0:0:
220,72,99365,1,0,0:0:0:0:
124,120,99521,1,0,0:0:0:0:
24,152,99678,1,8,0:0:0:0:
224,248,100303,6,0,B|188:268|120:268,1,100,2|0,0:0|0:0,0:0:0:0:
24,188,100615,1,0,0:0:0:0:
92,96,100771,1,2,0:0:0:0:
276,144,100928,2,0,B|240:164|172:164,1,100,8|0,0:0|0:0,0:0:0:0:
76,64,101240,1,0,0:0:0:0:
184,64,101396,1,0,0:0:0:0:
288,200,101553,6,0,B|288:100,1,100,2|0,0:0|0:0,0:0:0:0:
288,200,101865,1,0,0:0:0:0:
380,116,102021,1,0,0:0:0:0:
220,204,102178,2,0,B|144:132,1,100,8|0,0:0|0:0,0:0:0:0:
248,92,102490,1,0,0:0:0:0:
336,52,102646,1,0,0:0:0:0:
104,108,102803,6,0,B|64:148|64:148|108:196,2,100,2|0|0,0:0|0:0|0:0,0:0:0:0:
352,96,103428,1,8,0:0:0:0:
188,152,103740,2,0,L|100:228,1,100
296,164,104053,5,2,0:0:0:0:
296,164,104209,1,0,0:0:0:0:
416,200,104365,2,0,B|324:276,1,100,2|0,0:0|0:0,0:0:0:0:
200,264,104678,2,0,B|144:200|144:200|140:84,1,200,8|2,0:0|0:0,0:0:0:0:
328,84,105303,6,0,L|400:160,2,100,2|0|0,0:0|0:0|0:0,0:0:0:0:
512,88,105928,1,8,0:0:0:0:
312,172,106240,1,0,0:0:0:0:
376,80,106396,1,0,0:0:0:0:
228,88,106553,6,0,L|140:188,2,100,2|0|0,0:0|0:0|0:0,0:0:0:0:
60,88,107178,1,8,0:0:0:0:
284,220,107490,1,0,0:0:0:0:
188,152,107646,1,0,0:0:0:0:
48,152,107803,6,0,B|76:180|120:244,1,100,2|0,0:0|0:0,0:0:0:0:
232,248,108115,1,0,0:0:0:0:
436,120,108428,1,8,0:0:0:0:
248,104,108740,2,0,B|164:36,2,100,0|0|2,0:0|0:0|0:0,0:0:0:0:
92,200,109365,1,2,0:0:0:0:
236,212,109521,1,0,0:0:0:0:
376,160,109678,2,0,L|380:52,1,100,8|0,0:0|0:0,0:0:0:0:
440,164,109990,2,0,L|324:112,1,100
496,168,110303,5,2,0:0:0:0:
372,156,110459,1,0,0:0:0:0:
244,144,110615,2,0,L|156:48,2,100,0|0|8,0:0|0:0|0:0,0:0:0:0:
132,152,111240,1,0,0:0:0:0:
192,68,111396,1,0,0:0:0:0:
48,148,111553,5,2,0:0:0:0:
164,152,111709,1,0,0:0:0:0:
264,152,111865,2,0,L|352:64,2,100,0|0|8,0:0|0:0|0:0,0:0:0:0:
392,156,112490,1,0,0:0:0:0:
264,152,112646,1,0,0:0:0:0:
88,164,112803,6,0,B|128:200|128:200|124:280,1,100,2|0,0:0|0:0,0:0:0:0:
264,152,113115,2,0,B|236:180|236:180|236:248,1,100,2|0,0:0|0:0,0:0:0:0:
416,160,113428,1,8,0:0:0:0:
204,180,113740,2,0,L|140:260,1,100
208,104,114053,5,2,0:0:0:0:
356,240,114365,2,0,B|324:268|324:268|268:268,1,100,2|0,0:0|0:0,0:0:0:0:
404,180,114678,2,0,L|452:212,3,50,8|0|0|0,0:0|0:0|0:0|0:0,0:0:0:0:
400,100,114990,2,0,L|352:132,3,50
304,136,115303,5,4,0:0:0:0:
212,212,115459,1,0,0:0:0:0:
312,216,115615,1,0,0:0:0:0:
412,212,115771,1,0,0:0:0:0:
220,292,115928,5,8,0:0:0:0:
160,296,116084,1,0,0:0:0:0:
268,296,116240,1,0,0:0:0:0:
120,208,116396,1,0,0:0:0:0:
0,128,116553,6,0,B|60:212,1,100,2|0,0:0|0:0,0:0:0:0:
228,128,116865,2,0,B|160:224,1,100,2|0,0:0|0:0,0:0:0:0:
28,136,117178,2,0,B|16:248,1,100,8|0,0:0|0:0,0:0:0:0:
184,76,117490,1,0,0:0:0:0:
0,40,117646,1,0,0:0:0:0:
108,144,117803,5,2,0:0:0:0:
200,220,117959,1,0,0:0:0:0:
100,224,118115,1,0,0:0:0:0:
0,220,118271,1,0,0:0:0:0:
204,264,118428,5,8,0:0:0:0:
296,268,118584,1,0,0:0:0:0:
204,264,118740,1,0,0:0:0:0:
384,192,118896,1,0,0:0:0:0:
288,144,119053,6,0,B|388:144,1,100,2|0,0:0|0:0,0:0:0:0:
224,144,119365,2,0,B|312:72,1,100,2|0,0:0|0:0,0:0:0:0:
460,128,119678,2,0,B|392:228,1,100,8|0,0:0|0:0,0:0:0:0:
232,172,119990,1,0,0:0:0:0:
232,80,120146,1,0,0:0:0:0:
56,192,120303,6,0,B|56:236|56:236|132:236,1,100,2|0,0:0|0:0,0:0:0:0:
304,244,120615,1,0,0:0:0:0:
232,316,120771,1,0,0:0:0:0:
40,284,120928,6,0,B|96:284|96:284|96:240,1,100,8|0,0:0|0:0,0:0:0:0:
211,176,121240,1,0,0:0:0:0:
248,260,121396,1,0,0:0:0:0:
419,91,121553,6,0,B|484:168,1,100,2|0,0:0|0:0,0:0:0:0:
276,100,121865,2,0,B|212:176,1,100,2|0,0:0|0:0,0:0:0:0:
31,170,122178,2,0,B|88:88,1,100,8|0,0:0|0:0,0:0:0:0:
232,96,122490,1,0,0:0:0:0:
168,176,122646,1,0,0:0:0:0:
392,176,122803,5,2,0:0:0:0:
168,208,123115,1,0,0:0:0:0:
312,120,123428,1,8,0:0:0:0:
156,160,123584,1,0,0:0:0:0:
256,224,123740,1,0,0:0:0:0:
388,244,124053,5,2,0:0:0:0:
344,176,124209,1,0,0:0:0:0:
88,228,124365,2,0,B|50:196,2,50,4|0|0,0:0|0:0|0:0,0:0:0:0:
256,148,124678,1,8,0:0:0:0:
256,52,124990,1,2,0:0:0:0:
256,52,125146,1,0,0:0:0:0:
272,132,125303,6,0,B|152:132|152:132|152:224,1,200,6|0,0:0|0:0,0:0:0:0:
272,228,125772,1,0,0:0:0:0:
392,220,125928,2,0,B|392:140|392:140|272:140,1,200,8|0,0:0|0:0,0:0:0:0:
144,136,126396,1,0,0:0:0:0:
272,124,126553,6,0,B|72:28,1,200,2|0,0:0|0:0,0:0:0:0:
296,216,127178,2,0,B|88:216,1,200,8|0,0:0|0:0,0:0:0:0:
192,108,127646,1,0,0:0:0:0:
64,96,127803,2,0,B|28:208,2,100,2|0|0,0:0|0:0|0:0,0:0:0:0:
192,136,128271,1,0,0:0:0:0:
320,72,128428,2,0,B|184:72,1,100,8|0,0:0|0:0,0:0:0:0:
48,160,128740,2,0,B|128:252,1,100
272,200,129053,6,0,B|202:127,1,100,2|0,0:0|0:0,0:0:0:0:
360,216,129365,2,0,B|433:284,1,100,2|0,0:0|0:0,0:0:0:0:
247,152,129678,2,0,B|31:160,1,200,8|0,0:0|0:0,0:0:0:0:
356,212,130303,6,0,B|276:288,2,100,2|0|0,0:0|0:0|0:0,0:0:0:0:
476,144,130771,1,0,0:0:0:0:
308,132,130928,2,0,B|248:44,1,100,8|0,0:0|0:0,0:0:0:0:
88,128,131240,6,0,B|202:128,1,100
36,192,131553,2,0,L|-8:240,3,50,2|0|0|0,0:0|0:0|0:0|0:0,0:0:0:0:
92,132,131865,2,0,B|52:180,3,50
144,72,132178,2,0,B|104:120,3,50,8|0|0|0,0:0|0:0|0:0|0:0,0:0:0:0:
200,152,132490,1,0,0:0:0:0:
260,136,132568,1,0,0:0:0:0:
320,116,132646,1,0,0:0:0:0:
376,112,132724,1,0,0:0:0:0:
436,120,132803,1,2,0:0:0:0:
256,192,132959,12,0,134053,0:0:0:0:
312,176,134365,5,0,0:0:0:0:
316,80,134521,1,0,0:0:0:0:
132,176,134678,5,8,0:0:0:0:
232,176,134834,1,0,0:0:0:0:
136,176,134990,1,0,0:0:0:0:
256,192,135303,12,0,137490,0:0:0:0:
160,181,137803,5,2,0:0:0:0:
160,181,137881,1,0,0:0:0:0:
160,181,137959,1,0,0:0:0:0:
264,176,138115,2,0,B|140:64,1,150.000005722046
316,176,138428,5,8,0:0:0:0:
316,176,138506,1,0,0:0:0:0:
316,176,138584,1,0,0:0:0:0:
204,180,138740,2,0,B|328:68,1,150.000005722046
484,192,139053,5,2,0:0:0:0:
484,192,139131,1,0,0:0:0:0:
484,192,139209,1,0,0:0:0:0:
304,56,139365,2,0,B|240:80|240:80|184:152,1,150.000005722046
64,232,139678,5,8,0:0:0:0:
64,232,139756,1,0,0:0:0:0:
64,232,139834,1,0,0:0:0:0:
208,56,139990,2,0,B|272:80|272:80|328:152,1,150.000005722046
424,272,140303,5,2,0:0:0:0:
376,288,140381,1,0,0:0:0:0:
332,304,140459,1,0,0:0:0:0:
176,296,140615,1,0,0:0:0:0:
456,184,140928,5,8,0:0:0:0:
276,196,141240,6,0,B|254:141|254:141|356:144,1,149.999995529652
188,128,141553,5,2,0:0:0:0:
188,128,141709,1,0,0:0:0:0:
340,132,141865,2,0,B|380:179|380:179|284:180,1,149.999995529652
72,320,142178,6,0,B|88:16,2,300.000011444092,8|0|2,0:0|0:0|0:0,0:0:0:0:
136,316,142881,1,0,0:0:0:0:
200,304,142959,1,0,0:0:0:0:
344,204,143115,1,0,0:0:0:0:
248,116,143271,1,2,0:0:0:0:
388,100,143428,5,8,0:0:0:0:
436,80,143506,1,0,0:0:0:0:
492,56,143584,1,0,0:0:0:0:
344,204,143740,1,2,0:0:0:0:
248,116,143896,1,0,0:0:0:0:
132,120,144053,5,2,0:0:0:0:
132,120,144131,1,0,0:0:0:0:
132,120,144209,1,0,0:0:0:0:
248,292,144365,1,0,0:0:0:0:
344,204,144521,1,2,0:0:0:0:
476,168,144678,5,8,0:0:0:0:
428,144,144756,1,0,0:0:0:0:
376,108,144834,1,0,0:0:0:0:
248,292,144990,1,2,0:0:0:0:
344,204,145146,1,0,0:0:0:0:
240,144,145303,6,0,B|96:52,2,150.000005722046,2|0|0,0:0|0:0|0:0,0:0:0:0:
476,144,145928,1,8,0:0:0:0:
240,248,146240,2,0,B|384:164,1,149.999995529652
240,88,146553,5,2,0:0:0:0:
240,88,146709,1,0,0:0:0:0:
16,208,146865,2,0,B|72:144|72:144|16:80,1,150.000005722046,2|0,0:0|0:0,0:0:0:0:
232,168,147178,5,4,0:0:0:0:
232,244,147334,1,0,0:0:0:0:
232,244,147490,1,2,0:0:0:0:
232,244,147646,1,0,0:0:0:0:
332,202,147803,6,0,B|336:84,1,100,6|0,0:0|0:0,0:0:0:0:
468,100,148115,2,0,B|352:100,1,100
256,200,148428,6,8,B|260:60,1,100,8|0,0:0|0:0,0:0:0:0:
420,104,148740,2,0,B|316:104,1,100
222,202,149053,6,0,B|226:84,1,100,2|0,0:0|0:0,0:0:0:0:
358,100,149365,2,0,B|242:100,1,100
146,200,149678,6,8,B|150:60,1,100,8|0,0:0|0:0,0:0:0:0:
304,104,149990,2,0,B|304:216,1,100,2|0,0:0|0:0,0:0:0:0:
136,198,150303,6,0,B|132:80,1,100,2|0,0:0|0:0,0:0:0:0:
0,96,150615,2,0,B|116:96,1,100,2|0,0:0|0:0,0:0:0:0:
212,196,150928,6,0,B|208:56,1,100,8|0,0:0|0:0,0:0:0:0:
48,100,151240,2,0,B|152:100,1,100,2|0,0:0|0:0,0:0:0:0:
246,198,151553,6,0,B|242:80,1,100
110,96,151865,2,0,B|226:96,1,100
328,196,152178,2,0,B|240:104,3,100,8|0|0|0,0:0|0:0|0:0|0:0,0:0:0:0:
176,84,152803,5,2,0:0:0:0:
76,116,152959,2,0,L|147:187,1,100
72,112,153271,1,0,0:0:0:0:
276,84,153428,5,8,0:0:0:0:
380,112,153584,2,0,L|309:182,1,100,0|2,0:0|0:0,0:0:0:0:
380,112,153896,1,0,0:0:0:0:
176,84,154053,2,0,L|88:168,1,100,2|0,0:0|0:0,0:0:0:0:
24,228,154365,1,0,0:0:0:0:
128,140,154521,1,0,0:0:0:0:
336,84,154678,2,0,L|424:168,1,100,8|0,0:0|0:0,0:0:0:0:
488,232,154990,1,2,0:0:0:0:
384,140,155146,1,0,0:0:0:0:
192,160,155303,6,0,L|112:252,1,100,2|0,0:0|0:0,0:0:0:0:
332,176,155615,2,0,L|416:272,1,100
216,80,155928,1,8,0:0:0:0:
368,72,156084,1,0,0:0:0:0:
208,80,156240,1,2,0:0:0:0:
360,72,156396,1,2,0:0:0:0:
208,80,156553,5,2,0:0:0:0:
208,80,156709,1,0,0:0:0:0:
48,200,156865,1,2,0:0:0:0:
208,80,157021,1,0,0:0:0:0:
384,188,157178,1,8,0:0:0:0:
384,188,157490,1,2,0:0:0:0:
384,188,157646,1,0,0:0:0:0:
464,200,157803,6,0,L|360:128,1,100,4|0,0:0|0:0,0:0:0:0:
232,208,158115,2,0,L|336:120,1,100
464,200,158428,2,8,L|360:128,1,100,8|0,0:0|0:0,0:0:0:0:
196,204,158740,2,0,L|212:88,1,100,2|0,0:0|0:0,0:0:0:0:
0,200,159053,6,0,L|84:136,1,100,2|0,0:0|0:0,0:0:0:0:
248,208,159365,2,0,L|104:208,1,100
344,200,159678,2,0,L|264:100,1,100,8|0,0:0|0:0,0:0:0:0:
448,200,159990,2,0,L|416:80,1,100
260,120,160303,6,0,L|184:220,1,100,2|0,0:0|0:0,0:0:0:0:
76,120,160615,2,0,L|148:204,1,100
328,120,160928,2,0,L|252:220,1,100,8|0,0:0|0:0,0:0:0:0:
160,120,161240,2,0,L|268:120,1,100
408,124,161553,6,0,L|355:209,1,100,2|0,0:0|0:0,0:0:0:0:
196,208,161865,2,0,L|304:208,1,100,2|0,0:0|0:0,0:0:0:0:
112,204,162178,2,0,L|172:116,1,100,8|0,0:0|0:0,0:0:0:0:
388,124,162490,1,2,0:0:0:0:
260,120,162646,1,0,0:0:0:0:
388,132,162803,6,0,L|464:236,1,100,2|0,0:0|0:0,0:0:0:0:
304,160,163115,2,0,L|192:236,1,100
44,220,163428,2,0,L|144:144,1,100,8|0,0:0|0:0,0:0:0:0:
276,188,163740,2,0,L|332:92,1,100,2|0,0:0|0:0,0:0:0:0:
444,232,164053,5,2,0:0:0:0:
444,240,164209,1,0,0:0:0:0:
220,248,164365,1,2,0:0:0:0:
220,248,164521,1,0,0:0:0:0:
48,168,164678,1,8,0:0:0:0:
48,168,164834,1,0,0:0:0:0:
176,120,164990,1,2,0:0:0:0:
176,120,165146,1,0,0:0:0:0:
444,128,165303,5,2,0:0:0:0:
444,128,165459,1,0,0:0:0:0:
240,124,165615,1,0,0:0:0:0:
56,240,165928,2,0,L|140:176,2,100,8|0|0,0:0|0:0|0:0,0:0:0:0:
400,208,166553,1,2,0:0:0:0:
128,184,166865,2,0,L|88:236,2,50
288,192,167178,1,8,0:0:0:0:
288,192,167490,1,0,0:0:0:0:
288,192,167646,1,0,0:0:0:0:
132,192,167803,1,4,0:0:0:0:
30,231,175303,6,0,L|80:128,3,100,2|0|0|0,0:0|0:0|0:0|0:0,0:0:0:0:
200,160,175941,2,0,L|288:252,3,100,8|0|2|2,0:0|0:0|0:0|0:0,0:0:0:0:
420,128,176586,2,0,L|300:132,3,100,2|0|2|0,0:0|0:0|0:0|0:0,0:0:0:0:
120,156,177260,1,8,0:0:0:0:
280,88,177452,1,0,0:0:0:0:
396,80,177637,1,0,0:0:0:0:
476,84,177822,1,0,0:0:0:0:
188,204,178005,6,0,L|136:168,2,50,4|0|0,0:0|0:0|0:0,0:0:0:0:
284,204,178317,1,0,0:0:0:0:
116,204,178473,1,2,0:0:0:0:
248,204,178630,2,0,L|300:168,2,50,8|0|0,0:0|0:0|0:0,0:0:0:0:
160,200,178942,1,2,0:0:0:0:
320,204,179098,1,0,0:0:0:0:
164,104,179255,6,0,L|164:160,2,50,2|0|0,0:0|0:0|0:0,0:0:0:0:
60,100,179567,1,0,0:0:0:0:
220,96,179723,1,2,0:0:0:0:
352,100,179880,2,0,L|396:136,2,50,8|0|0,0:0|0:0|0:0,0:0:0:0:
244,64,180192,1,2,0:0:0:0:
392,60,180348,1,0,0:0:0:0:
236,196,180505,5,2,0:0:0:0:
264,136,180583,1,0,0:0:0:0:
304,112,180661,1,0,0:0:0:0:
128,204,180817,1,2,0:0:0:0:
400,208,181130,1,8,0:0:0:0:
172,132,181442,1,0,0:0:0:0:
304,128,181598,1,0,0:0:0:0:
101,202,181755,2,0,L|171:131,1,100
352,144,182067,2,0,L|408:188,2,50
228,148,182380,5,8,0:0:0:0:
120,128,182692,1,0,0:0:0:0:
120,128,182848,1,0,0:0:0:0:
288,244,183005,1,2,0:0:0:0:
240,208,183083,1,0,0:0:0:0:
200,176,183161,1,0,0:0:0:0:
344,168,183317,1,0,0:0:0:0:
336,172,183473,1,2,0:0:0:0:
224,244,183630,5,8,0:0:0:0:
268,208,183708,1,0,0:0:0:0:
312,176,183786,1,0,0:0:0:0:
164,168,183942,1,2,0:0:0:0:
392,96,184255,1,2,0:0:0:0:
328,72,184333,1,0,0:0:0:0:
264,96,184412,1,0,0:0:0:0:
396,100,184567,1,2,0:0:0:0:
104,92,184880,1,8,0:0:0:0:
168,68,184958,1,0,0:0:0:0:
232,92,185037,1,0,0:0:0:0:
104,92,185192,1,2,0:0:0:0:
392,88,185505,6,0,L|448:120,2,50,2|0|0,0:0|0:0|0:0,0:0:0:0:
236,128,185817,2,0,L|224:236,1,100
380,220,186130,2,0,L|424:272,2,50,8|0|0,0:0|0:0|0:0,0:0:0:0:
228,228,186442,2,0,L|308:156,1,100
412,152,186755,2,0,L|452:183,2,50,2|0|0,0:0|0:0|0:0,0:0:0:0:
256,140,187067,2,0,L|221:176,2,50
72,144,187380,1,8,0:0:0:0:
72,84,187692,1,0,0:0:0:0:
72,84,187848,1,0,0:0:0:0:
104,128,188005,6,0,L|64:160,3,50,2|0|0|0,0:0|0:0|0:0|0:0,0:0:0:0:
20,196,188317,2,0,L|44:248,3,50,0|0|2|0,0:0|0:0|0:0|0:0,0:0:0:0:
96,256,188630,2,0,L|144:228,3,50,8|0|0|0,0:0|0:0|0:0|0:0,0:0:0:0:
184,204,188942,2,0,L|228:180,1,50,2|0,0:0|0:0,0:0:0:0:
268,144,189098,2,0,L|316:116,1,50
364,120,189255,6,0,L|404:152,3,50,2|0|0|0,0:0|0:0|0:0|0:0,0:0:0:0:
448,188,189567,2,0,L|424:240,3,50,2|0|0|0,0:0|0:0|0:0|0:0,0:0:0:0:
372,248,189880,2,0,L|324:220,3,50,8|0|0|0,0:0|0:0|0:0|0:0,0:0:0:0:
284,196,190192,2,0,L|240:172,1,50,2|0,0:0|0:0,0:0:0:0:
200,136,190348,2,0,L|152:108,1,50
100,104,190505,6,0,L|60:152,3,50,2|0|0|0,0:0|0:0|0:0|0:0,0:0:0:0:
136,180,190817,2,0,L|176:132,3,50,0|0|2|0,0:0|0:0|0:0|0:0,0:0:0:0:
240,104,191130,2,0,L|296:88,1,50,8|0,0:0|0:0,0:0:0:0:
360,108,191286,2,0,L|384:160,1,50
320,188,191442,2,0,L|264:216,1,50,2|0,0:0|0:0,0:0:0:0:
212,232,191598,2,0,L|152:220,1,50
92,200,191755,6,0,L|48:156,3,50,2|0|0|0,0:0|0:0|0:0|0:0,0:0:0:0:
128,112,192067,1,0,0:0:0:0:
200,92,192145,1,0,0:0:0:0:
264,88,192223,1,0,0:0:0:0:
320,92,192301,1,0,0:0:0:0:
392,92,192380,2,0,L|444:68,1,50,8|0,0:0|0:0,0:0:0:0:
484,96,192536,2,0,L|432:72,1,50
392,92,192692,2,0,L|444:68,1,50
484,96,192848,2,0,L|432:72,1,50
408,128,193005,6,0,L|448:160,3,50,2|0|0|0,0:0|0:0|0:0|0:0,0:0:0:0:
492,196,193317,2,0,L|468:248,3,50,0|0|2|0,0:0|0:0|0:0|0:0,0:0:0:0:
416,256,193630,2,0,L|368:228,3,50,8|0|0|0,0:0|0:0|0:0|0:0,0:0:0:0:
328,204,193942,2,0,L|284:180,1,50,2|0,0:0|0:0,0:0:0:0:
244,144,194098,2,0,L|196:116,1,50
148,120,194255,6,2,L|108:152,3,50
64,188,194567,2,0,L|88:240,3,50
140,248,194880,2,0,L|188:220,3,50
228,196,195192,2,0,L|272:172,1,50
312,136,195348,2,0,L|360:108,1,50
412,104,195505,6,0,L|452:152,3,50,2|0|0|0,0:0|0:0|0:0|0:0,0:0:0:0:
376,180,195817,2,0,L|336:132,3,50,0|0|2|0,0:0|0:0|0:0|0:0,0:0:0:0:
272,104,196130,2,0,L|216:88,1,50,8|0,0:0|0:0,0:0:0:0:
152,108,196286,2,0,L|128:160,1,50
192,188,196442,2,0,L|248:216,1,50,2|0,0:0|0:0,0:0:0:0:
300,232,196598,2,0,L|360:220,1,50
420,200,196755,6,0,L|464:156,3,50,2|0|0|0,0:0|0:0|0:0|0:0,0:0:0:0:
408,116,197067,1,2,0:0:0:0:
324,96,197145,1,0,0:0:0:0:
223,90,197223,1,0,0:0:0:0:
144,88,197301,1,0,0:0:0:0:
56,88,197380,1,8,0:0:0:0:
56,88,197692,2,0,L|100:132,3,50
144,224,198005,6,0,L|264:164,1,100,2|0,0:0|0:0,0:0:0:0:
96,152,198317,1,0,0:0:0:0:
300,152,198630,2,0,L|348:108,2,50,8|0|0,0:0|0:0|0:0,0:0:0:0:
412,156,198942,1,0,0:0:0:0:
112,172,199255,6,0,L|60:116,2,50,2|0|0,0:0|0:0|0:0,0:0:0:0:
12,176,199567,1,0,0:0:0:0:
284,188,199880,2,0,L|188:108,1,100,8|0,0:0|0:0,0:0:0:0:
376,108,200192,1,0,0:0:0:0:
248,244,200505,6,0,L|300:196,2,50,2|0|0,0:0|0:0|0:0,0:0:0:0:
180,244,200739,1,0,0:0:0:0:
104,220,200817,2,0,L|20:120,1,100
216,168,201130,2,0,L|276:120,2,50,8|0|0,0:0|0:0|0:0,0:0:0:0:
108,156,201442,2,0,L|220:60,1,100
376,100,201755,6,0,L|480:204,1,100,2|0,0:0|0:0,0:0:0:0:
272,224,202067,2,0,L|235:257,2,50
92,244,202380,1,8,0:0:0:0:
248,176,202692,1,0,0:0:0:0:
208,152,202770,1,0,0:0:0:0:
156,120,202848,1,0,0:0:0:0:
120,92,202926,1,0,0:0:0:0:
72,68,203005,6,0,L|184:24,1,100,2|0,0:0|0:0,0:0:0:0:
304,112,203317,2,0,L|352:40,3,50,0|0|2|0,0:0|0:0|0:0|0:0,0:0:0:0:
368,164,203630,2,0,L|244:192,1,100,8|0,0:0|0:0,0:0:0:0:
112,200,203942,1,0,0:0:0:0:
160,164,204020,1,0,0:0:0:0:
188,116,204098,1,2,0:0:0:0:
16,196,204255,6,0,L|16:80,1,100,2|0,0:0|0:0,0:0:0:0:
188,116,204567,2,0,L|248:180,1,50
252,188,204723,1,0,0:0:0:0:
448,200,204880,2,0,L|340:152,1,100,8|0,0:0|0:0,0:0:0:0:
188,116,205192,2,0,L|248:180,1,50,2|0,0:0|0:0,0:0:0:0:
252,188,205348,1,0,0:0:0:0:
84,148,205505,6,2,L|180:76,1,100
344,200,205817,2,0,L|252:108,1,100
412,132,206130,2,0,L|404:72,3,50,8|0|0|0,0:0|0:0|0:0|0:0,0:0:0:0:
356,72,206442,2,0,L|316:28,3,50,2|0|2|0,0:0|0:0|0:0|0:0,0:0:0:0:
404,24,206755,1,2,0:0:0:0:
36,140,207067,5,4,0:0:0:0:
136,144,207145,1,0,0:0:0:0:
232,144,207223,1,0,0:0:0:0:
324,144,207301,1,0,0:0:0:0:
432,144,207380,1,2,0:0:0:0:
256,192,207536,12,0,209255,0:0:0:0:
