osu file format v12

[General]
AudioFilename: [Dragon Crisis! OST] Run&Gun.MP3
AudioLeadIn: 2000
PreviewTime: 108615
Countdown: 0
SampleSet: Soft
StackLeniency: 0.7
Mode: 0
LetterboxInBreaks: 1

[Editor]
DistanceSpacing: 1
BeatDivisor: 4
GridSize: 4

[Metadata]
Title:Run & Gun
TitleUnicode:Run & Gun
Artist:Makoto Miyazaki
ArtistUnicode:宮崎 誠
Creator:[Pisces]
Version:Normal
Source:Dragon Crisis!
Tags:
BeatmapID:228006
BeatmapSetID:82346

[Difficulty]
HPDrainRate:4
CircleSize:3
OverallDifficulty:4
ApproachRate:5
SliderMultiplier:1.2
SliderTickRate:1

[Events]
//Background and Video events
0,0,"bg.jpg",1,1
//Break Periods
2,10943,14595
2,61311,62595
2,89259,95438
//Storyboard Layer 0 (Background)
//Storyboard Layer 1 (Fail)
//Storyboard Layer 2 (Pass)
//Storyboard Layer 3 (Foreground)
//Storyboard Sound Samples
//Background Colour Transformations
3,100,163,162,255

[TimingPoints]
638,315.789473684211,4,2,1,70,1,0
20216,-100,4,2,1,60,0,0
45795,-100,4,3,0,60,0,0
45953,-100,4,2,1,60,0,0
50532,-100,4,3,0,60,0,0
50848,-100,4,2,1,60,0,0
55585,-100,4,3,0,60,0,0
55743,-100,4,2,1,60,0,0
60638,-100,4,2,2,60,0,0
65690,-100,4,3,0,70,0,0
66322,-100,4,2,1,70,0,1
83374,-100,4,3,0,70,0,1
83690,-100,4,2,1,70,0,1
86532,-100,4,2,1,70,0,0
98532,-100,4,3,0,70,0,0
98690,-100,4,2,1,70,0,0
103901,-100,4,3,0,70,0,0
104216,-100,4,2,1,70,0,0
108638,-100,4,2,1,50,0,0
109269,-100,4,2,1,70,0,1
114006,-100,4,3,0,70,0,1
114322,-100,4,2,1,70,0,1
129480,-100,4,2,1,40,0,0
131848,-100,4,2,1,40,0,0
137059,-100,4,2,1,5,0,0

[Colours]
Combo1 : 255,0,128
Combo2 : 0,128,192
Combo3 : 255,255,0
Combo4 : 255,0,0

[HitObjects]
92,188,637,1,4,0:0:0:0:
211,162,953,2,0,P|216:216|176:280,2,120,8|0|8,0:0|0:0|0:0,0:0:0:0:
136,72,1901,2,0,P|180:48|256:56,1,120,0|8,0:0|0:0,0:0:0:0:
324,148,2532,2,0,P|384:152|448:112,1,120,0|8,0:0|0:0,0:0:0:0:
504,224,3164,1,0,0:0:0:0:
392,264,3480,6,0,P|392:328|344:392,2,120,8|0|8,0:0|0:0|0:0,0:0:0:0:
280,304,4427,1,0,0:0:0:0:
160,280,4743,2,0,P|168:208|144:160,1,120,0|0,0:0|0:0,0:0:0:0:
272,176,5374,1,0,0:0:0:0:
384,144,5690,1,4,0:0:0:0:
304,56,6006,6,0,P|368:24|436:48,2,120,8|0|8,0:0|0:0|0:0,0:0:0:0:
272,176,6953,2,0,P|216:152|192:80,1,120,0|8,0:0|0:0,0:0:0:0:
72,96,7585,1,0,0:0:0:0:
32,208,7901,1,8,0:0:0:0:
264,256,8532,5,8,0:0:0:0:
384,280,8848,1,0,0:0:0:0:
464,192,9164,1,8,0:0:0:0:
256,192,9480,12,4,10743,0:0:0:0:
256,192,15795,12,0,18006,0:0:0:0:
120,136,18638,5,0,0:0:0:0:
296,296,19269,1,0,0:0:0:0:
408,256,19585,2,0,P|424:192|472:152,1,120
400,72,20216,1,8,0:0:0:0:
279,73,20532,1,8,0:0:0:0:
256,192,20848,6,0,P|200:252|49:208,1,240,12|0,0:0|0:0,0:0:0:0:
149,143,21795,1,8,0:0:0:0:
253,84,22111,2,0,P|316:94|360:150,1,120,0|8,0:0|0:0,0:0:0:0:
364,252,22743,2,0,P|387:314|451:346,1,120,0|8,0:0|0:0,0:0:0:0:
481,233,23374,5,0,0:0:0:0:
406,138,23690,2,0,P|300:143|245:263,1,240,8|8,0:0|0:0,0:0:0:0:
156,336,24638,1,0,0:0:0:0:
68,256,24953,2,8,P|88:204|64:128,2,120,8|0|8,0:0|0:0|0:0,0:0:0:0:
184,220,25901,6,0,P|176:108|88:24,2,240,8|8|8,0:0|0:0|0:0,0:0:0:0:
252,324,27480,1,8,0:0:0:0:
352,256,27795,2,0,L|472:308,1,120,0|8,0:0|0:0,0:0:0:0:
416,192,28427,2,8,L|296:140,1,120,0|8,0:0|0:0,0:0:0:0:
212,220,29059,2,0,P|152:224|36:80,2,240,8|8|8,0:0|0:0|0:0,0:0:0:0:
180,336,30638,1,4,0:0:0:0:
296,304,30953,6,0,P|336:316|428:284,1,120,4|0,0:0|0:0,0:0:0:0:
344,196,31585,2,0,P|408:160|432:116,1,120,8|0,0:0|0:0,0:0:0:0:
344,36,32216,2,0,P|304:52|248:232,2,240,8|8|8,0:0|0:0|0:0,0:0:0:0:
448,96,33795,5,8,0:0:0:0:
392,204,34111,1,0,0:0:0:0:
280,248,34427,1,8,0:0:0:0:
292,140,34743,2,0,P|228:128|168:168,1,120,0|8,0:0|0:0,0:0:0:0:
116,252,35374,2,0,P|72:208|72:136,1,120,8|0,0:0|0:0,0:0:0:0:
181,152,36006,2,0,P|236:256|176:356,1,240,8|8,0:0|0:0,0:0:0:0:
408,280,37269,5,8,0:0:0:0:
453,169,37585,1,0,0:0:0:0:
408,57,37901,2,0,P|344:40|288:56,1,120
184,99,38532,1,0,0:0:0:0:
225,211,38848,2,0,P|155:217|102:184,2,120
335,258,39795,5,0,0:0:0:0:
435,192,40111,1,0,0:0:0:0:
407,73,40427,2,0,P|254:59|184:99,1,240
88,304,41690,6,0,P|176:224|304:224,2,240,8|0|8,0:0|0:0|0:0,0:0:0:0:
328,336,43585,1,0,0:0:0:0:
416,256,43901,2,0,P|440:160|425:121,2,120,0|8|0,0:0|0:0|0:0,0:0:0:0:
292,219,44848,2,0,P|304:104|416:24,1,240,0|8,0:0|0:0,0:0:0:0:
395,28,45795,1,0,0:0:0:0:
435,142,46111,6,0,B|388:164|352:152|336:120|288:112|244:124|208:160,1,240,4|8,0:0|0:0,0:0:0:0:
112,232,47059,2,0,P|88:168|96:104,2,120
224,264,48006,2,0,L|176:376,1,120,8|0,0:0|0:0,0:0:0:0:
296,344,48638,6,0,P|384:288|432:152,1,240,0|8,0:0|0:0,0:0:0:0:
328,104,49585,1,0,0:0:0:0:
208,96,49901,2,0,L|80:144,1,120
56,256,50532,1,2,0:0:0:0:
160,312,50848,1,0,0:0:0:0:
248,232,51164,1,4,0:0:0:0:
248,232,51795,6,0,P|320:256|480:192,1,240,8|0,0:0|0:0,0:0:0:0:
416,96,52743,1,0,0:0:0:0:
304,144,53059,2,0,P|248:128|184:152,1,120,8|0,0:0|0:0,0:0:0:0:
120,248,53690,6,0,P|72:144|152:40,2,240,0|8|0,0:0|0:0|0:0,0:0:0:0:
208,336,55269,1,0,0:0:0:0:
288,248,55585,1,2,0:0:0:0:
360,344,55901,1,4,0:0:0:0:
440,256,56216,6,0,P|480:208|480:136,1,120,4|0,0:0|0:0,0:0:0:0:
416,56,56848,2,0,P|376:104|376:176,1,120,8|0,0:0|0:0,0:0:0:0:
256,128,57480,1,0,0:0:0:0:
256,128,57795,1,0,0:0:0:0:
152,184,58111,2,0,P|136:112|168:56,1,120,8|0,0:0|0:0,0:0:0:0:
256,128,58743,6,0,P|256:248|152:296,2,240,0|8|0,0:0|0:0|0:0,0:0:0:0:
360,72,60322,1,0,0:0:0:0:
360,192,60638,2,8,L|424:224,3,60
256,192,63795,12,0,65059,0:0:0:0:
256,192,65690,6,0,L|256:264,1,60
96,272,66322,6,0,P|72:232|160:80,1,240,0|8,0:0|0:0,0:0:0:0:
392,80,67585,2,0,P|473:230|449:270,1,240,8|0,0:0|0:0,0:0:0:0:
336,320,68532,1,8,0:0:0:0:
272,216,68848,6,0,P|336:200|400:224,1,120,0|8,0:0|0:0,0:0:0:0:
336,320,69480,2,0,P|288:336|208:312,1,120,0|8,0:0|0:0,0:0:0:0:
160,224,70111,1,0,0:0:0:0:
96,328,70427,1,8,0:0:0:0:
40,224,70743,2,0,P|56:160|104:120,1,120,0|4,0:0|0:0,0:0:0:0:
168,32,71374,6,0,P|225:130|156:226,2,240,4|8|0,0:0|0:0|0:0,0:0:0:0:
94,124,72953,1,8,0:0:0:0:
48,232,73269,2,0,P|64:296|119:328,1,120,8|4,0:0|0:0,0:0:0:0:
256,192,73901,12,4,75795,0:0:0:0:
256,192,76427,6,0,L|256:320,1,120,12|8,0:0|0:0,0:0:0:0:
152,248,77059,2,0,L|48:344,1,120,0|8,0:0|0:0,0:0:0:0:
64,208,77690,2,0,P|144:104|264:112,1,240
320,192,78638,1,8,0:0:0:0:
384,96,78953,6,0,P|432:136|448:208,1,120,0|8,0:0|0:0,0:0:0:0:
400,296,79585,2,0,P|344:320|272:304,1,120,0|8,0:0|0:0,0:0:0:0:
192,240,80216,2,0,P|192:200|128:144,1,120,0|8,0:0|0:0,0:0:0:0:
32,96,80848,1,0,0:0:0:0:
40,216,81164,1,8,0:0:0:0:
138,146,81480,6,0,P|168:112|368:112,1,240,0|0,0:0|0:0,0:0:0:0:
400,208,82427,1,8,0:0:0:0:
312,288,82743,2,0,P|280:240|288:168,2,120,0|8|2,0:0|0:0|0:0,0:0:0:0:
200,336,83690,1,4,0:0:0:0:
256,192,84006,12,4,85901,0:0:0:0:
256,192,86532,12,4,89059,0:0:0:0:
256,192,96638,12,2,98532,0:0:0:0:
176,280,99164,2,0,P|136:208|144:160,1,120,4|0,0:0|0:0,0:0:0:0:
200,64,99795,2,0,P|144:48|64:80,1,120,8|0,0:0|0:0,0:0:0:0:
139,173,100427,2,0,P|256:176|328:72,1,240,0|8,0:0|0:0,0:0:0:0:
325,85,101374,1,0,0:0:0:0:
448,80,101690,5,0,0:0:0:0:
325,85,102006,2,0,P|308:144|324:204,2,120,0|8|0,0:0|0:0|0:0,0:0:0:0:
416,160,102953,2,0,P|416:232|376:280,1,120
280,312,103585,1,8,0:0:0:0:
184,240,103901,1,2,0:0:0:0:
104,328,104216,6,0,P|56:232|136:136,1,240,4|8,0:0|0:0,0:0:0:0:
240,136,105164,1,0,0:0:0:0:
296,32,105480,2,0,P|344:72|352:144,1,120,0|0,0:0|0:0,0:0:0:0:
312,240,106111,2,0,P|320:288|384:344,1,120,8|0,0:0|0:0,0:0:0:0:
432,232,106743,6,0,P|359:130|242:133,2,240,0|8|0,0:0|0:0|0:0,0:0:0:0:
368,337,108322,1,0,0:0:0:0:
265,276,108638,2,0,P|149:248|106:139,1,240,0|4,0:0|0:0,0:0:0:0:
182,55,109585,5,0,0:0:0:0:
295,93,109901,1,8,0:0:0:0:
295,93,110216,1,0,0:0:0:0:
403,42,110532,2,0,P|418:96|387:163,1,120
286,205,111164,2,0,P|319:251|391:273,1,120,8|0,0:0|0:0,0:0:0:0:
280,344,111795,5,0,0:0:0:0:
183,272,112111,1,0,0:0:0:0:
178,152,112427,2,0,P|114:163|80:208,1,120,8|0,0:0|0:0,0:0:0:0:
72,328,113059,1,0,0:0:0:0:
72,328,113374,1,0,0:0:0:0:
183,272,113690,2,0,L|184:352,2,60,8|0|2,0:0|0:0|0:0,0:0:0:0:
304,272,114322,6,0,P|336:280|432:256,1,120,4|0,0:0|0:0,0:0:0:0:
352,168,114953,2,0,P|288:160|224:184,1,120,8|0,0:0|0:0,0:0:0:0:
112,168,115585,2,0,P|88:128|96:56,1,120
208,96,116216,2,0,P|240:196|152:284,1,240,8|0,0:0|0:0,0:0:0:0:
242,339,117164,5,0,0:0:0:0:
347,280,117480,1,8,0:0:0:0:
347,280,117795,1,0,0:0:0:0:
456,328,118111,2,0,P|464:256|432:200,1,120
336,160,118743,2,0,P|264:192|248:344,1,240,8|4,0:0|0:0,0:0:0:0:
128,328,119690,5,0,0:0:0:0:
32,256,120006,2,0,P|88:216|152:216,1,120,8|0,0:0|0:0,0:0:0:0:
208,120,120638,2,0,P|256:112|320:64,1,120
408,136,121269,2,0,L|448:88,2,60,8|0|0,0:0|0:0|0:0,0:0:0:0:
400,256,121901,5,0,0:0:0:0:
288,304,122216,2,0,P|280:240|304:184,2,120,0|8|0,0:0|0:0|0:0,0:0:0:0:
168,288,123164,2,0,P|136:320|48:336,1,120
72,216,123795,2,0,P|176:168|288:240,1,240,8|4,0:0|0:0,0:0:0:0:
368,304,124743,5,0,0:0:0:0:
464,224,125059,1,8,0:0:0:0:
424,112,125374,1,0,0:0:0:0:
304,112,125690,2,0,P|312:56|368:0,1,120
424,112,126322,2,0,P|368:216|240:208,1,240,8|0,0:0|0:0,0:0:0:0:
152,272,127269,5,0,0:0:0:0:
56,200,127585,2,0,P|80:152|72:80,1,120,8|0,0:0|0:0,0:0:0:0:
176,152,128216,2,0,P|229:163|255:236,1,120,8|0,0:0|0:0,0:0:0:0:
368,176,128848,2,8,P|352:292|244:340,1,240
256,192,129795,12,4,131848,0:0:0:0:
256,192,132006,12,0,137059,0:0:0:0:
