osu file format v12

[General]
AudioFilename: [Dragon Crisis! OST] Run&Gun.MP3
AudioLeadIn: 2000
PreviewTime: 108615
Countdown: 0
SampleSet: Soft
StackLeniency: 0.7
Mode: 0
LetterboxInBreaks: 1

[Editor]
DistanceSpacing: 0.8
BeatDivisor: 4
GridSize: 8

[Metadata]
Title:Run & Gun
TitleUnicode:Run & Gun
Artist:Makoto Miyazaki
ArtistUnicode:宮崎 誠
Creator:[Pisces]
Version:Insane
Source:Dragon Crisis!
Tags:
BeatmapID:227942
BeatmapSetID:82346

[Difficulty]
HPDrainRate:7
CircleSize:4
OverallDifficulty:8
ApproachRate:9
SliderMultiplier:1.9
SliderTickRate:1

[Events]
//Background and Video events
0,0,"bg.jpg",1,1
//Break Periods
2,10942,15195
2,61311,63195
2,86732,88459
//Storyboard Layer 0 (Background)
//Storyboard Layer 1 (Fail)
//Storyboard Layer 2 (Pass)
//Storyboard Layer 3 (Foreground)
//Storyboard Sound Samples
//Background Colour Transformations
3,100,163,162,255

[TimingPoints]
638,315.789473684211,4,2,1,70,1,0
5059,-100,4,3,0,70,0,0
5216,-100,4,2,1,70,0,0
45795,-100,4,3,0,70,0,0
45953,-100,4,2,1,70,0,0
55585,-100,4,3,0,70,0,0
55743,-100,4,2,1,70,0,0
60638,-100,4,2,2,70,0,0
65374,-100,4,2,2,40,0,0
65690,-100,4,3,0,70,0,0
66322,-100,4,2,1,70,0,1
86532,-100,4,2,1,70,0,0
93795,-200,4,3,0,70,0,0
94111,-200,4,2,1,70,0,0
94269,-100,4,2,1,70,0,0
98532,-100,4,3,0,70,0,0
98690,-100,4,2,1,70,0,0
103901,-100,4,3,0,70,0,0
104059,-100,4,2,1,70,0,0
108638,-100,4,2,1,50,0,0
108953,-200,4,2,1,50,0,0
109269,-100,4,2,1,70,0,1
114006,-200,4,3,0,70,0,1
114322,-200,4,2,1,70,0,1
114480,-100,4,2,1,70,0,1
124111,-100,4,3,0,70,0,1
124190,-100,4,2,1,70,0,1
124427,-100,4,2,1,70,0,1
129480,-100,4,2,1,40,0,0
131374,-100,4,3,0,40,0,0
131848,-100,4,2,1,40,0,0
137059,-100,4,2,1,5,0,0

[Colours]
Combo1 : 255,0,128
Combo2 : 0,128,192
Combo3 : 255,255,0
Combo4 : 255,0,0

[HitObjects]
72,136,637,1,4,0:0:0:0:
72,136,795,1,0,0:0:0:0:
72,232,953,2,0,L|32:336,1,95,8|0,0:0|0:0,0:0:0:0:
152,184,1269,2,0,L|192:280,1,95
160,96,1585,2,0,L|256:80,1,95,8|0,0:0|0:0,0:0:0:0:
368,208,1901,5,0,0:0:0:0:
424,48,2059,1,0,0:0:0:0:
253,80,2216,1,8,0:0:0:0:
368,208,2374,1,0,0:0:0:0:
448,256,2532,2,0,P|464:200|448:160,1,95,0|0,0:0|0:0,0:0:0:0:
396,332,2848,2,0,P|456:352|496:332,1,95
448,256,3164,5,0,0:0:0:0:
448,256,3322,1,0,0:0:0:0:
368,208,3480,2,0,L|408:112,1,95,8|0,0:0|0:0,0:0:0:0:
288,256,3795,2,0,L|240:152,1,95
296,344,4111,2,0,L|200:328,1,95,8|0,0:0|0:0,0:0:0:0:
104,312,4427,5,0,0:0:0:0:
88,216,4585,1,0,0:0:0:0:
232,236,4743,1,8,0:0:0:0:
202,328,4901,1,0,0:0:0:0:
168,168,5059,2,0,P|128:128|80:120,1,95,2|0,0:0|0:0,0:0:0:0:
160,48,5374,1,4,0:0:0:0:
192,64,5453,1,0,0:0:0:0:
232,72,5532,1,0,0:0:0:0:
272,64,5611,1,0,0:0:0:0:
304,48,5690,6,0,P|352:40|400:56,1,95,4|0,0:0|0:0,0:0:0:0:
344,136,6006,2,0,P|392:152|432:200,1,95,8|0,0:0|0:0,0:0:0:0:
408,376,6322,2,0,P|368:368|332:327,1,95
336,232,6638,2,0,P|384:256|408:304,1,95,8|0,0:0|0:0,0:0:0:0:
335,231,6953,5,0,0:0:0:0:
168,320,7111,1,0,0:0:0:0:
335,231,7269,1,8,0:0:0:0:
144,232,7427,1,0,0:0:0:0:
192,152,7585,2,0,P|136:136|88:152,1,95,0|8,0:0|0:0,0:0:0:0:
144,232,7901,2,0,P|192:248|248:232,1,95,8|0,0:0|0:0,0:0:0:0:
192,152,8216,5,0,0:0:0:0:
192,152,8374,1,0,0:0:0:0:
168,64,8532,1,8,0:0:0:0:
168,64,8690,1,0,0:0:0:0:
312,168,8848,1,0,0:0:0:0:
144,232,9006,1,0,0:0:0:0:
168,64,9164,1,8,0:0:0:0:
144,232,9322,1,0,0:0:0:0:
312,168,9480,5,8,0:0:0:0:
336,184,9559,1,0,0:0:0:0:
352,208,9638,1,0,0:0:0:0:
360,232,9716,1,0,0:0:0:0:
360,264,9795,1,8,0:0:0:0:
352,288,9874,1,0,0:0:0:0:
336,312,9953,1,0,0:0:0:0:
312,328,10032,1,0,0:0:0:0:
288,336,10111,2,0,L|256:296,8,47.5,0|0|0|0|8|0|0|0|4,0:0|0:0|0:0|0:0|0:0|0:0|0:0|0:0|0:0,0:0:0:0:
256,192,15795,12,8,18006,0:0:0:0:
152,352,18322,5,0,0:0:0:0:
144,256,18480,1,0,0:0:0:0:
48,248,18638,2,0,L|16:136,1,95,8|0,0:0|0:0,0:0:0:0:
144,256,18953,1,0,0:0:0:0:
136,160,19111,2,0,L|208:88,1,95,0|8,0:0|0:0,0:0:0:0:
203,92,19427,1,0,0:0:0:0:
296,104,19585,6,0,P|336:136|400:144,1,95
456,96,19901,2,0,P|416:64|352:56,1,95,8|0,0:0|0:0,0:0:0:0:
377,145,20216,2,0,P|400:208|400:240,1,95
336,312,20532,1,8,0:0:0:0:
296,304,20611,1,0,0:0:0:0:
256,296,20690,1,0,0:0:0:0:
216,304,20769,1,0,0:0:0:0:
176,312,20848,6,0,P|80:296|72:192,1,190,4|8,0:0|0:0,0:0:0:0:
152,224,21322,1,0,0:0:0:0:
136,128,21480,2,0,P|184:128|224:160,1,95
296,208,21795,2,0,P|328:152|448:144,2,190,8|0|8,0:0|0:0|0:0,0:0:0:0:
368,272,22585,5,0,0:0:0:0:
328,360,22743,1,0,0:0:0:0:
232,344,22901,1,0,0:0:0:0:
208,247,23059,1,8,0:0:0:0:
208,247,23138,1,0,0:0:0:0:
208,247,23216,1,0,0:0:0:0:
128,192,23374,6,0,P|112:240|117:283,1,95
184,112,23690,2,0,P|152:72|88:56,1,95,8|0,0:0|0:0,0:0:0:0:
56,128,24006,1,0,0:0:0:0:
117,283,24164,1,0,0:0:0:0:
56,128,24322,1,8,0:0:0:0:
224,144,24480,1,0,0:0:0:0:
304,192,24638,1,0,0:0:0:0:
320,160,24716,1,0,0:0:0:0:
320,120,24795,1,0,0:0:0:0:
268,37,24953,6,0,P|312:24|360:32,1,95,8|0,0:0|0:0,0:0:0:0:
416,112,25269,2,0,P|408:200|344:288,1,190,0|8,0:0|0:0,0:0:0:0:
312,296,25664,1,0,0:0:0:0:
272,288,25743,1,0,0:0:0:0:
240,304,25822,1,0,0:0:0:0:
200,296,25901,6,0,P|160:232|48:240,1,190,4|8,0:0|0:0,0:0:0:0:
104,312,26374,2,0,P|144:216|96:152,1,190
240,24,26848,2,0,P|216:64|216:128,1,95,8|0,0:0|0:0,0:0:0:0:
98,153,27164,6,0,P|176:112|272:136,1,190,0|8,0:0|0:0,0:0:0:0:
408,256,27638,1,0,0:0:0:0:
368,80,27795,1,0,0:0:0:0:
296,240,27953,1,0,0:0:0:0:
448,152,28111,1,8,0:0:0:0:
64,232,28427,1,0,0:0:0:0:
64,232,28743,6,8,L|96:120,1,95
136,280,29059,2,0,L|208:216,1,95
168,360,29374,2,0,L|264:344,1,95,8|0,0:0|0:0,0:0:0:0:
352,328,29690,6,0,P|360:264|464:192,1,190,0|8,0:0|0:0,0:0:0:0:
424,104,30164,1,0,0:0:0:0:
336,64,30322,1,0,0:0:0:0:
248,96,30480,1,0,0:0:0:0:
160,56,30638,5,8,0:0:0:0:
152,96,30716,1,0,0:0:0:0:
160,136,30795,1,0,0:0:0:0:
184,168,30874,1,0,0:0:0:0:
216,184,30953,1,4,0:0:0:0:
248,96,31111,1,0,0:0:0:0:
312,168,31269,6,0,P|304:224|280:256,1,95,8|0,0:0|0:0,0:0:0:0:
192,272,31585,2,0,P|128:288|96:320,1,95
184,368,31901,2,0,B|240:368|280:336|280:336|368:344,1,190,8|0,0:0|0:0,0:0:0:0:
432,280,32374,1,0,0:0:0:0:
432,280,32532,2,0,L|480:184,1,95,8|0,0:0|0:0,0:0:0:0:
440,40,32848,1,0,0:0:0:0:
400,128,33006,1,0,0:0:0:0:
304,136,33164,1,8,0:0:0:0:
304,136,33243,1,0,0:0:0:0:
304,136,33322,1,0,0:0:0:0:
256,56,33480,6,0,P|216:88|208:144,1,95
152,208,33795,1,8,0:0:0:0:
248,216,33953,1,0,0:0:0:0:
205,128,34111,2,0,P|152:112|104:128,1,95
56,192,34427,1,8,0:0:0:0:
88,24,34585,1,0,0:0:0:0:
56,192,34743,2,0,P|64:256|104:288,1,95
152,344,35059,5,8,0:0:0:0:
240,312,35216,1,0,0:0:0:0:
152,344,35374,1,0,0:0:0:0:
336,336,35532,2,0,P|384:320|440:336,2,95,8|8|0,0:0|0:0|0:0,0:0:0:0:
240,312,36006,6,0,P|272:256|320:232,1,95,4|0,0:0|0:0,0:0:0:0:
392,248,36322,2,0,P|360:168|248:152,2,190,8|0|8,0:0|0:0|0:0,0:0:0:0:
296,239,37111,5,0,0:0:0:0:
208,208,37269,1,0,0:0:0:0:
208,208,37348,1,0,0:0:0:0:
208,208,37427,1,0,0:0:0:0:
120,240,37585,1,8,0:0:0:0:
120,240,37664,1,0,0:0:0:0:
120,240,37743,1,0,0:0:0:0:
192,304,37901,2,0,P|232:344|268:353,1,95
208,208,38216,6,0,P|256:144|360:168,1,190,8|0,0:0|0:0,0:0:0:0:
432,224,38690,2,0,L|456:320,2,95,0|8|0,0:0|0:0|0:0,0:0:0:0:
344,256,39164,2,0,L|296:344,1,95
295,171,39480,2,0,L|208:208,1,95,8|0,0:0|0:0,0:0:0:0:
384,136,39795,5,4,0:0:0:0:
384,136,40111,1,4,0:0:0:0:
304,72,40427,1,8,0:0:0:0:
264,72,40506,1,0,0:0:0:0:
232,88,40585,1,0,0:0:0:0:
208,120,40664,1,0,0:0:0:0:
200,160,40743,1,8,0:0:0:0:
208,200,40822,1,0,0:0:0:0:
232,232,40901,1,0,0:0:0:0:
264,248,40980,1,0,0:0:0:0:
304,248,41059,6,0,P|360:240|408:264,1,95,4|0,0:0|0:0,0:0:0:0:
394,253,41532,1,0,0:0:0:0:
456,328,41690,2,0,P|480:280|464:192,1,142.5,8|0,0:0|0:0,0:0:0:0:
448,152,42006,2,0,P|456:88|480:48,1,95
376,48,42322,5,0,0:0:0:0:
288,120,42480,1,0,0:0:0:0:
192,56,42638,1,0,0:0:0:0:
96,120,42795,1,0,0:0:0:0:
128,232,42953,1,8,0:0:0:0:
240,240,43111,2,0,P|224:296|96:336,1,190
40,280,43585,5,0,0:0:0:0:
40,280,43664,1,0,0:0:0:0:
40,280,43743,1,0,0:0:0:0:
128,232,43901,2,0,P|144:184|200:144,1,95
272,144,44216,2,0,P|352:152|416:120,2,142.5,8|0|0,0:0|0:0|0:0,0:0:0:0:
192,88,44848,6,0,P|128:72|80:88,1,95
56,160,45164,1,0,0:0:0:0:
56,160,45243,1,0,0:0:0:0:
56,160,45322,1,0,0:0:0:0:
80,256,45480,1,8,0:0:0:0:
176,256,45638,1,0,0:0:0:0:
216,344,45795,2,0,P|256:312|272:264,1,95,2|0,0:0|0:0,0:0:0:0:
360,240,46111,6,0,P|416:264|480:336,2,142.5,4|0|0,0:0|0:0|0:0,0:0:0:0:
312,152,46743,1,8,0:0:0:0:
312,152,46901,1,0,0:0:0:0:
216,160,47059,1,0,0:0:0:0:
216,160,47216,1,0,0:0:0:0:
192,248,47374,2,0,P|144:280|72:288,2,95
312,152,47848,1,0,0:0:0:0:
216,160,48006,2,0,P|224:104|272:64,1,95,8|0,0:0|0:0,0:0:0:0:
312,152,48322,2,0,P|352:232|320:328,1,190
232,328,48795,6,0,P|160:304|48:360,1,190
24,256,49269,1,8,0:0:0:0:
24,256,49427,1,0,0:0:0:0:
112,216,49585,2,0,P|80:176|32:160,1,95
200,240,49901,5,8,0:0:0:0:
144,48,50059,1,0,0:0:0:0:
232,216,50216,1,8,0:0:0:0:
112,64,50374,1,0,0:0:0:0:
256,184,50532,2,0,P|288:144|328:120,1,95,8|8,0:0|0:0,0:0:0:0:
416,160,50848,1,8,0:0:0:0:
416,160,50927,1,0,0:0:0:0:
416,160,51006,1,0,0:0:0:0:
416,160,51085,1,0,0:0:0:0:
416,160,51164,6,0,P|424:216|416:264,1,95,4|0,0:0|0:0,0:0:0:0:
418,253,51638,1,0,0:0:0:0:
418,253,51795,2,0,P|360:296|336:328,1,95,8|0,0:0|0:0,0:0:0:0:
345,313,52269,5,0,0:0:0:0:
248,328,52427,2,0,P|216:280|168:256,1,95
91,283,52743,2,0,P|120:336|152:352,1,95
184,261,53059,1,8,0:0:0:0:
120,192,53216,1,0,0:0:0:0:
91,283,53374,1,8,0:0:0:0:
184,261,53532,1,0,0:0:0:0:
120,192,53690,2,0,L|64:104,1,95,8|8,0:0|0:0,0:0:0:0:
68,111,54164,5,0,0:0:0:0:
160,112,54322,2,0,P|216:96|256:56,1,95,8|0,0:0|0:0,0:0:0:0:
336,88,54638,2,0,P|408:112|448:104,1,95,8|0,0:0|0:0,0:0:0:0:
456,200,54953,1,0,0:0:0:0:
456,200,55111,2,0,P|416:256|472:360,1,190
512,272,55585,1,2,0:0:0:0:
416,280,55743,1,0,0:0:0:0:
344,344,55901,2,0,P|280:352|240:328,1,95,4|0,0:0|0:0,0:0:0:0:
304,256,56216,5,4,0:0:0:0:
304,256,56374,2,0,P|200:256|152:336,1,190
253,339,56848,1,8,0:0:0:0:
253,339,57006,2,0,P|216:240|144:216,1,190
56,256,57480,1,0,0:0:0:0:
69,161,57638,1,0,0:0:0:0:
69,161,57795,2,0,P|114:181|144:216,1,95,0|0,0:0|0:0,0:0:0:0:
56,256,58111,5,8,0:0:0:0:
232,168,58269,1,0,0:0:0:0:
136,304,58427,1,0,0:0:0:0:
56,256,58585,1,0,0:0:0:0:
224,264,58743,1,8,0:0:0:0:
152,112,58901,6,0,P|232:64|312:112,1,190
392,152,59374,1,8,0:0:0:0:
392,152,59453,1,0,0:0:0:0:
392,152,59532,1,0,0:0:0:0:
336,232,59690,6,0,L|424:280,1,95
176,232,60006,2,0,L|88:280,1,95,8|0,0:0|0:0,0:0:0:0:
80,184,60322,6,0,L|168:136,1,95,8|0,0:0|0:0,0:0:0:0:
256,176,60638,1,8,0:0:0:0:
216,320,60795,1,8,0:0:0:0:
336,232,60953,1,8,0:0:0:0:
176,232,61111,1,8,0:0:0:0:
256,192,63795,12,0,65374,0:0:0:0:
256,192,65690,5,0,0:0:0:0:
256,192,65848,1,0,0:0:0:0:
32,368,66322,6,0,L|56:272,1,95,4|0,0:0|0:0,0:0:0:0:
128,336,66638,2,0,L|200:264,1,95,8|0,0:0|0:0,0:0:0:0:
240,352,66953,2,0,L|336:336,1,95
416,296,67269,1,8,0:0:0:0:
416,296,67427,1,0,0:0:0:0:
472,40,67585,6,0,L|448:136,1,95
376,72,67901,2,0,L|304:144,1,95,8|0,0:0|0:0,0:0:0:0:
264,56,68216,2,0,L|168:72,1,95
88,120,68532,2,0,P|96:176|72:232,1,95,8|0,0:0|0:0,0:0:0:0:
64,304,68848,5,0,0:0:0:0:
152,272,69006,1,0,0:0:0:0:
240,304,69164,2,0,P|320:320|344:312,1,95,8|0,0:0|0:0,0:0:0:0:
432,320,69480,2,0,P|424:240|496:160,2,190,0|8|0,0:0|0:0|0:0,0:0:0:0:
352,144,70427,5,8,0:0:0:0:
264,112,70585,1,0,0:0:0:0:
184,168,70743,1,0,0:0:0:0:
184,168,70822,1,0,0:0:0:0:
184,168,70901,1,0,0:0:0:0:
104,120,71059,2,0,P|94:176|118:233,1,95,8|0,0:0|0:0,0:0:0:0:
184,264,71374,6,0,P|136:304|105:307,1,95
272,232,71690,2,0,P|272:280|240:336,1,95,8|0,0:0|0:0,0:0:0:0:
320,152,72006,2,0,P|368:184|488:152,1,190,0|8,0:0|0:0,0:0:0:0:
456,64,72480,1,0,0:0:0:0:
456,64,72559,1,0,0:0:0:0:
456,64,72638,6,0,L|488:153,1,95
456,243,72953,2,0,L|359:287,1,95,8|0,0:0|0:0,0:0:0:0:
282,321,73269,2,0,P|244:292|185:283,1,95
103,296,73585,1,4,0:0:0:0:
82,263,73664,1,0,0:0:0:0:
78,225,73743,1,0,0:0:0:0:
85,187,73822,1,0,0:0:0:0:
110,158,73901,6,0,P|171:139|207:18,1,190,4|0,0:0|0:0,0:0:0:0:
179,226,74374,2,0,P|202:152|133:65,1,190,4|0,0:0|0:0,0:0:0:0:
269,194,74848,2,0,P|205:138|110:158,1,190,4|0,0:0|0:0,0:0:0:0:
331,266,75322,2,0,P|397:276|443:259,2,95,4|0|0,0:0|0:0|0:0,0:0:0:0:
350,172,75795,1,4,0:0:0:0:
350,172,75953,1,0,0:0:0:0:
331,266,76111,1,4,0:0:0:0:
331,266,76190,1,0,0:0:0:0:
331,266,76269,1,0,0:0:0:0:
240,288,76427,6,0,P|168:304|136:336,1,95,4|0,0:0|0:0,0:0:0:0:
56,328,76743,2,0,P|72:264|112:232,1,95,8|0,0:0|0:0,0:0:0:0:
176,200,77059,2,0,P|144:152|144:96,1,95
192,40,77374,2,0,P|224:88|224:144,1,95,8|0,0:0|0:0,0:0:0:0:
320,144,77690,5,0,0:0:0:0:
320,144,77848,1,0,0:0:0:0:
336,240,78006,1,8,0:0:0:0:
336,240,78164,1,0,0:0:0:0:
432,264,78322,2,0,L|464:168,1,95
336,240,78638,2,0,L|296:344,1,95,8|0,0:0|0:0,0:0:0:0:
208,312,78953,6,0,P|128:280|32:320,1,190,0|8,0:0|0:0,0:0:0:0:
120,192,79427,1,0,0:0:0:0:
208,72,79585,2,0,P|128:104|32:64,2,190,0|8|0,0:0|0:0|0:0,0:0:0:0:
296,40,80374,2,0,P|304:96|272:144,1,95,0|8,0:0|0:0,0:0:0:0:
208,72,80690,1,0,0:0:0:0:
208,168,80848,2,0,P|248:208|296:216,1,95,0|8,0:0|0:0,0:0:0:0:
368,176,81164,2,0,P|424:168|472:192,1,95,8|0,0:0|0:0,0:0:0:0:
408,264,81480,6,0,L|384:360,1,95
312,256,81795,2,0,L|280:360,1,95,8|0,0:0|0:0,0:0:0:0:
192,344,82111,1,0,0:0:0:0:
192,344,82269,1,0,0:0:0:0:
128,272,82427,1,8,0:0:0:0:
128,272,82506,1,0,0:0:0:0:
128,272,82585,1,0,0:0:0:0:
40,240,82743,6,0,P|104:184|208:224,1,190,0|8,0:0|0:0,0:0:0:0:
288,240,83216,1,0,0:0:0:0:
288,240,83374,2,0,P|360:232|384:208,1,95
312,144,83690,1,4,0:0:0:0:
312,144,83769,1,0,0:0:0:0:
312,144,83848,1,0,0:0:0:0:
256,68,84006,1,4,0:0:0:0:
256,192,84085,12,4,86532,0:0:0:0:
144,176,89059,5,4,0:0:0:0:
144,176,89216,1,0,0:0:0:0:
72,232,89374,2,0,P|112:264|176:256,1,95,8|0,0:0|0:0,0:0:0:0:
232,216,89690,2,0,P|296:208|336:232,1,95
352,312,90006,2,0,P|408:256|384:152,1,190,8|0,0:0|0:0,0:0:0:0:
296,131,90480,5,0,0:0:0:0:
296,131,90638,2,0,P|304:187|328:227,1,95,8|0,0:0|0:0,0:0:0:0:
387,155,90953,1,0,0:0:0:0:
387,155,91111,1,8,0:0:0:0:
359,64,91269,2,0,P|301:42|252:55,1,95,8|0,0:0|0:0,0:0:0:0:
200,112,91585,5,0,0:0:0:0:
112,72,91743,1,0,0:0:0:0:
32,120,91901,2,0,L|48:224,1,95,8|0,0:0|0:0,0:0:0:0:
142,357,92216,2,0,L|128:264,1,95
224,256,92532,2,0,L|240:360,1,95,8|0,0:0|0:0,0:0:0:0:
320,296,92848,1,0,0:0:0:0:
488,344,93006,1,0,0:0:0:0:
440,176,93164,1,8,0:0:0:0:
320,296,93322,1,0,0:0:0:0:
488,344,93480,2,0,L|416:272,1,95,0|0,0:0|0:0,0:0:0:0:
377,110,93795,6,0,P|400:152|440:176,1,95,2|4,0:0|0:0,0:0:0:0:
288,80,94269,5,0,0:0:0:0:
377,110,94427,2,0,P|336:160|288:168,1,95,8|0,0:0|0:0,0:0:0:0:
207,121,94743,2,0,P|232:96|288:80,1,95
112,112,95059,1,8,0:0:0:0:
72,200,95216,1,0,0:0:0:0:
144,264,95374,5,0,0:0:0:0:
207,121,95532,1,0,0:0:0:0:
72,200,95690,1,8,0:0:0:0:
224,216,95848,1,0,0:0:0:0:
264,304,96006,2,0,P|328:288|352:256,1,95,0|8,0:0|0:0,0:0:0:0:
480,136,96322,2,0,P|440:160|424:209,1,95,8|0,0:0|0:0,0:0:0:0:
440,304,96638,5,0,0:0:0:0:
440,304,96795,1,0,0:0:0:0:
320,88,96953,1,8,0:0:0:0:
320,88,97111,1,0,0:0:0:0:
240,136,97269,2,0,P|192:176|144:192,1,95
320,88,97585,2,0,P|360:48|416:32,1,95,8|0,0:0|0:0,0:0:0:0:
240,48,97901,2,0,P|184:64|160:112,1,95
320,176,98216,2,0,P|376:160|400:128,1,95,8|0,0:0|0:0,0:0:0:0:
480,88,98532,5,2,0:0:0:0:
480,184,98690,1,8,0:0:0:0:
480,224,98769,1,0,0:0:0:0:
460,256,98848,1,0,0:0:0:0:
428,276,98927,1,0,0:0:0:0:
392,280,99006,1,0,0:0:0:0:
356,268,99085,1,0,0:0:0:0:
324,244,99164,6,0,P|268:268|244:308,1,95,4|0,0:0|0:0,0:0:0:0:
160,336,99480,2,0,L|56:304,1,95,8|0,0:0|0:0,0:0:0:0:
80,216,99795,2,0,L|192:256,1,95
248,192,100111,2,0,P|328:152|416:200,2,190,8|0|8,0:0|0:0|0:0,0:0:0:0:
160,152,100901,1,0,0:0:0:0:
160,152,100980,1,0,0:0:0:0:
160,152,101059,2,0,P|112:112|72:112,1,95
176,240,101374,2,0,P|224:280|264:280,1,95,8|0,0:0|0:0,0:0:0:0:
408,264,101690,5,0,0:0:0:0:
272,192,101848,1,0,0:0:0:0:
336,328,102006,1,8,0:0:0:0:
368,176,102164,1,0,0:0:0:0:
254,281,102322,1,0,0:0:0:0:
176,328,102480,5,0,0:0:0:0:
104,264,102638,1,8,0:0:0:0:
144,176,102795,1,0,0:0:0:0:
72,112,102953,2,0,P|96:72|160:40,1,95
208,104,103269,1,8,0:0:0:0:
208,104,103348,1,0,0:0:0:0:
208,104,103427,1,0,0:0:0:0:
296,80,103585,2,0,P|272:40|208:8,2,95,0|0|2,0:0|0:0|0:0,0:0:0:0:
360,152,104059,5,0,0:0:0:0:
360,152,104138,1,0,0:0:0:0:
360,152,104216,2,0,L|456:120,1,95,4|0,0:0|0:0,0:0:0:0:
448,216,104532,2,0,L|352:248,1,95,8|0,0:0|0:0,0:0:0:0:
360,152,104848,1,0,0:0:0:0:
304,328,105006,1,0,0:0:0:0:
184,96,105164,1,8,0:0:0:0:
128,272,105322,1,0,0:0:0:0:
32,272,105480,6,0,P|56:208|104:176,1,95,0|0,0:0|0:0,0:0:0:0:
216,272,105795,2,0,P|192:336|173:353,1,95,8|0,0:0|0:0,0:0:0:0:
176,184,106111,1,0,0:0:0:0:
144,16,106269,1,0,0:0:0:0:
312,56,106427,1,8,0:0:0:0:
176,184,106585,1,8,0:0:0:0:
96,232,106743,6,0,P|88:176|112:128,1,95
176,184,107059,2,0,P|216:136|256:120,1,95,8|0,0:0|0:0,0:0:0:0:
272,216,107374,2,0,P|328:200|384:224,1,95
328,296,107690,2,0,P|272:312|216:288,1,95,8|0,0:0|0:0,0:0:0:0:
144,312,108006,5,0,0:0:0:0:
144,312,108164,1,0,0:0:0:0:
184,224,108322,2,0,L|104:160,1,95,8|0,0:0|0:0,0:0:0:0:
104,72,108638,1,0,0:0:0:0:
109,164,108795,1,0,0:0:0:0:
184,112,108953,6,0,P|151:80|103:72,1,95,0|0,0:0|0:0,0:0:0:0:
336,104,109427,5,0,0:0:0:0:
424,136,109585,2,0,P|480:96|491:73,1,95,8|0,0:0|0:0,0:0:0:0:
366,308,109901,2,0,P|376:272|416:232,1,95
183,342,110216,2,0,P|192:344|272:320,1,95,8|0,0:0|0:0,0:0:0:0:
208,248,110532,5,0,0:0:0:0:
112,272,110690,1,0,0:0:0:0:
88,360,110848,1,8,0:0:0:0:
88,360,111006,1,0,0:0:0:0:
112,272,111164,2,0,L|56:192,1,95,0|8,0:0|0:0,0:0:0:0:
96,104,111480,2,0,L|160:192,1,95,8|0,0:0|0:0,0:0:0:0:
240,136,111795,1,0,0:0:0:0:
232,40,111953,1,0,0:0:0:0:
240,136,112111,6,0,L|336:160,1,95,8|0,0:0|0:0,0:0:0:0:
304,248,112427,2,0,L|208:224,1,95
320,80,112743,2,0,L|416:104,1,95,8|0,0:0|0:0,0:0:0:0:
224,304,113059,2,0,L|128:280,1,95
72,208,113374,1,8,0:0:0:0:
72,208,113532,1,0,0:0:0:0:
216,120,113690,1,0,0:0:0:0:
64,40,113848,1,8,0:0:0:0:
72,208,114006,6,0,P|120:248|144:288,1,95,10|4,0:0|0:0,0:0:0:0:
184,360,114480,5,0,0:0:0:0:
280,344,114638,1,8,0:0:0:0:
296,248,114795,1,0,0:0:0:0:
365,312,114953,2,0,P|336:336|280:344,1,95
400,224,115269,2,0,P|424:168|456:144,1,95,8|0,0:0|0:0,0:0:0:0:
416,56,115585,5,0,0:0:0:0:
496,232,115743,1,0,0:0:0:0:
344,112,115901,2,0,P|280:128|248:120,1,95,8|0,0:0|0:0,0:0:0:0:
168,72,116216,1,0,0:0:0:0:
88,224,116374,1,8,0:0:0:0:
168,72,116532,1,8,0:0:0:0:
184,240,116690,1,0,0:0:0:0:
224,328,116848,6,0,P|272:296|280:240,1,95
299,88,117164,2,0,P|280:104|256:168,1,95,8|0,0:0|0:0,0:0:0:0:
348,199,117480,2,0,P|368:184|392:120,1,95
256,168,117795,2,0,P|208:136|160:136,1,95,8|0,0:0|0:0,0:0:0:0:
348,199,118111,2,0,P|392:240|440:248,1,95
384,336,118427,5,8,0:0:0:0:
192,288,118585,1,0,0:0:0:0:
288,312,118743,1,0,0:0:0:0:
104,264,118901,1,0,0:0:0:0:
104,264,118980,1,0,0:0:0:0:
104,264,119059,2,0,P|80:216|32:192,1,95,8|0,0:0|0:0,0:0:0:0:
40,104,119374,5,4,0:0:0:0:
120,56,119532,1,0,0:0:0:0:
208,96,119690,2,0,P|272:104|320:80,1,95,8|0,0:0|0:0,0:0:0:0:
120,56,120006,5,0,0:0:0:0:
128,152,120164,1,0,0:0:0:0:
216,184,120322,2,0,P|224:240|200:288,1,95,8|0,0:0|0:0,0:0:0:0:
128,320,120638,2,0,P|120:272|136:224,1,95
216,184,120953,1,8,0:0:0:0:
288,128,121111,1,0,0:0:0:0:
368,176,121269,2,0,L|464:144,1,95,0|8,0:0|0:0,0:0:0:0:
464,240,121585,2,0,L|368:272,1,95,8|0,0:0|0:0,0:0:0:0:
288,304,121901,5,0,0:0:0:0:
288,304,122059,1,0,0:0:0:0:
200,344,122216,2,0,P|192:288|224:240,1,95,8|0,0:0|0:0,0:0:0:0:
177,76,122532,2,0,P|184:112|168:168,1,95
78,211,122848,2,0,P|72:176|88:120,1,95,8|0,0:0|0:0,0:0:0:0:
72,304,123164,1,0,0:0:0:0:
168,168,123322,1,0,0:0:0:0:
72,304,123480,1,8,0:0:0:0:
168,168,123638,1,0,0:0:0:0:
264,176,123795,2,0,P|256:128|208:88,1,95,8|0,0:0|0:0,0:0:0:0:
168,168,124111,5,2,0:0:0:0:
176,208,124190,1,0,0:0:0:0:
192,240,124269,1,0,0:0:0:0:
224,264,124348,1,0,0:0:0:0:
264,272,124427,2,0,P|312:296|336:344,1,95,4|0,0:0|0:0,0:0:0:0:
432,336,124743,1,8,0:0:0:0:
432,336,124901,1,0,0:0:0:0:
432,240,125059,2,0,P|432:192|464:136,1,95
459,56,125374,2,0,P|424:56|376:88,1,95,8|0,0:0|0:0,0:0:0:0:
288,128,125690,5,0,0:0:0:0:
200,104,125848,1,0,0:0:0:0:
112,80,126006,1,8,0:0:0:0:
112,80,126085,1,0,0:0:0:0:
112,80,126164,1,0,0:0:0:0:
128,176,126322,2,0,P|80:208|24:208,1,95
200,104,126638,2,0,P|232:56|288:40,1,95,8|0,0:0|0:0,0:0:0:0:
288,128,126953,5,0,0:0:0:0:
304,224,127111,1,0,0:0:0:0:
400,240,127269,2,0,L|472:328,1,95,8|0,0:0|0:0,0:0:0:0:
252,330,127585,2,0,L|344:304,1,95
304,224,127901,2,0,P|328:176|376:144,1,95,8|0,0:0|0:0,0:0:0:0:
208,160,128216,2,0,P|184:208|136:240,1,95
72,288,128532,5,8,0:0:0:0:
64,192,128690,1,0,0:0:0:0:
120,112,128848,1,0,0:0:0:0:
120,112,129006,1,8,0:0:0:0:
200,64,129164,2,0,P|248:72|288:112,1,95,8|0,0:0|0:0,0:0:0:0:
368,144,129480,5,0,0:0:0:0:
352,240,129638,2,0,P|416:232|448:200,2,95
256,264,130111,2,0,P|208:304|192:352,1,95
17,289,130427,2,0,P|48:320|96:336,1,95
56,200,130743,1,0,0:0:0:0:
32,104,130901,1,0,0:0:0:0:
56,200,131059,2,0,P|104:176|128:128,1,95
192,72,131374,1,2,0:0:0:0:
216,160,131532,1,4,0:0:0:0:
312,152,131690,1,8,0:0:0:0:
312,152,131848,1,12,0:0:0:0:
256,192,132006,12,0,137059,0:0:0:0:
