osu file format v12

[General]
AudioFilename: [Dragon Crisis! OST] Run&Gun.MP3
AudioLeadIn: 2000
PreviewTime: 108615
Countdown: 0
SampleSet: Soft
StackLeniency: 0.7
Mode: 0
LetterboxInBreaks: 1

[Editor]
DistanceSpacing: 1
BeatDivisor: 4
GridSize: 4

[Metadata]
Title:Run & Gun
TitleUnicode:Run & Gun
Artist:Makoto Miyazaki
ArtistUnicode:宮崎 誠
Creator:[Pisces]
Version:Hard
Source:Dragon Crisis!
Tags:
BeatmapID:227941
BeatmapSetID:82346

[Difficulty]
HPDrainRate:5
CircleSize:4
OverallDifficulty:5
ApproachRate:7
SliderMultiplier:1.6
SliderTickRate:1

[Events]
//Background and Video events
0,0,"bg.jpg",1,1
//Break Periods
2,10942,14895
2,61311,62895
2,86732,88159
//Storyboard Layer 0 (Background)
//Storyboard Layer 1 (Fail)
//Storyboard Layer 2 (Pass)
//Storyboard Layer 3 (Foreground)
//Storyboard Sound Samples
//Background Colour Transformations
3,100,163,162,255

[TimingPoints]
638,315.789473684211,4,2,1,70,1,0
5059,-100,4,3,0,70,0,0
5216,-100,4,2,1,70,0,0
45795,-100,4,3,0,70,0,0
45953,-100,4,2,1,70,0,0
55585,-100,4,3,0,70,0,0
55743,-100,4,2,1,70,0,0
60638,-100,4,2,2,70,0,0
65848,-100,4,3,0,70,0,0
66322,-100,4,2,1,70,0,1
83374,-100,4,3,0,70,0,1
83690,-100,4,2,1,70,0,1
86532,-100,4,2,1,70,0,0
93795,-100,4,3,0,70,0,0
94111,-100,4,2,1,70,0,0
98532,-100,4,3,0,70,0,0
98690,-100,4,2,1,70,0,0
103901,-100,4,3,0,70,0,0
104216,-100,4,2,1,70,0,0
108638,-100,4,2,1,50,0,0
109269,-100,4,2,1,70,0,1
114006,-100,4,3,0,70,0,1
114322,-100,4,2,1,70,0,1
124111,-100,4,3,0,70,0,1
124427,-100,4,2,1,70,0,1
129480,-100,4,2,1,40,0,0
131374,-100,4,3,0,40,0,0
131848,-100,4,2,1,40,0,0
137059,-100,4,2,1,5,0,0

[Colours]
Combo1 : 255,0,128
Combo2 : 0,128,192
Combo3 : 255,255,0
Combo4 : 255,0,0

[HitObjects]
32,192,637,1,4,0:0:0:0:
136,312,953,1,8,0:0:0:0:
192,160,1269,1,0,0:0:0:0:
192,160,1585,5,0,0:0:0:0:
232,88,1743,1,8,0:0:0:0:
312,80,1901,2,0,P|368:96|408:88,1,80
456,56,2216,2,0,P|464:104|440:152,1,80,8|0,0:0|0:0,0:0:0:0:
384,176,2532,2,0,P|432:208|528:168,2,160,0|8|0,0:0|0:0|0:0,0:0:0:0:
320,320,3480,5,0,0:0:0:0:
216,200,3795,1,8,0:0:0:0:
160,352,4111,1,0,0:0:0:0:
160,352,4269,2,0,P|80:320|56:256,1,160,8|0,0:0|0:0,0:0:0:0:
88,184,4743,2,0,P|120:208|128:264,1,80
55,255,5059,2,0,P|24:232|8:192,1,80,2|0,0:0|0:0,0:0:0:0:
88,184,5374,1,4,0:0:0:0:
192,64,5690,6,0,P|136:24|24:48,2,160,4|0|0,0:0|0:0|0:0,0:0:0:0:
256,208,6638,1,8,0:0:0:0:
384,112,6953,2,0,P|416:160|416:192,1,80
376,248,7269,2,0,P|384:280|440:320,1,80,8|0,0:0|0:0,0:0:0:0:
456,240,7585,1,8,0:0:0:0:
456,240,7743,1,0,0:0:0:0:
456,240,7901,1,0,0:0:0:0:
296,280,8216,6,0,P|232:320|144:288,1,160
40,192,8848,2,0,P|72:168|136:160,1,80,8|0,0:0|0:0,0:0:0:0:
192,168,9164,2,0,P|240:160|272:128,1,80
264,64,9480,2,0,P|320:80|328:176,1,160,8|0,0:0|0:0,0:0:0:0:
256,312,10111,5,8,0:0:0:0:
256,232,10269,1,0,0:0:0:0:
256,152,10427,2,0,L|256:100,4,40,8|0|0|0|4,0:0|0:0|0:0|0:0|0:0,0:0:0:0:
256,192,15795,12,8,18006,0:0:0:0:
256,192,18322,12,0,19585,0:0:0:0:
184,224,19901,6,0,P|160:272|56:296,2,160,8|0|8,0:0|0:0|0:0,0:0:0:0:
136,160,20690,1,0,0:0:0:0:
216,152,20848,2,0,B|262:171|263:237|263:237|313:288,1,160,12|0,0:0|0:0,0:0:0:0:
456,328,21480,1,8,0:0:0:0:
420,172,21795,1,0,0:0:0:0:
420,172,21953,1,0,0:0:0:0:
420,172,22111,1,8,0:0:0:0:
302,277,22427,6,0,P|272:324|232:344,1,80
172,328,22743,2,0,P|108:296|20:312,1,160,8|0,0:0|0:0,0:0:0:0:
20,232,23216,1,0,0:0:0:0:
20,232,23374,1,8,0:0:0:0:
148,140,23690,2,0,L|128:48,1,80
212,72,24006,2,0,L|248:244,2,160,8|0|8,0:0|0:0|0:0,0:0:0:0:
364,120,24953,5,0,0:0:0:0:
244,228,25269,1,0,0:0:0:0:
244,228,25585,5,8,0:0:0:0:
176,268,25743,1,0,0:0:0:0:
104,236,25901,2,0,P|100:292|184:344,1,160
332,292,26532,2,0,P|360:240|464:232,1,160,8|0,0:0|0:0,0:0:0:0:
416,68,27164,1,0,0:0:0:0:
416,68,27322,1,0,0:0:0:0:
416,68,27480,1,0,0:0:0:0:
264,116,27795,2,0,P|304:80|316:44,1,80,8|0,0:0|0:0,0:0:0:0:
232,44,28111,2,0,P|188:96|224:184,2,160
376,116,29059,5,8,0:0:0:0:
300,256,29374,1,0,0:0:0:0:
212,120,29690,1,2,0:0:0:0:
352,192,30006,1,2,0:0:0:0:
352,192,30164,1,0,0:0:0:0:
352,192,30322,1,10,0:0:0:0:
248,312,30638,2,0,L|248:372,4,40,2|0|0|0|4,0:0|0:0|0:0|0:0|0:0,0:0:0:0:
408,300,31269,6,0,P|440:276|464:216,1,80
436,160,31585,2,0,P|424:96|472:16,2,160,8|0|8,0:0|0:0|0:0,0:0:0:0:
360,176,32374,2,0,P|384:256|336:312,1,160
272,356,32848,2,0,L|204:296,1,80
136,328,33164,1,0,0:0:0:0:
100,176,33480,6,0,P|168:148|248:204,1,160
376,104,34111,1,8,0:0:0:0:
376,104,34427,1,0,0:0:0:0:
388,184,34585,1,0,0:0:0:0:
340,248,34743,1,0,0:0:0:0:
196,320,35059,2,8,P|184:240|228:168,2,160,8|0|0,0:0|0:0|0:0,0:0:0:0:
48,260,36006,1,4,0:0:0:0:
72,100,36322,6,0,P|76:144|96:188,1,80,8|0,0:0|0:0,0:0:0:0:
176,172,36638,2,0,P|204:136|208:24,2,160,8|0|8,0:0|0:0|0:0,0:0:0:0:
136,240,37427,1,0,0:0:0:0:
184,304,37585,1,0,0:0:0:0:
344,316,37901,2,0,P|424:288|504:312,1,160,8|0,0:0|0:0,0:0:0:0:
432,160,38532,1,8,0:0:0:0:
272,168,38848,2,0,P|272:112|292:80,2,80,0|0|8,0:0|0:0|0:0,0:0:0:0:
156,56,39480,1,0,0:0:0:0:
116,212,39795,6,4,L|168:368,1,160,4|4,0:0|0:0,0:0:0:0:
316,300,40427,2,0,P|304:208|420:100,1,240,8|0,0:0|0:0,0:0:0:0:
396,24,41059,1,12,0:0:0:0:
84,96,41690,6,0,P|124:160|348:132,1,320,8|0,0:0|0:0,0:0:0:0:
392,80,42480,1,0,0:0:0:0:
484,212,42795,1,0,0:0:0:0:
404,212,42953,2,0,P|352:240|348:336,2,160,8|0|8,0:0|0:0|0:0,0:0:0:0:
416,292,43743,6,0,P|328:256|272:300,1,160
200,308,44216,2,0,L|108:252,1,80,8|0,0:0|0:0,0:0:0:0:
164,192,44532,2,0,L|240:236,1,80
268,160,44848,1,8,0:0:0:0:
268,160,45006,1,0,0:0:0:0:
176,28,45322,1,8,0:0:0:0:
192,108,45480,2,0,P|272:72|344:112,1,160,8|2,0:0|0:0,0:0:0:0:
372,256,46111,5,4,0:0:0:0:
432,204,46269,1,0,0:0:0:0:
288,272,46585,1,0,0:0:0:0:
288,272,46743,2,0,P|248:304|212:304,1,80,8|0,0:0|0:0,0:0:0:0:
140,288,47059,2,0,P|96:276|44:288,1,80
36,204,47374,1,8,0:0:0:0:
80,136,47532,2,0,P|144:124|184:36,1,160
252,92,48006,1,8,0:0:0:0:
96,48,48322,1,8,0:0:0:0:
252,92,48638,5,8,0:0:0:0:
288,164,48795,2,0,P|324:128|296:20,1,160
252,92,49269,2,0,P|216:124|208:176,1,80,8|0,0:0|0:0,0:0:0:0:
144,204,49585,2,0,P|124:252|72:272,1,80
68,192,49901,2,0,L|24:112,4,80
32,264,50690,2,0,P|44:308|152:320,1,160,0|0,0:0|0:0,0:0:0:0:
220,300,51164,1,4,0:0:0:0:
384,328,51480,5,0,0:0:0:0:
384,328,51638,1,0,0:0:0:0:
384,328,51795,1,8,0:0:0:0:
344,172,52111,2,0,P|384:164|436:180,1,80
384,244,52427,2,0,P|336:252|288:232,1,80,8|0,0:0|0:0,0:0:0:0:
260,180,52743,1,0,0:0:0:0:
176,316,53059,2,0,P|144:340|92:340,3,80
116,264,53690,5,8,0:0:0:0:
48,224,53848,1,0,0:0:0:0:
100,72,54164,1,0,0:0:0:0:
176,104,54322,1,8,0:0:0:0:
248,72,54480,1,0,0:0:0:0:
392,144,54795,1,0,0:0:0:0:
392,144,54953,1,8,0:0:0:0:
392,144,55111,2,0,P|372:188|400:292,1,160
356,360,55585,1,2,0:0:0:0:
220,276,55901,1,4,0:0:0:0:
284,132,56216,6,0,P|256:80|212:64,1,80,8|0,0:0|0:0,0:0:0:0:
128,184,56690,2,0,P|80:152|72:116,2,80,0|8|0,0:0|0:0|0:0,0:0:0:0:
124,264,57164,1,0,0:0:0:0:
196,300,57322,1,0,0:0:0:0:
260,252,57480,2,0,P|312:252|352:268,1,80,8|0,0:0|0:0,0:0:0:0:
372,332,57795,2,0,P|408:304|416:264,1,80
388,196,58111,1,8,0:0:0:0:
388,196,58269,1,0,0:0:0:0:
388,196,58427,1,0,0:0:0:0:
256,104,58743,5,8,0:0:0:0:
184,140,58901,2,0,P|144:172|88:176,2,80
116,96,59374,2,0,P|48:128|56:228,1,160,8|0,0:0|0:0,0:0:0:0:
104,256,59848,1,0,0:0:0:0:
104,256,60006,2,0,L|72:344,1,80,8|0,0:0|0:0,0:0:0:0:
156,340,60322,2,0,L|188:248,1,80
240,208,60638,2,8,L|320:184,3,80,8|8|8|8,0:0|0:0|0:0|0:0,0:0:0:0:
256,192,63795,12,0,65374,0:0:0:0:
255,180,65690,1,0,0:0:0:0:
255,180,65848,1,0,0:0:0:0:
32,108,66322,6,0,L|92:192,1,80,12|0,0:0|0:0,0:0:0:0:
136,228,66638,1,8,0:0:0:0:
240,112,66953,2,0,P|280:112|320:148,1,80,8|0,0:0|0:0,0:0:0:0:
340,208,67269,1,8,0:0:0:0:
248,340,67585,6,8,L|256:164,1,160,8|8,0:0|0:0,0:0:0:0:
412,156,68216,2,0,L|404:332,1,160,8|8,0:0|0:0,0:0:0:0:
248,340,68848,2,0,P|168:300|92:308,1,160,0|8,0:0|0:0,0:0:0:0:
44,156,69480,2,0,P|20:228|36:320,2,160,0|8|0,0:0|0:0|0:0,0:0:0:0:
196,100,70427,1,8,0:0:0:0:
196,100,70585,1,0,0:0:0:0:
196,100,70743,1,10,0:0:0:0:
328,192,71059,1,10,0:0:0:0:
352,36,71374,6,0,L|288:112,1,80,4|0,0:0|0:0,0:0:0:0:
376,128,71690,2,0,P|408:176|348:268,2,160,8|0|8,0:0|0:0|0:0,0:0:0:0:
288,260,72638,2,0,L|140:336,1,160,0|8,0:0|0:0,0:0:0:0:
240,204,73269,2,0,L|88:280,1,160,0|4,0:0|0:0,0:0:0:0:
256,192,73901,12,4,75795,0:0:0:0:
384,144,76111,5,4,0:0:0:0:
332,204,76269,1,0,0:0:0:0:
252,192,76427,2,0,L|96:292,1,160,12|8,0:0|0:0,0:0:0:0:
48,132,77059,2,0,L|224:112,1,160,0|8,0:0|0:0,0:0:0:0:
340,204,77690,2,0,P|316:260|212:272,3,160,0|8|0|8,0:0|0:0|0:0|0:0,0:0:0:0:
64,276,78953,5,0,0:0:0:0:
112,124,79269,1,8,0:0:0:0:
112,124,79427,1,0,0:0:0:0:
112,124,79585,2,0,L|176:72,1,80
240,116,79901,2,0,L|104:224,2,160,8|0|8,0:0|0:0|0:0,0:0:0:0:
376,32,80848,1,0,0:0:0:0:
400,192,81164,1,8,0:0:0:0:
400,192,81480,6,0,P|380:244|332:280,1,80
296,304,81795,2,0,P|288:240|344:152,2,160,8|0|8,0:0|0:0|0:0,0:0:0:0:
136,332,82743,1,0,0:0:0:0:
136,332,82901,1,0,0:0:0:0:
136,332,83059,1,8,0:0:0:0:
28,212,83374,1,2,0:0:0:0:
184,176,83690,1,4,0:0:0:0:
184,176,83848,1,0,0:0:0:0:
184,176,84006,1,0,0:0:0:0:
256,192,84164,12,4,86532,0:0:0:0:
188,144,89059,5,12,0:0:0:0:
188,144,89216,1,0,0:0:0:0:
188,144,89374,2,0,L|64:244,2,160,0|8|0,0:0|0:0|0:0,0:0:0:0:
336,204,90322,2,0,P|368:132|332:56,1,160
248,192,90953,2,0,P|260:248|284:272,2,80,8|0|0,0:0|0:0|0:0,0:0:0:0:
352,284,91585,1,0,0:0:0:0:
196,316,91901,6,0,P|132:308|48:348,2,160,0|8|0,0:0|0:0|0:0,0:0:0:0:
352,284,92848,1,0,0:0:0:0:
428,304,93006,1,0,0:0:0:0:
480,244,93164,1,0,0:0:0:0:
436,176,93322,1,0,0:0:0:0:
436,176,93480,2,0,L|460:88,1,80,8|0,0:0|0:0,0:0:0:0:
400,44,93795,2,0,L|352:208,1,160,2|4,0:0|0:0,0:0:0:0:
216,276,94427,5,0,0:0:0:0:
216,276,94585,1,0,0:0:0:0:
216,276,94743,2,0,L|116:320,1,80,8|0,0:0|0:0,0:0:0:0:
100,240,95059,2,0,L|48:316,1,80
16,236,95374,2,0,P|48:172|144:168,2,160,0|0|8,0:0|0:0|0:0,0:0:0:0:
100,240,96164,1,0,0:0:0:0:
100,240,96322,1,0,0:0:0:0:
260,220,96638,6,0,L|412:152,1,160
248,132,97269,2,0,P|312:148|344:232,1,160,8|0,0:0|0:0,0:0:0:0:
224,336,97901,2,0,P|160:320|128:236,1,160,0|0,0:0|0:0,0:0:0:0:
104,80,98532,2,0,L|32:132,4,80,2|0|8|0|4,0:0|0:0|0:0|0:0|0:0,0:0:0:0:
232,148,99480,6,8,P|292:168|380:120,2,160,8|8|0,0:0|0:0|0:0,0:0:0:0:
72,248,100427,2,0,L|88:168,1,80
168,192,100743,2,0,L|216:264,1,80
280,304,101059,1,8,0:0:0:0:
432,256,101374,1,0,0:0:0:0:
316,144,101690,6,0,P|284:84|264:76,1,80
196,84,102006,2,0,P|228:144|248:152,1,80
276,216,102322,1,8,0:0:0:0:
276,216,102638,1,0,0:0:0:0:
148,308,102953,6,0,L|92:144,1,160
212,268,103585,2,0,L|160:116,2,160,8|2|4,0:0|0:0|0:0,0:0:0:0:
356,336,104532,5,0,0:0:0:0:
356,336,104690,1,0,0:0:0:0:
356,336,104848,1,8,0:0:0:0:
420,188,105164,1,0,0:0:0:0:
420,188,105322,1,0,0:0:0:0:
420,188,105480,1,0,0:0:0:0:
260,208,105795,2,0,L|276:124,1,80
196,152,106111,2,0,L|216:56,1,80,8|0,0:0|0:0,0:0:0:0:
292,56,106427,1,0,0:0:0:0:
136,24,106743,6,0,P|92:44|60:148,1,160
144,280,107374,2,0,P|180:208|152:124,1,160,8|0,0:0|0:0,0:0:0:0:
52,252,108006,2,0,P|60:328|136:376,1,160
276,324,108638,2,0,L|360:288,1,80,8|0,0:0|0:0,0:0:0:0:
376,216,108953,2,0,P|380:168|472:100,1,160,8|4,0:0|0:0,0:0:0:0:
461,100,109427,5,0,0:0:0:0:
461,100,109585,1,8,0:0:0:0:
448,260,109901,2,0,P|380:300|300:244,1,160,0|8,0:0|0:0,0:0:0:0:
152,288,110532,1,0,0:0:0:0:
12,212,110848,2,0,L|92:172,2,80,8|0|0,0:0|0:0|0:0,0:0:0:0:
104,80,111480,1,0,0:0:0:0:
104,80,111638,1,0,0:0:0:0:
104,80,111795,6,0,P|148:92|176:128,1,80,4|0,0:0|0:0,0:0:0:0:
224,172,112111,2,0,P|280:192|320:184,1,80,8|0,0:0|0:0,0:0:0:0:
380,176,112427,2,0,P|364:248|276:268,3,160,0|8|0|8,0:0|0:0|0:0|0:0,0:0:0:0:
136,316,113690,2,0,L|120:220,1,80
108,156,114006,1,2,0:0:0:0:
264,128,114322,5,4,0:0:0:0:
304,284,114638,1,0,0:0:0:0:
304,284,114795,1,0,0:0:0:0:
304,284,114953,2,0,P|384:252|412:176,1,160,8|0,0:0|0:0,0:0:0:0:
300,40,115585,2,0,P|264:96|304:184,2,160,8|0|8,0:0|0:0|0:0,0:0:0:0:
116,132,116532,1,8,0:0:0:0:
116,132,116690,1,0,0:0:0:0:
116,132,116848,5,4,0:0:0:0:
96,292,117164,2,0,P|80:232|4:164,2,160,0|8|0,0:0|0:0|0:0,0:0:0:0:
248,244,118111,2,0,L|384:328,1,160,8|0,0:0|0:0,0:0:0:0:
408,168,118743,2,0,L|444:244,4,80,8|0|8|0|4,0:0|0:0|0:0|0:0|0:0,0:0:0:0:
264,96,119690,5,0,0:0:0:0:
172,228,120006,2,0,L|92:184,1,80,8|0,0:0|0:0,0:0:0:0:
36,144,120322,1,0,0:0:0:0:
196,152,120638,2,0,L|116:108,1,80,8|0,0:0|0:0,0:0:0:0:
60,68,120953,1,0,0:0:0:0:
196,152,121269,2,0,P|240:176|228:284,1,160,8|0,0:0|0:0,0:0:0:0:
92,340,121901,6,0,P|108:264|188:228,1,160,4|0,0:0|0:0,0:0:0:0:
336,220,122532,2,0,P|368:276|468:280,1,160,8|0,0:0|0:0,0:0:0:0:
484,216,123164,1,8,0:0:0:0:
448,144,123322,1,0,0:0:0:0:
368,148,123480,1,0,0:0:0:0:
212,112,123795,2,0,P|172:152|56:144,1,160,0|2,0:0|0:0,0:0:0:0:
80,316,124427,5,4,0:0:0:0:
240,328,124743,2,0,L|304:264,1,80
368,312,125059,2,0,L|396:228,1,80,8|0,0:0|0:0,0:0:0:0:
340,176,125374,2,0,P|408:156|468:212,2,160,0|8|0,0:0|0:0|0:0,0:0:0:0:
201,257,126322,2,0,L|249:345,4,80,8|0|8|0|4,0:0|0:0|0:0|0:0|0:0,0:0:0:0:
53,194,127269,6,0,P|84:123|161:108,2,160,0|8|0,0:0|0:0|0:0,0:0:0:0:
133,332,128216,2,0,P|165:267|135:185,1,160
287,129,128848,2,0,L|349:64,1,80,8|0,0:0|0:0,0:0:0:0:
396,132,129164,2,0,L|334:197,1,80,8|0,0:0|0:0,0:0:0:0:
328,268,129480,6,0,P|272:280|220:364,1,160,8|0,0:0|0:0,0:0:0:0:
64,324,130111,2,0,P|96:352|156:356,2,80,8|0|0,0:0|0:0|0:0,0:0:0:0:
48,164,130743,2,0,P|104:196|128:284,1,160
252,184,131374,2,0,L|212:108,1,80,0|8,0:0|0:0,0:0:0:0:
292,88,131690,1,4,0:0:0:0:
328,16,131848,1,4,0:0:0:0:
256,192,131927,12,0,137059,0:0:0:0:
