osu file format v12

[General]
AudioFilename: [Dragon Crisis! OST] Run&Gun.MP3
AudioLeadIn: 2000
PreviewTime: 108615
Countdown: 0
SampleSet: Soft
StackLeniency: 0.7
Mode: 0
LetterboxInBreaks: 1

[Editor]
DistanceSpacing: 1
BeatDivisor: 4
GridSize: 8

[Metadata]
Title:Run & Gun
TitleUnicode:Run & Gun
Artist:Makoto Miyazaki
ArtistUnicode:宮崎 誠
Creator:[Pisces]
Version:Easy
Source:Dragon Crisis!
Tags:
BeatmapID:229920
BeatmapSetID:82346

[Difficulty]
HPDrainRate:2
CircleSize:3
OverallDifficulty:2
ApproachRate:2
SliderMultiplier:0.9
SliderTickRate:1

[Events]
//Background and Video events
0,0,"bg.jpg",1,1
//Break Periods
2,10943,14235
2,61310,62235
2,86732,87499
2,99363,102656
//Storyboard Layer 0 (Background)
//Storyboard Layer 1 (Fail)
//Storyboard Layer 2 (Pass)
//Storyboard Layer 3 (Foreground)
//Storyboard Sound Samples
//Background Colour Transformations
3,100,163,162,255

[TimingPoints]
638,315.789473684211,4,2,1,70,1,0
5059,-100,4,3,0,70,0,0
5216,-100,4,2,1,70,0,0
19585,-100,4,2,1,40,0,0
20216,-100,4,2,1,60,0,0
45795,-100,4,3,0,60,0,0
45953,-100,4,2,1,60,0,0
55585,-100,4,3,0,60,0,0
55743,-100,4,2,1,60,0,0
65848,-100,4,3,0,70,0,0
66322,-100,4,2,1,70,0,1
83374,-100,4,3,0,70,0,1
83690,-100,4,2,1,70,0,1
86532,-100,4,2,1,70,0,0
93795,-100,4,3,0,70,0,0
94111,-100,4,2,1,70,0,0
98532,-100,4,3,0,70,0,0
98690,-100,4,2,1,70,0,0
108638,-100,4,2,1,50,0,0
109269,-100,4,2,1,70,0,1
114006,-100,4,3,0,70,0,1
114322,-100,4,2,1,70,0,1
119059,-100,4,3,0,70,0,1
119374,-100,4,2,1,70,0,1
129480,-100,4,2,1,40,0,0
137059,-100,4,2,1,5,0,0

[Colours]
Combo1 : 255,0,128
Combo2 : 0,128,192
Combo3 : 255,255,0
Combo4 : 255,0,0

[HitObjects]
256,96,638,1,4,0:0:0:0:
88,168,1269,2,0,P|128:248|216:272,2,180,0|0|0,0:0|0:0|0:0,0:0:0:0:
256,96,3164,5,0,0:0:0:0:
424,168,3795,2,0,P|384:248|296:272,2,180,0|0|2,0:0|0:0|0:0,0:0:0:0:
368,96,5374,1,4,0:0:0:0:
296,144,5690,6,0,P|240:152|184:264,1,180,4|0,0:0|0:0,0:0:0:0:
112,88,6953,1,0,0:0:0:0:
72,168,7269,2,0,L|24:256,2,90
160,168,8216,5,0,0:0:0:0:
256,312,8848,1,0,0:0:0:0:
352,160,9480,2,0,P|408:192|432:312,2,180,8|8|4,0:0|0:0|0:0,0:0:0:0:
256,192,15795,12,0,18321,0:0:0:0:
256,192,18638,12,4,20848,0:0:0:0:
424,144,21480,5,8,0:0:0:0:
312,288,22111,1,8,0:0:0:0:
224,264,22427,2,0,L|160:328,2,90,0|8|0,0:0|0:0|0:0,0:0:0:0:
288,200,23374,2,8,P|224:168|136:240,2,180,8|8|8,0:0|0:0|0:0,0:0:0:0:
408,64,25269,5,8,0:0:0:0:
336,120,25585,1,0,0:0:0:0:
264,72,25901,2,0,B|176:104|176:40|80:80,1,180,8|8,0:0|0:0,0:0:0:0:
136,152,26848,2,0,P|128:200|96:248,1,90,0|8,0:0|0:0,0:0:0:0:
280,288,27795,1,8,0:0:0:0:
368,312,28111,1,0,0:0:0:0:
408,232,28427,6,0,B|376:168|304:192|304:192|288:136,1,180,8|8,0:0|0:0,0:0:0:0:
192,152,29374,2,0,L|168:64,2,90,0|8|0,0:0|0:0|0:0,0:0:0:0:
112,192,30322,1,8,0:0:0:0:
128,280,30638,1,0,0:0:0:0:
216,280,30953,6,0,B|304:304|304:248|408:280,1,180,12|8,0:0|0:0,0:0:0:0:
424,96,32216,1,8,0:0:0:0:
368,168,32532,2,0,P|416:184|464:176,2,90,0|8|0,0:0|0:0|0:0,0:0:0:0:
336,88,33480,1,8,0:0:0:0:
256,248,34111,1,8,0:0:0:0:
176,88,34743,1,8,0:0:0:0:
200,176,35059,2,0,P|152:176|112:152,2,90,0|8|0,0:0|0:0|0:0,0:0:0:0:
264,112,36006,6,0,B|312:112|344:64|344:64|432:96,1,180,8|8,0:0|0:0,0:0:0:0:
424,184,36953,1,0,0:0:0:0:
504,232,37269,2,0,P|440:280|352:248,1,180,8|8,0:0|0:0,0:0:0:0:
264,232,38216,1,0,0:0:0:0:
192,288,38532,2,0,P|128:296|48:376,2,180,8|8|12,0:0|0:0|0:0,0:0:0:0:
184,200,40111,1,4,0:0:0:0:
248,144,40427,2,0,L|280:56,1,90,8|0,0:0|0:0,0:0:0:0:
368,88,41059,6,0,L|304:272,1,180,12|8,0:0|0:0,0:0:0:0:
144,328,42322,1,0,0:0:0:0:
48,176,42953,2,0,P|136:144|224:176,1,180,8|0,0:0|0:0,0:0:0:0:
392,160,44216,5,8,0:0:0:0:
400,344,44848,1,0,0:0:0:0:
288,200,45480,2,0,P|320:248|320:288,1,90,0|2,0:0|0:0,0:0:0:0:
216,272,46111,6,0,P|128:288|64:224,1,180,4|8,0:0|0:0,0:0:0:0:
184,96,47374,2,0,P|160:144|168:192,1,90
248,152,48006,2,0,P|296:136|344:152,1,90,8|0,0:0|0:0,0:0:0:0:
256,192,48638,12,4,51164,0:0:0:0:
176,256,51795,1,8,0:0:0:0:
344,312,52427,2,0,B|376:224|312:224|352:128,2,180,0|8|0,0:0|0:0|0:0,0:0:0:0:
176,256,54322,6,0,P|88:240|40:152,2,180,8|0|2,0:0|0:0|0:0,0:0:0:0:
240,192,55901,1,4,0:0:0:0:
152,160,56216,6,0,P|224:96|304:128,1,180,4|8,0:0|0:0,0:0:0:0:
328,200,57164,2,0,B|411:163|376:119|472:96,1,180
504,184,58111,1,8,0:0:0:0:
384,320,58743,5,8,0:0:0:0:
304,280,59059,2,0,L|208:320,2,90,0|8|0,0:0|0:0|0:0,0:0:0:0:
312,192,60006,2,0,P|392:128|376:56,1,180,8|8,0:0|0:0,0:0:0:0:
304,104,60953,2,0,L|256:72,1,45,8|8,0:0|0:0,0:0:0:0:
256,192,63795,12,0,65848,0:0:0:0:
256,128,66322,6,0,L|256:320,2,180,4|8|0,0:0|0:0|0:0,0:0:0:0:
80,88,68216,1,8,0:0:0:0:
120,264,68848,6,0,L|64:336,1,90,0|8,0:0|0:0,0:0:0:0:
152,368,69480,2,0,L|216:288,1,90,0|8,0:0|0:0,0:0:0:0:
288,256,70111,1,0,0:0:0:0:
304,80,70743,1,8,0:0:0:0:
448,184,71374,6,0,P|464:272|424:352,1,180,0|8,0:0|0:0,0:0:0:0:
264,264,72638,2,0,P|264:224|152:128,1,180,0|8,0:0|0:0,0:0:0:0:
88,168,73585,1,4,0:0:0:0:
80,256,73901,6,0,L|0:376,1,135,12|8,0:0|0:0,0:0:0:0:
136,344,74848,2,0,L|216:216,1,135,12|8,0:0|0:0,0:0:0:0:
312,312,75795,1,12,0:0:0:0:
400,296,76111,1,8,0:0:0:0:
456,224,76427,6,0,P|416:144|432:48,1,180,4|8,0:0|0:0,0:0:0:0:
280,152,77690,2,0,P|240:176|112:136,1,180,0|8,0:0|0:0,0:0:0:0:
48,304,78953,5,0,0:0:0:0:
136,336,79269,2,8,L|208:264,2,90,8|0|8,0:0|0:0|0:0,0:0:0:0:
112,248,80216,2,0,L|184:176,1,90,0|8,0:0|0:0,0:0:0:0:
200,96,80848,1,0,0:0:0:0:
368,160,81480,6,0,P|392:216|352:344,1,180,0|8,0:0|0:0,0:0:0:0:
264,176,82743,2,0,P|280:88|360:48,1,180,0|2,0:0|0:0,0:0:0:0:
432,96,83690,1,4,0:0:0:0:
256,192,84006,12,4,86532,0:0:0:0:
256,192,89059,5,4,0:0:0:0:
104,296,89690,2,0,L|56:200,1,90,8|0,0:0|0:0,0:0:0:0:
144,184,90322,2,0,L|188:276,1,90
272,280,90953,1,8,0:0:0:0:
392,152,91585,6,0,P|448:224|440:320,2,180,0|8|0,0:0|0:0|0:0,0:0:0:0:
216,144,93480,1,8,0:0:0:0:
128,176,93795,1,2,0:0:0:0:
56,120,94111,1,4,0:0:0:0:
40,296,94743,6,0,P|112:328|224:296,1,180,8|0,0:0|0:0,0:0:0:0:
376,240,96006,2,0,L|432:336,1,90,8|0,0:0|0:0,0:0:0:0:
480,248,96638,1,0,0:0:0:0:
344,136,97269,6,0,P|296:160|272:208,1,90,8|0,0:0|0:0,0:0:0:0:
216,256,97901,2,0,P|176:280|128:280,1,90
116,191,98532,2,0,P|48:240|56:328,1,180,2|4,0:0|0:0,0:0:0:0:
256,192,104216,12,0,106427,0:0:0:0:
256,192,106743,12,0,108638,0:0:0:0:
112,208,109269,6,0,P|128:264|240:288,1,180,4|8,0:0|0:0,0:0:0:0:
320,248,110216,1,0,0:0:0:0:
320,160,110532,2,0,P|366:172|397:212,1,90
399,292,111164,1,8,0:0:0:0:
240,216,111795,6,0,P|224:128|288:64,2,180,0|8|0,0:0|0:0|0:0,0:0:0:0:
240,304,113374,2,0,L|152:368,2,90,0|8|2,0:0|0:0|0:0,0:0:0:0:
328,320,114322,1,4,0:0:0:0:
424,160,114953,6,0,L|456:256,1,90,8|0,0:0|0:0,0:0:0:0:
360,240,115585,2,0,L|328:152,1,90
376,80,116216,1,8,0:0:0:0:
208,16,116848,1,0,0:0:0:0:
224,176,117480,6,0,P|176:224|56:216,2,180,8|0|8,0:0|0:0|0:0,0:0:0:0:
240,88,119059,1,2,0:0:0:0:
312,144,119374,6,0,P|344:104|472:128,1,180,4|8,0:0|0:0,0:0:0:0:
408,288,120638,2,0,L|400:184,1,90
320,232,121269,2,0,L|328:336,1,90,8|0,0:0|0:0,0:0:0:0:
240,320,121901,6,0,P|160:304|56:352,1,180
176,192,123164,2,0,P|184:136|168:88,1,90
88,80,123795,2,0,P|136:16|240:40,1,180,8|4,0:0|0:0,0:0:0:0:
288,96,124743,6,0,L|384:48,2,90,0|8|0,0:0|0:0|0:0,0:0:0:0:
304,184,125690,2,0,L|404:216,1,90
364,296,126322,2,0,L|264:264,1,90,8|0,0:0|0:0,0:0:0:0:
192,296,126953,1,0,0:0:0:0:
64,168,127585,6,0,L|80:264,1,90,8|0,0:0|0:0,0:0:0:0:
160,216,128216,2,0,L|144:112,1,90
200,56,128848,1,8,0:0:0:0:
288,72,129164,1,0,0:0:0:0:
256,192,129480,12,4,131848,0:0:0:0:
256,192,132006,12,0,137059,0:0:0:0:
