osu file format v12

[General]
AudioFilename: Winterglade.mp3
AudioLeadIn: 0
PreviewTime: 64427
Countdown: 0
SampleSet: Soft
StackLeniency: 0.5
Mode: 0
LetterboxInBreaks: 1
EpilepsyWarning: 1
WidescreenStoryboard: 0

[Editor]
DistanceSpacing: 1
BeatDivisor: 4
GridSize: 4

[Metadata]
Title:Winterglade
TitleUnicode:Winterglade
Artist:Makkon
ArtistUnicode:Makkon
Creator:Itachi_Uchiha
Version:Snowchaos
Source:
Tags:VinylDash14 Irreversible Orchestral Bell Snow Ice Brass Epic Seed of Kindness
BeatmapID:307706
BeatmapSetID:119931

[Difficulty]
HPDrainRate:6
CircleSize:4
OverallDifficulty:7
ApproachRate:8
SliderMultiplier:1.5
SliderTickRate:1

[Events]
//Background and Video events
0,0,"bg.jpg",0,0
//Break Periods
2,95816,108524
//Storyboard Layer 0 (Background)
//Storyboard Layer 1 (Fail)
//Storyboard Layer 2 (Pass)
//Storyboard Layer 3 (Foreground)
//Storyboard Sound Samples
//Background Colour Transformations
3,100,163,162,255

[TimingPoints]
1970.35993273262,487.80487804878,4,2,1,40,1,0
17576,487.80487804878,4,2,1,40,1,0
33177,487.80487804878,4,2,1,55,1,0
64396,-80,4,1,1,60,0,1
95615,-80,4,2,1,55,0,0
111225,-100,4,2,1,70,0,0
125981,-100,4,2,1,70,0,0
126225,-100,4,2,1,80,0,0
126469,-100,4,2,1,90,0,0
126713,-100,4,1,1,100,0,0
126957,-100,4,2,1,40,0,0
141591,-100,4,2,1,70,0,0
141835,-100,4,2,1,80,0,0
142079,-100,4,2,1,90,0,0
142323,-100,4,1,1,100,0,0
142567,-100,4,2,1,60,0,0
143298,-100,4,3,1,60,0,0
143542,-100,4,2,1,60,0,0
144274,-100,4,3,1,60,0,0
144518,-100,4,2,1,60,0,0
145493,-100,4,2,1,70,0,0
145737,-100,4,2,1,80,0,0
145981,-100,4,2,1,90,0,0
146225,-100,4,1,1,100,0,0
146469,-100,4,2,1,60,0,0
147201,-100,4,3,1,60,0,0
147445,-100,4,2,1,60,0,0
148176,-100,4,3,1,60,0,0
148420,-100,4,2,1,60,0,0
149396,-100,4,2,1,70,0,0
149640,-100,4,2,1,80,0,0
149884,-100,4,2,1,90,0,0
150128,-100,4,1,1,100,0,0
150371,-100,4,2,1,60,0,0
151103,-100,4,3,1,60,0,0
151347,-100,4,2,1,60,0,0
152079,-100,4,3,1,60,0,0
152323,-100,4,2,1,60,0,0
153298,-100,4,2,1,70,0,0
153542,-100,4,2,1,80,0,0
153786,-100,4,2,1,90,0,0
154030,-100,4,1,1,100,0,0
154274,-100,4,2,1,60,0,0
155006,-100,4,3,1,60,0,0
155250,-100,4,2,1,60,0,0
155981,-100,4,1,1,100,0,0
156225,-100,4,2,1,60,0,0
156957,-100,4,1,1,100,0,0
157201,-100,4,2,1,60,0,0
157445,-100,4,1,1,100,0,0
157689,-100,4,2,1,75,0,0
158054,-80,4,1,1,75,0,1
173542,-80,4,1,1,90,0,1
189274,-80,4,1,1,75,0,0

[Colours]
Combo1 : 168,106,251
Combo2 : 6,134,227
SliderBorder : 255,255,255

[HitObjects]
80,88,1970,1,8,0:0:0:0:
132,228,2458,2,0,P|176:184|200:172,1,75,8|0,0:0|0:0,0:0:0:0:
300,80,3189,2,0,P|340:88|376:108,1,75,8|0,0:0|0:0,0:0:0:0:
424,244,3921,2,0,P|396:268|356:288,1,75,8|0,0:0|0:0,0:0:0:0:
220,336,4653,1,0,0:0:0:0:
112,304,4897,1,8,0:0:0:0:
256,40,5384,1,8,0:0:0:0:
344,148,5628,1,0,0:0:0:0:
348,152,5750,1,0,0:0:0:0:
352,156,5872,6,0,L|384:224,2,75,8|0|8,0:0|0:0|0:0,0:0:0:0:
288,196,6604,2,0,P|240:168|144:184,1,150
68,236,7336,1,8,0:0:0:0:
192,332,7580,1,0,0:0:0:0:
196,336,7702,1,0,0:0:0:0:
200,340,7824,2,0,P|248:368|344:352,1,150,8|8,0:0|0:0,0:0:0:0:
428,292,8555,2,0,L|472:304,2,37.5,8|0|0,0:0|0:0|0:0,0:0:0:0:
368,196,9043,2,0,L|324:208,2,37.5,8|0|0,0:0|0:0|0:0,0:0:0:0:
428,104,9531,1,8,0:0:0:0:
428,100,9775,5,8,0:0:0:0:
252,204,10263,2,0,P|216:188|188:148,1,75,8|0,0:0|0:0,0:0:0:0:
104,40,10994,2,0,P|76:68|60:104,1,75,8|0,0:0|0:0,0:0:0:0:
68,248,11726,2,0,P|100:264|136:292,1,75,8|0,0:0|0:0,0:0:0:0:
136,292,12214,1,8,0:0:0:0:
244,280,12458,1,0,0:0:0:0:
344,336,12702,1,8,0:0:0:0:
452,56,13189,1,8,0:0:0:0:
312,80,13433,1,0,0:0:0:0:
308,76,13555,1,0,0:0:0:0:
304,72,13677,6,0,L|236:28,2,75,8|0|8,0:0|0:0|0:0,0:0:0:0:
248,124,14409,2,0,L|324:172,2,75,0|0|8,0:0|0:0|0:0,0:0:0:0:
180,156,15141,1,0,0:0:0:0:
154,227,15384,1,0,0:0:0:0:
83,202,15628,1,8,0:0:0:0:
107,131,15872,2,0,P|140:60|224:44,1,150,8|0,0:0|0:0,0:0:0:0:
307,40,16604,2,0,P|376:63|405:131,1,150,8|8,0:0|0:0,0:0:0:0:
356,232,17336,1,8,0:0:0:0:
252,200,17576,6,0,P|216:220|196:248,1,75,8|0,0:0|0:0,0:0:0:0:
192,320,18063,2,0,P|152:308|128:276,1,75,8|0,0:0|0:0,0:0:0:0:
136,208,18551,2,0,P|96:216|64:244,2,75,8|8|8,0:0|0:0|0:0,0:0:0:0:
204,172,19283,1,0,0:0:0:0:
244,108,19527,5,8,0:0:0:0:
352,80,19771,1,8,0:0:0:0:
342,109,20258,1,0,0:0:0:0:
334,137,20746,1,0,0:0:0:0:
244,108,20990,1,8,0:0:0:0:
220,80,21112,1,0,0:0:0:0:
188,60,21234,1,8,0:0:0:0:
152,52,21356,1,0,0:0:0:0:
116,56,21478,6,0,P|76:72|48:108,1,75,8|0,0:0|0:0,0:0:0:0:
120,132,21966,2,0,P|144:164|152:200,1,75,8|0,0:0|0:0,0:0:0:0:
160,236,22332,1,8,0:0:0:0:
172,272,22454,2,0,P|200:308|240:324,1,75,8|0,0:0|0:0,0:0:0:0:
244,248,22941,2,0,P|280:220|316:212,1,75,8|8,0:0|0:0,0:0:0:0:
456,192,23429,1,8,0:0:0:0:
256,92,24161,5,8,0:0:0:0:
192,87,24283,1,0,0:0:0:0:
137,119,24405,1,0,0:0:0:0:
217,27,24649,1,8,0:0:0:0:
206,148,24893,1,0,0:0:0:0:
144,44,25136,1,8,0:0:0:0:
60,120,25380,5,8,0:0:0:0:
92,288,25746,1,8,0:0:0:0:
256,332,26112,1,8,0:0:0:0:
292,224,26356,2,0,P|332:244|356:276,2,75
188,200,27088,1,8,0:0:0:0:
212,100,27332,6,0,P|264:72|332:64,1,112.5,8|8,0:0|0:0,0:0:0:0:
412,84,27941,1,8,0:0:0:0:
416,88,28063,1,8,0:0:0:0:
428,176,28307,2,0,P|392:212|376:244,1,75,8|0,0:0|0:0,0:0:0:0:
296,308,28795,1,8,0:0:0:0:
266,285,28917,1,0,0:0:0:0:
231,272,29039,1,8,0:0:0:0:
194,270,29161,1,0,0:0:0:0:
157,279,29283,6,0,P|108:272|76:240,1,75,8|0,0:0|0:0,0:0:0:0:
144,204,29771,2,0,P|156:160|144:124,1,75,8|0,0:0|0:0,0:0:0:0:
132,100,30136,1,8,0:0:0:0:
136,64,30258,2,0,P|184:28|216:24,1,75,8|0,0:0|0:0,0:0:0:0:
292,84,30746,1,8,0:0:0:0:
400,48,30990,1,8,0:0:0:0:
444,152,31234,1,8,0:0:0:0:
256,276,31966,5,8,0:0:0:0:
192,281,32088,1,0,0:0:0:0:
137,249,32210,1,0,0:0:0:0:
217,341,32454,1,8,0:0:0:0:
206,220,32697,1,0,0:0:0:0:
144,324,32941,1,8,0:0:0:0:
56,204,33177,6,0,B|92:180|88:136|88:136|104:96|164:76,1,150,12|0,0:0|0:0,0:0:0:0:
375,87,33908,2,0,B|408:96|424:136|424:136|420:180|456:204,1,150,8|4,0:0|0:0,0:0:0:0:
312,256,34640,2,0,B|288:292|256:305|256:305|224:292|200:256,1,150,8|4,0:0|0:0,0:0:0:0:
256,204,35372,5,8,0:0:0:0:
256,52,35859,1,8,0:0:0:0:
193,93,36103,2,0,P|256:128|320:92,1,150,8|8,0:0|0:0,0:0:0:0:
348,68,36713,1,0,0:0:0:0:
384,56,36835,1,8,0:0:0:0:
420,64,36957,1,0,0:0:0:0:
448,88,37079,6,0,P|464:128|456:168,1,75,12|0,0:0|0:0,0:0:0:0:
400,204,37567,2,0,P|380:240|384:284,1,75,8|0,0:0|0:0,0:0:0:0:
360,304,37933,1,8,0:0:0:0:
340,336,38055,2,0,P|296:352|248:344,1,75,8|4,0:0|0:0,0:0:0:0:
160,316,38542,1,8,0:0:0:0:
72,244,38786,1,8,0:0:0:0:
128,144,39030,1,12,0:0:0:0:
358,148,39762,5,8,0:0:0:0:
406,106,39884,1,0,0:0:0:0:
423,44,40006,1,0,0:0:0:0:
431,166,40250,1,8,0:0:0:0:
353,73,40494,1,0,0:0:0:0:
471,102,40737,1,8,0:0:0:0:
353,73,40981,6,0,P|278:60|214:112,1,150,12|0,0:0|0:0,0:0:0:0:
191,169,41713,2,0,P|147:112|170:43,1,150,8|4,0:0|0:0,0:0:0:0:
264,184,42445,2,0,P|217:239|143:226,1,150,8|4,0:0|0:0,0:0:0:0:
292,72,43176,5,8,0:0:0:0:
400,40,43420,1,0,0:0:0:0:
380,152,43664,1,0,0:0:0:0:
264,184,43908,1,8,0:0:0:0:
400,40,44152,1,0,0:0:0:0:
460,228,44396,2,0,P|456:268|416:312,2,75,8|8|12,0:0|0:0|0:0,0:0:0:0:
120,104,45616,5,8,0:0:0:0:
120,100,45859,1,8,0:0:0:0:
256,160,46103,1,4,0:0:0:0:
256,36,46347,1,8,0:0:0:0:
392,108,46591,1,8,0:0:0:0:
392,104,46713,1,0,0:0:0:0:
392,100,46835,1,12,0:0:0:0:
256,252,47323,5,8,0:0:0:0:
120,100,47811,1,8,0:0:0:0:
256,252,48298,2,0,L|256:304,4,37.5,8|0|8|0|12,0:0|0:0|0:0|0:0|0:0,0:0:0:0:
432,292,49274,5,0,0:0:0:0:
428,288,49518,1,0,0:0:0:0:
424,284,49762,1,12,0:0:0:0:
256,32,50250,1,0,0:0:0:0:
256,36,50494,1,0,0:0:0:0:
256,40,50737,1,12,0:0:0:0:
120,304,51225,5,0,0:0:0:0:
118,148,51469,1,0,0:0:0:0:
209,274,51713,1,12,0:0:0:0:
61,226,51957,1,0,0:0:0:0:
208,177,52201,1,4,0:0:0:0:
143,228,52445,1,12,0:0:0:0:
220,60,53176,5,0,0:0:0:0:
148,72,53420,1,0,0:0:0:0:
88,116,53664,1,12,0:0:0:0:
220,324,54152,1,0,0:0:0:0:
148,312,54396,1,0,0:0:0:0:
88,268,54640,1,12,0:0:0:0:
296,192,55128,5,0,0:0:0:0:
446,237,55372,1,0,0:0:0:0:
352,114,55616,1,12,0:0:0:0:
355,270,55859,1,0,0:0:0:0:
443,144,56103,1,4,0:0:0:0:
376,191,56347,1,12,0:0:0:0:
156,152,57079,5,0,0:0:0:0:
59,95,57323,1,0,0:0:0:0:
156,39,57567,1,12,0:0:0:0:
356,152,58055,1,0,0:0:0:0:
453,95,58298,1,0,0:0:0:0:
356,39,58542,1,12,0:0:0:0:
256,152,59030,5,0,0:0:0:0:
303,301,59274,1,0,0:0:0:0:
178,209,59518,1,12,0:0:0:0:
335,209,59762,1,0,0:0:0:0:
210,299,60006,1,4,0:0:0:0:
256,232,60250,1,12,0:0:0:0:
428,88,60981,5,0,0:0:0:0:
364,52,61225,1,0,0:0:0:0:
288,48,61469,1,12,0:0:0:0:
114,168,61957,5,0,0:0:0:0:
256,168,62201,1,0,0:0:0:0:
400,168,62445,1,12,0:0:0:0:
279,244,62689,1,0,0:0:0:0:
156,315,62933,1,0,0:0:0:0:
208,186,63176,1,12,0:0:0:0:
256,56,63420,1,0,0:0:0:0:
308,186,63664,1,0,0:0:0:0:
355,315,63908,1,12,0:0:0:0:
232,244,64152,1,0,0:0:0:0:
114,168,64396,6,0,P|100:112|180:24,2,187.5,12|0|0,0:0|0:0|0:0,0:0:0:0:
192,284,65616,1,8,0:0:0:0:
328,320,65859,1,8,0:0:0:0:
432,236,66103,1,0,0:0:0:0:
436,232,66347,6,0,P|444:160|428:132,1,93.75,12|0,0:0|0:0,0:0:0:0:
172,48,67079,2,0,P|159:92|171:137,1,93.75
236,204,67567,1,8,0:0:0:0:
220,296,67811,1,8,0:0:0:0:
84,328,68055,1,0,0:0:0:0:
60,288,68176,1,0,0:0:0:0:
56,240,68298,6,0,B|72:184|148:184|148:184|188:160|180:96,1,187.5,12|0,0:0|0:0,0:0:0:0:
256,68,69030,1,0,0:0:0:0:
330,124,69274,2,0,B|324:160|364:184|364:184|440:184|456:240,1,187.5,8|0,0:0|0:0,0:0:0:0:
416,324,70006,1,0,0:0:0:0:
276,312,70250,6,0,P|228:296|192:240,1,93.75,12|0,0:0|0:0,0:0:0:0:
64,136,70981,2,0,P|104:92|140:84,1,93.75,0|0,0:0|0:0,0:0:0:0:
276,60,71469,1,8,0:0:0:0:
416,72,71713,1,8,0:0:0:0:
403,212,71957,1,0,0:0:0:0:
263,200,72201,6,0,B|184:216|180:288|180:288|180:352,2,187.5,12|0|0,0:0|0:0|0:0,0:0:0:0:
403,212,73420,1,8,0:0:0:0:
476,332,73664,1,8,0:0:0:0:
336,320,73908,1,0,0:0:0:0:
264,200,74152,6,0,P|240:144|200:120,1,93.75,12|0,0:0|0:0,0:0:0:0:
72,112,74640,1,0,0:0:0:0:
28,248,74884,2,0,P|52:304|92:328,1,93.75,8|8,0:0|0:0,0:0:0:0:
356,284,75616,1,0,0:0:0:0:
408,160,75859,1,0,0:0:0:0:
408,156,75981,1,0,0:0:0:0:
408,152,76103,6,0,P|360:64|248:76,1,187.5,12|0,0:0|0:0,0:0:0:0:
312,148,76835,1,0,0:0:0:0:
218,144,77079,2,0,P|266:232|378:220,1,187.5,8|0,0:0|0:0,0:0:0:0:
312,148,77811,1,0,0:0:0:0:
204,60,78055,6,0,P|156:88|136:128,1,93.75,12|0,0:0|0:0,0:0:0:0:
32,212,78542,2,0,P|68:248|108:256,1,93.75
220,168,79030,1,0,0:0:0:0:
338,325,79274,1,8,0:0:0:0:
335,128,79518,1,8,0:0:0:0:
222,289,79762,1,0,0:0:0:0:
408,225,80006,6,0,P|436:120|384:52,1,187.5,12|0,0:0|0:0,0:0:0:0:
256,84,80737,1,0,0:0:0:0:
116,59,80981,2,0,P|72:139|104:225,2,187.5,8|0|12,0:0|0:0|0:0,0:0:0:0:
208,36,82201,5,0,0:0:0:0:
356,132,82689,1,0,0:0:0:0:
448,120,82933,2,0,P|416:204|292:200,1,187.5,8|0,0:0|0:0,0:0:0:0:
188,196,83664,1,0,0:0:0:0:
164,236,83786,1,0,0:0:0:0:
156,280,83908,6,0,B|184:336|184:336|248:376|312:316,1,187.5,12|0,0:0|0:0,0:0:0:0:
408,236,84640,1,0,0:0:0:0:
356,108,84884,2,0,P|276:56|176:80,1,187.5,8|0,0:0|0:0,0:0:0:0:
80,160,85616,1,0,0:0:0:0:
64,252,85859,6,0,P|113:248|156:214,1,93.75,12|0,0:0|0:0,0:0:0:0:
256,68,86591,2,0,P|304:80|336:112,1,93.75
420,224,87079,1,8,0:0:0:0:
336,336,87323,1,8,0:0:0:0:
420,224,87567,1,0,0:0:0:0:
280,244,87811,6,0,B|212:248|172:352|104:340,2,187.5,12|0|0,0:0|0:0|0:0,0:0:0:0:
420,224,89030,1,8,0:0:0:0:
380,88,89274,1,8,0:0:0:0:
240,60,89518,1,0,0:0:0:0:
152,172,89762,6,0,P|112:204|92:248,1,93.75,12|0,0:0|0:0,0:0:0:0:
108,336,90250,1,0,0:0:0:0:
200,324,90494,2,0,P|236:295|258:254,1,93.75,8|8,0:0|0:0,0:0:0:0:
392,136,91225,1,0,0:0:0:0:
336,76,91469,1,0,0:0:0:0:
332,72,91591,1,0,0:0:0:0:
328,68,91713,6,0,P|256:68|164:136,1,187.5,12|0,0:0|0:0,0:0:0:0:
92,192,92445,1,0,0:0:0:0:
164,248,92689,2,0,P|234:307|326:313,1,187.5,8|0,0:0|0:0,0:0:0:0:
392,248,93420,1,0,0:0:0:0:
372,108,93664,6,0,P|328:84|272:88,1,93.75,12|0,0:0|0:0,0:0:0:0:
152,36,94152,2,0,P|120:84|116:120,1,93.75
176,244,94640,1,0,0:0:0:0:
363,304,94884,1,8,0:0:0:0:
247,145,95128,1,8,0:0:0:0:
247,342,95372,1,0,0:0:0:0:
363,183,95616,1,4,0:0:0:0:
256,192,109274,12,0,110737,0:0:0:0:
256,236,111225,6,0,L|256:352,2,112.5,8|0|0,0:0|0:0|0:0,0:0:0:0:
224,68,112323,1,8,0:0:0:0:
60,104,112689,1,8,0:0:0:0:
92,204,112933,1,0,0:0:0:0:
88,208,113055,1,0,0:0:0:0:
84,212,113176,1,8,0:0:0:0:
8,224,113420,6,0,P|34:272|86:289,1,112.5,8|0,0:0|0:0,0:0:0:0:
124,284,113908,1,0,0:0:0:0:
228,244,114152,1,0,0:0:0:0:
256,136,114396,1,8,0:0:0:0:
360,96,114640,1,8,0:0:0:0:
468,132,114884,2,0,P|474:95|462:48,1,75,0|8,0:0|0:0,0:0:0:0:
60,272,115859,5,8,0:0:0:0:
123,284,115981,1,0,0:0:0:0:
168,329,116103,1,0,0:0:0:0:
114,219,116347,1,8,0:0:0:0:
94,339,116591,1,0,0:0:0:0:
181,255,116835,1,8,0:0:0:0:
256,160,117079,1,0,0:0:0:0:
452,272,117811,5,8,0:0:0:0:
389,284,117933,1,0,0:0:0:0:
344,329,118055,1,0,0:0:0:0:
398,219,118298,1,8,0:0:0:0:
418,339,118542,1,0,0:0:0:0:
331,255,118786,1,8,0:0:0:0:
256,160,119030,6,0,L|256:44,2,112.5,8|0|0,0:0|0:0|0:0,0:0:0:0:
220,272,120006,1,0,0:0:0:0:
216,268,120128,1,8,0:0:0:0:
52,300,120494,1,8,0:0:0:0:
80,192,120737,1,0,0:0:0:0:
84,192,120859,1,0,0:0:0:0:
88,192,120981,1,8,0:0:0:0:
72,76,121225,5,8,0:0:0:0:
76,80,121347,1,0,0:0:0:0:
184,40,121591,1,0,0:0:0:0:
184,44,121713,1,0,0:0:0:0:
256,132,121957,1,0,0:0:0:0:
328,44,122201,1,8,0:0:0:0:
436,80,122445,1,8,0:0:0:0:
424,192,122689,2,0,P|384:232|376:260,1,75,0|8,0:0|0:0,0:0:0:0:
60,112,123664,5,8,0:0:0:0:
123,100,123786,1,0,0:0:0:0:
168,55,123908,1,0,0:0:0:0:
114,165,124152,1,8,0:0:0:0:
94,45,124396,1,0,0:0:0:0:
181,129,124640,1,8,0:0:0:0:
256,224,124884,1,0,0:0:0:0:
452,112,125616,5,8,0:0:0:0:
389,100,125737,1,0,0:0:0:0:
344,55,125859,1,0,0:0:0:0:
398,165,126103,1,12,0:0:0:0:
418,45,126347,1,4,0:0:0:0:
331,129,126591,1,12,0:0:0:0:
256,224,126835,1,8,0:0:0:0:
88,164,127323,5,0,0:0:0:0:
120,80,127567,1,0,0:0:0:0:
204,52,127811,1,12,0:0:0:0:
424,164,128298,1,0,0:0:0:0:
392,80,128542,1,0,0:0:0:0:
308,52,128786,1,12,0:0:0:0:
256,304,129274,5,0,0:0:0:0:
302,154,129518,1,0,0:0:0:0:
178,245,129762,1,12,0:0:0:0:
334,246,130006,1,0,0:0:0:0:
209,155,130250,1,4,0:0:0:0:
256,223,130494,1,12,0:0:0:0:
100,312,131225,5,0,0:0:0:0:
104,316,131469,1,0,0:0:0:0:
108,320,131713,1,12,0:0:0:0:
412,312,132201,1,0,0:0:0:0:
408,316,132445,1,0,0:0:0:0:
404,320,132689,1,12,0:0:0:0:
256,80,133176,5,0,0:0:0:0:
302,230,133420,1,0,0:0:0:0:
178,139,133664,1,12,0:0:0:0:
334,138,133908,1,0,0:0:0:0:
209,229,134152,1,4,0:0:0:0:
256,161,134396,1,12,0:0:0:0:
88,312,135128,6,0,L|148:252,2,75,0|0|12,0:0|0:0|0:0,0:0:0:0:
88,72,136103,2,0,L|148:132,2,75,0|0|12,0:0|0:0|0:0,0:0:0:0:
360,192,137079,5,0,0:0:0:0:
210,146,137323,1,0,0:0:0:0:
301,270,137567,1,12,0:0:0:0:
302,114,137811,1,0,0:0:0:0:
211,239,138055,1,4,0:0:0:0:
279,192,138298,1,12,0:0:0:0:
256,72,139030,6,0,L|256:16,2,37.5,0|0|0,0:0|0:0|0:0,0:0:0:0:
256,76,139518,1,12,0:0:0:0:
168,272,140006,5,0,0:0:0:0:
140,248,140128,1,0,0:0:0:0:
124,212,140250,1,0,0:0:0:0:
168,144,140494,5,12,0:0:0:0:
256,208,140737,1,0,0:0:0:0:
344,272,140981,5,0,0:0:0:0:
372,248,141103,1,0,0:0:0:0:
388,212,141225,1,12,0:0:0:0:
344,144,141469,5,0,0:0:0:0:
200,36,141713,1,4,0:0:0:0:
256,208,141957,1,12,0:0:0:0:
312,36,142201,1,4,0:0:0:0:
168,144,142445,1,8,0:0:0:0:
324,292,142933,6,0,L|400:260,1,75,4|0,0:0|0:0,0:0:0:0:
400,260,143420,1,8,0:0:0:0:
324,92,143908,2,0,L|400:124,1,75,0|4,0:0|0:0,0:0:0:0:
400,124,144396,1,8,0:0:0:0:
212,192,144884,5,0,0:0:0:0:
62,146,145128,1,4,0:0:0:0:
153,270,145372,1,12,0:0:0:0:
154,114,145616,1,4,0:0:0:0:
63,239,145859,1,4,0:0:0:0:
131,192,146103,1,4,0:0:0:0:
136,192,146347,1,8,0:0:0:0:
340,272,146835,6,0,L|396:340,2,75,4|0|8,0:0|0:0|0:0,0:0:0:0:
172,272,147811,2,0,L|116:340,2,75,0|4|8,0:0|0:0|0:0,0:0:0:0:
256,64,148786,5,0,0:0:0:0:
302,214,149030,1,4,0:0:0:0:
178,123,149274,1,12,0:0:0:0:
334,122,149518,1,4,0:0:0:0:
209,213,149762,1,4,0:0:0:0:
256,145,150006,1,4,0:0:0:0:
256,148,150250,1,8,0:0:0:0:
80,68,150737,5,4,0:0:0:0:
84,72,150981,1,0,0:0:0:0:
88,76,151225,1,8,0:0:0:0:
80,316,151713,1,0,0:0:0:0:
84,312,151957,1,4,0:0:0:0:
88,308,152201,1,8,0:0:0:0:
244,192,152689,5,0,0:0:0:0:
394,238,152933,1,4,0:0:0:0:
303,114,153176,1,12,0:0:0:0:
302,270,153420,1,4,0:0:0:0:
393,145,153664,1,4,0:0:0:0:
325,192,153908,1,4,0:0:0:0:
320,192,154152,1,8,0:0:0:0:
256,72,154640,6,0,L|256:16,2,37.5,0|0|0,0:0|0:0|0:0,0:0:0:0:
256,76,155128,1,12,0:0:0:0:
344,272,155616,5,0,0:0:0:0:
372,248,155737,1,0,0:0:0:0:
388,212,155859,1,0,0:0:0:0:
344,144,156103,5,8,0:0:0:0:
256,208,156347,1,0,0:0:0:0:
168,272,156591,5,0,0:0:0:0:
140,248,156713,1,0,0:0:0:0:
124,212,156835,1,4,0:0:0:0:
168,144,157079,5,8,0:0:0:0:
312,36,157323,1,4,0:0:0:0:
256,208,157567,1,8,0:0:0:0:
200,36,157811,1,4,0:0:0:0:
232,80,157933,1,0,0:0:0:0:
280,104,158055,6,0,P|352:104|444:36,2,187.5,12|0|0,0:0|0:0|0:0,0:0:0:0:
232,236,159274,1,8,0:0:0:0:
356,300,159518,1,8,0:0:0:0:
452,192,159762,1,0,0:0:0:0:
410,50,160006,6,0,P|367:67|335:112,1,93.75,12|0,0:0|0:0,0:0:0:0:
364,240,160494,1,0,0:0:0:0:
244,296,160737,2,0,P|204:252|196:212,1,93.75,0|0,0:0|0:0,0:0:0:0:
196,124,161225,1,8,0:0:0:0:
280,44,161469,1,8,0:0:0:0:
404,76,161713,1,0,0:0:0:0:
400,80,161835,1,0,0:0:0:0:
396,84,161957,6,0,B|364:160|364:160|388:232|328:272,1,187.5,12|0,0:0|0:0,0:0:0:0:
256,288,162689,1,0,0:0:0:0:
165,257,162933,2,0,B|124:232|148:160|148:160|116:84,1,187.5,8|0,0:0|0:0,0:0:0:0:
256,52,163664,1,0,0:0:0:0:
328,112,163908,6,0,P|348:68|344:20,2,93.75,12|0|0,0:0|0:0|0:0,0:0:0:0:
248,160,164640,2,0,P|292:196|332:204,1,93.75
420,196,165128,1,8,0:0:0:0:
396,336,165372,1,8,0:0:0:0:
264,352,165616,1,0,0:0:0:0:
260,352,165737,1,0,0:0:0:0:
256,352,165859,6,0,B|200:328|200:268|200:268|160:248|116:280,2,187.5,12|0|0,0:0|0:0|0:0,0:0:0:0:
388,304,167079,1,8,0:0:0:0:
476,192,167323,1,8,0:0:0:0:
388,80,167567,1,0,0:0:0:0:
256,132,167811,6,0,P|216:92|168:76,1,93.75,12|0,0:0|0:0,0:0:0:0:
92,100,168298,1,0,0:0:0:0:
104,192,168542,2,0,P|135:226|177:245,1,93.75,8|8,0:0|0:0,0:0:0:0:
344,332,169030,1,0,0:0:0:0:
372,192,169274,1,0,0:0:0:0:
348,56,169518,1,0,0:0:0:0:
344,52,169762,6,0,P|248:52|172:124,2,187.5,12|0|0,0:0|0:0|0:0,0:0:0:0:
372,192,170981,1,0,0:0:0:0:
352,324,171225,1,8,0:0:0:0:
348,328,171469,1,8,0:0:0:0:
344,332,171713,6,0,P|248:332|172:260,2,187.5,12|0|0,0:0|0:0|0:0,0:0:0:0:
372,192,172933,1,0,0:0:0:0:
344,44,173176,1,8,0:0:0:0:
344,48,173420,1,8,0:0:0:0:
344,52,173664,6,0,P|324:132|232:172,1,187.5,12|0,0:0|0:0,0:0:0:0:
244,64,174396,1,0,0:0:0:0:
238,65,174640,2,0,P|153:98|127:185,2,187.5,8|0|12,0:0|0:0|0:0,0:0:0:0:
276,200,175859,5,0,0:0:0:0:
224,288,176103,1,0,0:0:0:0:
128,328,176347,1,0,0:0:0:0:
36,340,176591,2,0,P|68:256|192:260,1,187.5,8|0,0:0|0:0,0:0:0:0:
324,188,177323,1,0,0:0:0:0:
348,148,177445,1,0,0:0:0:0:
356,104,177567,6,0,B|328:48|328:48|264:8|200:68,1,187.5,12|0,0:0|0:0,0:0:0:0:
104,148,178298,1,0,0:0:0:0:
156,276,178542,2,0,P|236:328|336:304,1,187.5,8|0,0:0|0:0,0:0:0:0:
432,224,179274,1,0,0:0:0:0:
436,84,179518,6,0,P|387:88|344:122,1,93.75,12|0,0:0|0:0,0:0:0:0:
324,204,180006,1,0,0:0:0:0:
256,272,180250,2,0,P|208:260|176:228,1,93.75,0|0,0:0|0:0,0:0:0:0:
72,136,180737,1,8,0:0:0:0:
176,48,180981,1,8,0:0:0:0:
176,188,181225,1,0,0:0:0:0:
176,48,181469,6,0,B|244:52|284:156|352:144,2,187.5,12|0|0,0:0|0:0|0:0,0:0:0:0:
68,136,182689,1,8,0:0:0:0:
108,272,182933,1,8,0:0:0:0:
248,300,183176,1,0,0:0:0:0:
388,272,183420,6,0,P|428:240|448:196,1,93.75,12|0,0:0|0:0,0:0:0:0:
424,64,183908,1,0,0:0:0:0:
284,76,184152,2,0,P|248:105|226:146,1,93.75,8|8,0:0|0:0,0:0:0:0:
100,160,184640,1,0,0:0:0:0:
64,328,184884,1,0,0:0:0:0:
176,316,185128,1,0,0:0:0:0:
180,316,185250,1,0,0:0:0:0:
184,316,185372,6,0,P|256:316|348:248,1,187.5,12|0,0:0|0:0,0:0:0:0:
420,192,186103,1,0,0:0:0:0:
348,136,186347,2,0,P|278:77|186:71,1,187.5,8|0,0:0|0:0,0:0:0:0:
120,136,187079,1,0,0:0:0:0:
140,276,187323,6,0,P|184:300|240:296,1,93.75,12|0,0:0|0:0,0:0:0:0:
360,348,187811,2,0,P|392:300|396:264,1,93.75
348,136,188298,1,0,0:0:0:0:
123,63,188542,1,8,0:0:0:0:
262,254,188786,1,8,0:0:0:0:
262,18,189030,1,0,0:0:0:0:
123,209,189274,1,4,0:0:0:0:
