osu file format v11

[General]
AudioFilename: www.mp3
AudioLeadIn: 2000
PreviewTime: 59156
Countdown: 0
SampleSet: Soft
StackLeniency: 0.7
Mode: 0
LetterboxInBreaks: 1

[Editor]
Bookmarks: 8781,32599
DistanceSpacing: 1.3
BeatDivisor: 4
GridSize: 32

[Metadata]
Title:Kiseki no Kakera
TitleUnicode:奇跡のかけら
Artist:Makishima Yuki, Yoshikawa Yukako & Fujita Saki
ArtistUnicode:牧島有希, 吉川友佳子 & 藤田咲
Creator:DarknessAngel
Version:Relaxing
Source:Tokimeki Memoriaru Only Love
Tags:Amamiya Sayuri Kasuga Tsukasa Yayoi Mina [Kirisame-Marisa] hoLysoup Yia Memorial
BeatmapID:197190
BeatmapSetID:67248

[Difficulty]
HPDrainRate:4
CircleSize:4
OverallDifficulty:5
ApproachRate:6
SliderMultiplier:1.2
SliderTickRate:1

[Events]
//Background and Video events
0,0,"BG.jpg"
//Break Periods
2,84085,93200
2,171366,179894
//Storyboard Layer 0 (Background)
//Storyboard Layer 1 (Fail)
//Storyboard Layer 2 (Pass)
//Storyboard Layer 3 (Foreground)
//Storyboard Sound Samples
//Background Colour Transformations
3,100,163,162,255

[TimingPoints]
969,363.669424493136,4,2,1,50,1,0
57883,-100,4,2,1,40,0,0
59156,-100,4,1,2,50,0,1
70429,-100,4,2,1,50,0,0
70793,-100,4,1,2,50,0,1
82249,-100,4,2,1,50,0,0
107160,-200,4,2,1,50,0,1
107251,-200,4,2,2,40,0,0
115888,-100,4,1,1,40,0,0
116979,-100,4,2,1,50,0,0
118797,-100,4,2,1,50,0,1
118888,-100,4,2,1,50,0,0
129162,-100,4,2,1,40,0,0
130435,-100,4,1,2,50,0,1
141709,-100,4,2,1,50,0,0
142072,-100,4,1,2,50,0,1
153528,-100,4,2,1,50,0,0
153710,-100,4,2,1,40,0,0
159528,-100,4,2,1,50,0,0
170075,-100,4,1,2,50,0,0
171166,-100,4,2,1,50,0,0
182803,-100,4,1,2,50,0,1
194259,-100,4,2,1,50,0,0
203351,-200,4,2,1,40,0,0

[Colours]
Combo1 : 81,81,255
Combo2 : 249,159,62
Combo3 : 234,242,68
Combo4 : 99,245,238
Combo5 : 225,225,225
Combo6 : 251,106,236
Combo7 : 185,111,247
Combo8 : 137,243,73

[HitObjects]
408,100,605,1,8,0:0:0
256,60,969,2,0,P|196:48|140:60,1,120,4|8,0:0|0:0,0:0:0
84,112,1514,1,2,0:0:0
140,168,1696,2,0,P|196:180|256:168,1,120,2|8,0:0|0:0,0:0:0
316,116,2241,5,2,0:0:0
436,216,2605,1,2,0:0:0
324,324,2969,1,2,0:0:0
248,324,3151,2,0,P|180:324,2,60,2|0|8,0:0|0:0|0:0,0:0:0
248,168,3878,6,0,P|120:168,1,120,2|8,0:0|0:0,0:0:0
60,207,4423,1,2,0:0:0
128,244,4605,2,0,P|252:244,1,120,2|8,0:0|0:0,0:0:0
316,204,5151,5,2,0:0:0
452,124,5514,1,2,0:0:0
312,56,5878,1,2,0:0:0
284,128,6060,1,2,0:0:0
400,232,6424,1,10,0:0:0
380,156,6605,1,2,0:0:0
316,204,6787,6,0,P|260:224|204:208,1,120,2|10,0:0|0:0,0:0:0
112,80,7515,2,0,P|48:80,2,60,2|2|8,0:0|0:0|0:0,0:0:0
192,80,8060,2,0,P|316:80,1,120,2|0,0:0|0:0,0:0:0
424,192,8787,5,2,0:0:0
340,324,9151,1,2,0:0:0
340,324,9333,1,8,0:0:0
256,192,9697,1,2,0:0:0
272,116,9878,1,2,0:0:0
332,168,10060,1,8,0:0:0
340,324,10424,1,2,0:0:0
308,252,10606,1,2,0:0:0
384,260,10788,1,8,0:0:0
340,324,10969,6,0,P|280:344|220:324,1,120,2|2,1:0|0:0,0:0:0
160,288,11515,1,2,0:0:0
68,164,11879,1,10,0:0:0
156,36,12242,1,10,0:0:0
300,92,12606,6,0,P|364:104|424:88,2,120,4|8|0,0:0|0:0|0:0,0:0:0
156,36,13697,1,8,0:0:0
228,60,13879,2,0,P|204:116|160:156,1,120
104,100,14424,1,8,0:0:0
228,196,14788,1,0,0:0:0
84,256,15152,1,8,0:0:0
208,352,15515,6,0,P|268:344|328:352,1,120,0|8,0:0|0:0,0:0:0
312,196,16243,1,0,0:0:0
164,244,16606,1,8,0:0:0
228,196,16788,2,0,P|208:132|172:92,1,120
100,72,17334,2,0,P|40:72,2,60,10|2|0,0:0|0:0|0:0,0:0:0
256,72,18061,5,8,0:0:0
256,72,18425,2,0,P|320:84|372:72,1,120,0|8,0:0|0:0,0:0:0
468,196,19152,1,0,0:0:0
468,196,19516,1,8,0:0:0
388,196,19697,2,0,P|324:184|272:196,1,120
200,232,20243,5,8,0:0:0
156,296,20425,2,0,P|136:320|112:336,2,60
200,232,20970,1,8,0:0:0
193,154,21152,1,0,0:0:0
141,95,21334,2,0,P|81:83|25:95,1,120,0|8,0:0|0:0,0:0:0
24,172,21879,2,0,P|36:236|20:292,1,120
64,356,22425,6,0,P|124:356,1,60,8|2,0:0|3:0,0:0:0
268,296,22971,1,2,0:0:0
140,204,23334,1,2,0:0:0
268,112,23698,2,0,P|328:112,1,60,2|8,0:0|0:0,0:0:0
408,112,24062,5,0,0:0:0
472,160,24243,2,0,P|488:220|468:272,1,120,4|8,0:0|0:0,0:0:0
332,352,24971,1,0,0:0:0
248,220,25334,1,8,0:0:0
284,288,25516,2,0,P|236:324|176:336,1,120
112,296,26062,1,8,0:0:0
248,220,26425,1,0,0:0:0
112,144,26789,1,8,0:0:0
112,144,27153,6,0,P|44:144,2,60,0|0|8,0:0|0:0|0:0,0:0:0
248,64,27880,1,0,0:0:0
384,140,28244,1,8,0:0:0
320,95,28426,2,0,P|284:151|276:207,1,120
323,265,28971,2,0,P|355:269|383:265,2,60,10|2|0,0:0|0:0|0:0,0:0:0
184,332,29698,5,8,0:0:0
44,260,30062,2,0,P|32:200|44:140,1,120,0|8,0:0|0:0,0:0:0
188,80,30789,2,0,P|200:140|188:200,1,120,0|8,0:0|0:0,0:0:0
120,160,31335,1,0,0:0:0
272,132,31699,5,0,0:0:0
272,132,31880,1,8,0:0:0
428,144,32244,1,0,0:0:0
456,72,32426,1,0,0:0:0
380,80,32608,1,8,0:0:0
288,208,32971,1,0,0:0:0
428,144,33335,1,8,0:0:0
356,176,33517,6,0,P|396:232,1,60,10|0,0:0|0:0,0:0:0
428,340,33881,2,0,P|368:328,1,60,2|2,0:0|0:0,0:0:0
256,288,34244,1,10,0:0:0
84,340,34608,2,0,P|144:328,1,60,10|0,0:0|0:0,0:0:0
121,224,34972,2,0,P|156:176,1,60,10|0,0:0|0:0,0:0:0
152,68,35335,2,0,P|120:64|92:68,2,60,2|8|2,0:0|0:0|0:0,0:0:0
232,124,35881,6,0,P|292:136|352:120,1,120,4|8,0:0|0:0,0:0:0
404,68,36426,1,0,0:0:0
464,116,36608,2,0,P|480:180|464:232,1,120,2|10,0:0|0:0,0:0:0
408,280,37154,1,2,0:0:0
256,308,37517,2,0,P|256:248,1,60,2|10,0:0|0:0,0:0:0
408,280,38063,5,0,0:0:0
439,351,38245,1,0,0:0:0
364,371,38426,1,8,0:0:0
333,299,38608,1,0,0:0:0
256,308,38790,2,0,P|196:296|140:308,1,120,0|8,0:0|0:0,0:0:0
80,256,39336,1,0,0:0:0
140,204,39517,2,0,P|196:216|256:204,1,120,2|10,0:0|0:0,0:0:0
324,164,40063,1,2,0:0:0
420,40,40427,2,0,P|488:40,1,60,2|10,0:0|0:0,0:0:0
328,84,40972,6,0,P|264:84,2,60,0|0|8,0:0|0:0|0:0,0:0:0
392,128,41518,1,0,0:0:0
324,164,41699,2,0,P|200:164,1,120,0|8,0:0|0:0,0:0:0
124,168,42245,1,0,0:0:0
52,136,42427,6,0,P|72:76|112:36,1,120,0|8,0:0|0:0,0:0:0
204,164,43154,2,0,P|184:224|144:264,1,120,0|8,0:0|0:0,0:0:0
136,108,43881,2,0,P|188:80|256:96,1,120,0|8,0:0|0:0,0:0:0
393,140,44609,6,0,P|341:168|273:152,1,120,0|8,0:0|0:0,0:0:0
245,90,45154,2,0,P|297:62|365:78,1,120
393,140,45700,2,0,P|393:261,1,120,8|2,0:0|0:0,0:0:0
368,336,46245,1,2,0:0:0
444,320,46427,1,8,0:0:0
292,280,46791,2,0,P|256:276|228:280,1,60,2|2,0:0|0:0,0:0:0
176,356,47155,2,0,P|212:360|240:356,1,60,8|2,0:0|0:0,0:0:0
156,280,47518,6,0,P|96:272|32:280,1,120,4|8,0:0|0:0,0:0:0
20,356,48064,1,0,0:0:0
96,364,48246,2,0,P|96:236,1,120,2|10,0:0|0:0,0:0:0
96,164,48791,1,2,0:0:0
96,84,48973,2,0,P|64:80|36:84,2,60,0|0|10,0:0|0:0|0:0,0:0:0
244,132,49700,6,0,P|244:68,2,60,0|0|8,0:0|0:0|0:0,0:0:0
165,130,50246,1,0,0:0:0
188,204,50428,2,0,P|252:212|308:200,1,120,0|8,0:0|0:0,0:0:0
352,140,50973,1,0,0:0:0
388,72,51155,2,0,P|388:12,2,60,2|2|8,0:0|0:0|0:0,0:0:0
432,136,51700,5,4,0:0:0
432,136,52064,2,0,P|496:136,1,60,2|8,0:0|0:0,0:0:0
492,240,52428,2,0,P|432:240,1,60,2|0,0:0|0:0,0:0:0
432,344,52791,2,0,P|496:344,2,60,2|10|0,0:0|0:0|0:0,0:0:0
352,344,53337,5,4,0:0:0
120,312,53882,1,2,0:0:0
148,80,54428,1,12,0:0:0
380,112,54973,1,2,0:0:0
228,80,55337,5,2,0:0:0
148,80,55519,2,0,P|148:48|156:16,1,60,2|0,0:0|0:0,0:0:0
228,80,55883,2,0,P|228:112|220:144,1,60,8|2,0:0|0:0,0:0:0
256,192,56246,12,10,57519,0:0:0
256,192,57883,6,0,P|348:208|432:188,1,180,2|10,0:0|0:0,0:0:0
336,64,58792,1,10,0:0:0
180,68,59156,6,0,P|112:68,2,60,4|2|0,0:2|0:0|0:0,0:0:0
240,116,59701,1,2,0:0:0
180,168,59883,2,0,P|56:168,1,120,2|2,0:0|0:0,0:0:0
16,232,60428,1,2,0:0:0
60,296,60610,2,0,P|128:296,1,60,0|2,0:0|0:0,0:0:0
276,296,61156,5,2,0:0:0
400,200,61519,1,2,0:0:0
276,296,61883,5,2,0:0:0
216,244,62065,2,0,P|184:236|152:244,1,60,2|0,0:0|0:0,0:0:0
283,147,62610,5,2,0:0:0
342,197,62792,2,0,P|374:205|406:197,1,60,2|0,0:0|0:0,0:0:0
432,48,63338,5,2,0:0:0
336,60,63520,2,0,P|372:112,1,60,2|0,0:0|0:0,0:0:0
256,100,63883,2,0,P|256:168,1,60,2|2,0:0|0:0,0:0:0
176,60,64247,2,0,P|140:112,1,60,0|8,0:0|0:2,0:0:0
80,48,64611,1,10,3:0:0
8,188,64974,6,0,P|0:248|12:312,2,120,4|2|2,0:2|0:0|0:0,0:0:0
148,260,66065,2,0,P|128:288|104:304,1,60,2|2,0:0|0:0,0:0:0
76,232,66429,1,0,0:0:0
136,184,66611,2,0,P|196:172|256:188,1,120,2|2,0:0|0:0,0:0:0
380,276,67338,1,2,0:0:0
256,371,67702,5,0,0:0:0
285,298,67884,2,0,P|252:292|224:299,2,60,2|0|4,0:0|0:0|0:2,0:0:0
380,276,68429,5,0,0:0:0
444,232,68611,2,0,P|472:216|488:192,2,60,2|0|4,0:0|0:0|0:2,0:0:0
376,196,69157,5,2,0:0:0
332,112,69338,2,0,P|328:80|332:52,1,60,0|2,0:0|0:0,0:0:0
256,104,69702,2,0,P|256:164,1,60,0|2,0:0|0:0,0:0:0
180,112,70066,2,0,P|184:80|180:52,1,60,2|8,0:0|0:2,0:0:0
84,28,70429,1,10,3:0:0
64,200,70793,6,0,P|32:208|4:200,2,60,4|2|0,0:2|0:0|0:0,0:0:0
104,132,71339,1,2,0:0:0
144,200,71520,2,0,P|152:264|144:320,1,120,2|2,0:0|0:0,0:0:0
216,380,72066,1,0,0:0:0
292,320,72248,6,0,P|352:308|412:320,1,120,2|0,0:0|0:0,0:0:0
476,252,72793,1,2,0:0:0
400,192,72975,2,0,P|340:192,2,60,2|0|2,0:0|0:0|0:0,0:0:0
476,132,73521,1,2,0:0:0
409,65,73702,6,0,P|352:76|292:64,1,120,0|4,0:0|0:2,0:0:0
156,144,74430,2,0,P|213:154|273:142,1,120,2|4,0:0|0:2,0:0:0
293,65,74975,1,2,0:0:0
293,65,75157,6,0,P|235:54|175:66,1,120,2|2,0:0|0:0,0:0:0
156,144,75703,2,0,P|98:154|38:142,1,120,2|4,0:0|0:2,0:0:0
40,64,76248,2,0,P|72:56|100:56,1,60,2|2,0:0|0:0,0:0:0
177,66,76612,5,0,0:0:0
177,66,76794,1,2,0:0:0
380,192,77157,1,2,0:0:0
164,300,77521,1,2,0:0:0
177,66,77885,6,0,P|237:58|301:66,1,120,2|0,0:0|0:0,0:0:0
359,109,78430,2,0,P|419:117|483:109,1,120,2|2,0:0|0:0,0:0:0
416,252,79157,1,4,0:0:0
416,252,79521,6,0,P|356:252,1,60,2|2,0:0|0:0,0:0:0
120,300,80067,2,0,P|180:284,1,60,2|0,0:0|0:0,0:0:0
140,192,80430,2,0,P|80:192,1,60,2|0,0:0|0:0,0:0:0
120,84,80794,1,4,0:2:0
120,84,81158,6,0,P|180:100,1,60,2|2,0:0|0:0,0:0:0
256,148,81521,1,0,0:0:0
334,99,81703,2,0,P|392:84,2,60,2|0|2,0:0|0:0|0:0,0:0:0
256,148,82249,1,2,0:0:0
256,192,82430,12,4,83885,0:0:0
256,192,94250,12,4,95523,0:0:0
256,192,95886,5,8,0:0:0
256,192,96250,2,0,P|320:200|380:188,1,120,0|8,0:0|0:0,0:0:0
372,112,96795,2,0,P|308:104|248:116,1,120
184,152,97341,1,8,0:0:0
96,280,97705,1,0,0:0:0
64,208,97886,1,0,0:0:0
140,216,98068,1,8,0:0:0
288,268,98432,5,0,0:0:0
184,152,98796,1,8,0:0:0
96,280,99159,1,0,0:0:0
244,332,99523,1,8,0:0:0
288,268,99705,2,0,P|236:236|176:232,1,120
169,309,100250,1,10,0:0:0
324,340,100614,5,0,0:0:0
428,224,100978,1,8,0:0:0
368,80,101341,2,0,P|308:64|248:68,1,120,0|8,0:0|0:0,0:0:0
108,128,102069,1,0,0:0:0
252,192,102432,1,8,0:0:0
180,160,102614,6,0,P|156:216|164:280,1,120
204,340,103160,1,8,0:0:0
356,308,103523,1,0,0:0:0
252,192,103887,1,8,0:0:0
404,156,104251,1,0,0:0:0
356,308,104614,1,8,0:0:0
380,232,104796,6,0,P|412:236|440:228,2,60,2|2|0,0:0|0:0|0:0,0:0:0
404,156,105342,2,0,P|430:148|462:152,1,60,2|10,0:0|0:0,0:0:0
308,248,105887,1,10,0:0:0
256,76,106251,1,10,0:0:0
80,116,106614,1,2,0:0:0
144,164,106796,1,10,0:0:0
220,144,106978,1,0,0:0:0
256,76,107160,6,0,P|196:64|136:76,2,120,4|2|2,0:0|1:0|3:0,0:0:0
360,192,109342,5,2,1:0:0
360,192,109706,1,0,0:0:0
360,192,110069,2,0,P|420:204|480:192,2,120,2|2|2,3:0|1:0|3:0,0:0:0
256,308,112251,5,2,1:0:0
256,308,112615,1,0,0:0:0
256,308,112979,1,2,3:0:0
120,192,113706,1,2,1:0:0
256,76,114433,1,2,3:0:0
392,192,115161,1,2,1:0:0
216,348,115888,6,0,P|216:284,1,60,0|0,0:0|0:0,0:0:0
256,220,116252,1,0,0:0:0
296,288,116434,2,0,P|296:348,1,60
168,153,116979,6,0,P|258:129|340:152,1,180,4|8,0:0|0:0,0:0:0
396,204,117706,2,0,P|460:204,2,60,8|2|0,0:0|0:0|0:0,0:0:0
396,284,118252,2,0,P|460:284,2,60,8|10|0,0:0|0:0|0:0,0:0:0
317,284,118797,6,0,P|193:284,1,120,4|8,0:0|0:0,0:0:0
122,261,119343,1,0,0:0:0
60,212,119525,2,0,P|52:152|60:88,1,120,2|10,0:0|0:0,0:0:0
116,40,120070,1,2,0:0:0
256,112,120434,1,2,0:0:0
256,112,120616,1,10,0:0:0
397,177,120979,6,0,P|404:141|397:110,1,60
334,75,121343,2,0,P|327:111|334:142,1,60,8|0,0:0|0:0,0:0:0
256,112,121707,2,0,P|196:96|140:112,1,120,0|8,0:0|0:0,0:0:0
68,140,122252,2,0,P|36:152|4:148,1,60,2|0,0:0|0:0,0:0:0
12,72,122616,1,2,0:0:0
88,56,122798,1,8,0:0:0
142,111,122980,6,0,P|158:171|142:227,1,120,4|2,0:0|0:0,0:0:0
116,300,123525,1,8,0:0:0
36,300,123707,2,0,P|-24:300,2,60,2|0|2,0:0|0:0|0:0,0:0:0
116,300,124252,2,0,P|184:300,1,60,10|0,0:0|0:0,0:0:0
256,328,124616,5,4,0:0:0
448,192,125162,1,2,0:0:0
256,56,125707,1,4,0:0:0
64,192,126253,1,2,0:0:0
204,120,126616,5,2,0:0:0
256,56,126798,2,0,P|228:36|200:28,1,60,0|2,0:0|0:0,0:0:0
204,120,127162,2,0,P|232:140|260:148,1,60,8|2,0:0|0:0,0:0:0
256,192,127525,12,10,128798,0:0:0
256,192,129162,6,0,P|164:208|80:188,1,180,2|8,0:0|0:0,0:0:0
32,128,129889,1,10,0:0:0
32,128,130071,1,10,0:0:0
164,48,130435,6,0,P|200:60|224:64,1,60,4|2,0:2|0:0,0:0:0
300,60,130798,2,0,P|321:56|357:44,1,60,0|2,0:0|0:0,0:0:0
432,68,131162,2,0,P|444:128|432:188,1,120,2|2,0:0|0:0,0:0:0
400,256,131708,2,0,P|340:256,1,60,0|2,0:0|0:0,0:0:0
268,284,132071,2,0,P|257:226|269:166,1,120,2|2,0:0|0:0,0:0:0
400,256,132799,1,2,0:0:0
400,256,133162,5,2,0:0:0
442,321,133344,2,0,P|475:333|500:331,1,60,2|0,0:0|0:0,0:0:0
341,312,133890,5,2,0:0:0
268,284,134072,2,0,P|234:278|207:282,1,60,2|0,0:0|0:0,0:0:0
54,293,134617,6,0,P|88:289|113:278,1,60,2|0,0:0|0:0,0:0:0
69,192,134981,2,0,P|10:192,1,60,2|2,0:0|0:0,0:0:0
54,91,135344,2,0,P|88:94|111:104,1,60,0|2,0:0|0:0,0:0:0
160,192,135708,1,8,0:2:0
160,192,135890,1,10,3:0:0
317,134,136254,6,0,P|328:200|314:255,2,120,4|2|2,0:2|0:0|0:0,0:0:0
239,282,137345,1,0,0:0:0
305,333,137526,1,2,0:0:0
383,303,137708,1,0,0:0:0
422,228,137890,2,0,P|422:166,1,60,2|0,0:0|0:0,0:0:0
422,83,138254,1,2,0:0:0
256,114,138617,1,2,0:0:0
90,83,138981,5,0,0:0:0
172,96,139163,2,0,P|159:161|129:206,1,120,2|4,0:0|0:2,0:0:0
57,161,139708,5,0,0:0:0
57,161,139890,2,0,P|45:221|53:279,1,120,2|4,0:0|0:2,0:0:0
135,349,140436,5,0,0:0:0
190,287,140618,2,0,P|204:307|214:340,1,60,2|2,0:0|0:0,0:0:0
256,243,140981,2,0,P|256:181,1,60,0|2,0:0|0:0,0:0:0
322,287,141345,2,0,P|307:307|297:340,1,60,2|8,0:0|0:2,0:0:0
377,349,141709,1,10,3:0:0
464,192,142072,6,0,P|493:136,1,60,4|2,0:2|0:0,0:0:0
389,162,142436,2,0,P|402:101,1,60,0|2,0:0|0:0,0:0:0
313,123,142800,2,0,P|255:108|198:123,1,120,2|2,0:0|0:0,0:0:0
123,162,143345,5,2,0:0:0
123,162,143527,2,0,P|110:101,1,60,0|2,0:0|0:0,0:0:0
48,192,143891,2,0,P|19:136,1,60,0|2,0:0|0:0,0:0:0
77,267,144254,2,0,P|90:328,1,60,2|0,0:0|0:0,0:0:0
152,237,144618,2,0,P|181:293,1,60,2|2,0:0|0:0,0:0:0
242,337,144982,6,0,P|301:322|358:338,1,120,0|4,0:0|0:2,0:0:0
430,363,145527,1,2,0:0:0
476,300,145709,2,0,P|488:240|476:179,1,120,2|4,0:0|0:2,0:0:0
418,132,146254,1,2,0:0:0
357,82,146436,6,0,P|346:139|358:199,1,120,2|2,0:0|0:0,0:0:0
412,256,146982,1,2,0:0:0
198,288,147345,1,4,0:2:0
188,210,147527,2,0,P|181:140,1,60,2|2,0:0|0:0,0:0:0
124,97,147891,5,0,0:0:0
55,132,148073,2,0,P|39:194|58:246,1,120,2|2,0:0|0:0,0:0:0
256,192,148800,1,2,0:0:0
454,244,149164,6,0,P|473:194|457:132,1,120,2|0,0:0|0:0,0:0:0
359,132,149709,2,0,P|343:194|362:245,1,120,2|2,0:0|0:0,0:0:0
178,311,150437,1,4,0:1:0
178,73,150800,5,2,0:0:0
94,60,150982,2,0,P|104:120|154:155,1,120,2|2,0:0|0:0,0:0:0
262,323,151709,1,2,0:0:0
262,323,152073,6,0,P|252:263|202:228,1,120,4|2,0:2|0:0,0:0:0
129,163,152619,2,0,P|124:197|130:223,1,60,0|2,0:0|0:0,0:0:0
206,154,152982,2,0,P|252:121|262:61,1,120,2|2,0:0|0:0,0:0:0
178,73,153528,1,2,0:0:0
178,73,153710,5,2,3:0:0
363,122,154073,1,2,0:0:0
309,306,154437,1,0,0:0:0
123,257,154801,1,2,0:0:0
197,114,155164,6,0,P|257:101|313:114,1,120,2|2,3:0|0:0,0:0:0
313,270,155892,2,0,P|257:283|197:270,1,120,0|2,0:0|0:0,0:0:0
197,113,156619,6,0,P|248:82|313:77,1,120,2|2,3:0|0:0,0:0:0
313,270,157346,2,0,P|262:301|197:306,1,120,0|2,0:0|0:0,0:0:0
256,192,158074,12,8,159165,0:0:0
256,192,159528,6,0,P|376:192,1,120,4|8,0:0|0:0,0:0:0
428,250,160074,1,0,0:0:0
320,363,160438,2,0,P|366:310,1,60,0|8,0:0|0:0,0:0:0
295,272,160801,6,0,P|174:272,1,120
100,249,161347,1,8,0:0:0
170,109,161710,1,0,0:0:0
99,74,161892,2,0,P|69:69|38:72,2,60,0|8|0,0:0|0:0|0:0,0:0:0
170,109,162438,6,0,P|232:119|291:107,1,120,0|8,0:0|0:0,0:0:0
350,60,162983,1,0,0:0:0
479,146,163347,1,0,0:0:0
414,102,163529,6,0,P|377:163,1,60,8|0,0:0|0:0,0:0:0
256,192,163892,2,0,P|317:192,1,60,2|2,0:0|0:0,0:0:0
414,282,164256,2,0,P|377:221,1,60,8|2,0:0|0:0,0:0:0
256,323,164802,1,2,0:0:0
179,308,164983,1,10,0:0:0
105,334,165165,1,0,0:0:0
48,279,165347,6,0,P|37:214,1,60,2|0,0:0|0:0,0:0:0
43,141,165711,2,0,P|108:130,1,60,8|2,0:0|0:0,0:0:0
166,175,166074,2,0,P|177:240,2,60,0|2|10,0:0|0:0|0:0,0:0:0
335,234,166802,6,0,P|346:175,1,60,2|0,0:0|0:0,0:0:0
409,130,167165,2,0,P|469:141,1,60,8|2,0:0|0:0,0:0:0
474,219,167529,2,0,P|464:279,2,60,0|2|10,0:0|0:0|0:0,0:0:0
312,326,168256,6,0,P|252:336|195:327,1,120,2|8,0:0|0:0,0:0:0
195,242,168802,2,0,P|252:233|312:243,1,120,2|2,0:0|0:0,0:0:0
379,286,169347,1,8,0:0:0
379,286,169529,1,2,0:0:0
133,286,170075,5,2,0:0:0
256,78,170620,2,0,P|256:46,2,30
256,234,171166,1,10,0:0:0
256,192,181349,12,8,182440,0:0:0
114,140,182803,6,0,P|53:140,1,60,4|2,0:2|0:0,0:0:0
114,223,183167,2,0,P|53:223,1,60,0|2,0:0|0:0,0:0:0
114,303,183531,1,2,0:0:0
114,303,183894,5,2,0:0:0
202,339,184076,1,2,0:0:0
286,255,184258,2,0,P|257:246|227:255,1,60,0|2,0:0|0:0,0:0:0
310,339,184622,1,2,0:0:0
398,303,184803,1,0,0:0:0
445,219,184985,2,0,P|451:154|442:101,1,120,2|2,0:0|0:0,0:0:0
261,54,185713,6,0,P|255:119|264:172,1,120,0|4,0:0|0:2,0:0:0
297,243,186258,1,0,0:0:0
219,237,186440,2,0,P|159:231|99:238,1,120,2|4,0:0|0:2,0:0:0
21,243,186985,1,2,0:0:0
54,172,187167,2,0,P|63:119|57:54,1,120,2|2,0:0|0:0,0:0:0
129,23,187713,1,2,0:0:0
258,109,188076,1,4,0:2:0
327,143,188258,6,0,P|358:151|391:141,1,60,2|0,0:0|0:0,0:0:0
455,109,188622,1,2,0:0:0
413,43,188804,2,0,P|355:30|297:43,1,120,2|2,0:0|0:0,0:0:0
256,192,189531,1,2,0:0:0
99,341,189895,2,0,P|157:354|215:341,1,120,2|0,0:0|0:0,0:0:0
215,262,190440,2,0,P|157:249|99:262,1,120,2|2,0:0|0:0,0:0:0
30,301,190986,1,0,0:0:0
30,301,191168,1,4,0:0:0
104,163,191531,5,2,0:0:0
104,163,191713,1,2,0:0:0
256,192,192077,1,2,0:0:0
408,163,192440,1,2,0:0:0
408,163,192804,6,0,P|420:105,1,60,4|0,0:2|0:0,0:0:0
318,106,193168,1,2,0:0:0
256,192,193350,2,0,P|314:217,1,60,0|2,0:0|0:0,0:0:0
318,106,193713,2,0,P|259:92|202:106,1,120,2|2,0:0|0:0,0:0:0
146,160,194259,2,0,P|146:226,1,60,2|6,0:0|0:0,0:0:0
256,331,194804,5,10,0:0:0
395,262,195168,2,0,P|456:262,2,60,2|2|8,0:0|0:0|0:0,0:0:0
332,309,195713,2,0,P|317:252|353:194,1,120,2|0,0:0|0:0,0:0:0
421,184,196259,2,0,P|421:115,1,60,8|2,0:0|0:0,0:0:0
286,43,196804,2,0,P|345:43,2,60,2|8|2,0:0|0:0|0:0,0:0:0
189,49,197350,6,0,P|130:57,1,60,2|0,0:0|0:0,0:0:0
66,136,197714,2,0,P|134:144,1,60,8|2,0:0|0:0,0:0:0
125,240,198077,2,0,P|66:248,1,60,2|0,0:0|0:0,0:0:0
130,327,198441,2,0,P|189:335,1,60,8|2,0:0|0:0,0:0:0
256,192,198987,1,0,0:0:0
400,133,199350,1,2,0:0:0
400,133,199532,2,0,P|411:192|398:250,1,120,2|8,0:0|0:0,0:0:0
367,321,200078,5,8,0:0:0
291,340,200259,1,4,0:0:0
108,227,200623,5,8,0:0:0
127,303,200805,1,0,1:0:0
221,44,201169,5,8,0:0:0
145,63,201350,1,2,1:0:0
404,157,201714,5,0,0:0:0
385,81,201896,1,0,1:0:0
256,192,202260,5,0,1:0:0
192,241,202441,2,0,P|216:262|244:272,1,60,2|2,1:0|1:0,0:0:0
320,143,202805,2,0,P|296:122|268:112,1,60,2|2,1:0|1:0,0:0:0
51,192,203351,6,0,P|14:192,1,30,0|2,0:0|0:0,0:0:0
