osu file format v11

[General]
AudioFilename: www.mp3
AudioLeadIn: 2000
PreviewTime: 59156
Countdown: 0
SampleSet: Soft
StackLeniency: 0.7
Mode: 0
LetterboxInBreaks: 1

[Editor]
Bookmarks: 8781,32599
DistanceSpacing: 1.1
BeatDivisor: 4
GridSize: 32

[Metadata]
Title:Kiseki no Kakera
TitleUnicode:奇跡のかけら
Artist:Makishima Yuki, Yoshikawa Yukako & Fujita Saki
ArtistUnicode:牧島有希, 吉川友佳子 & 藤田咲
Creator:DarknessAngel
Version:Hard
Source:Tokimeki Memoriaru Only Love
Tags:Amamiya Sayuri Kasuga Tsukasa Yayoi Mina [Kirisame-Marisa] hoLysoup Yia Memorial
BeatmapID:195744
BeatmapSetID:67248

[Difficulty]
HPDrainRate:5
CircleSize:4
OverallDifficulty:6
ApproachRate:7
SliderMultiplier:1.5
SliderTickRate:1

[Events]
//Background and Video events
0,0,"BG.jpg"
//Break Periods
2,84085,93350
2,171366,179894
//Storyboard Layer 0 (Background)
//Storyboard Layer 1 (Fail)
//Storyboard Layer 2 (Pass)
//Storyboard Layer 3 (Foreground)
//Storyboard Sound Samples
//Background Colour Transformations
3,100,163,162,255

[TimingPoints]
969,363.669424493136,4,2,1,50,1,0
57883,-100,4,2,1,40,0,0
59156,-100,4,1,2,50,0,1
70429,-100,4,2,1,50,0,0
70793,-100,4,1,2,50,0,1
82249,-100,4,2,1,50,0,0
107160,-100,4,2,1,50,0,1
107251,-200,4,2,2,40,0,0
115888,-100,4,1,1,40,0,0
116979,-100,4,2,1,40,0,0
118797,-100,4,2,1,50,0,1
118888,-100,4,2,1,50,0,0
129162,-100,4,2,1,40,0,0
130435,-100,4,1,2,50,0,1
141709,-100,4,2,1,50,0,0
142072,-100,4,1,2,50,0,1
153528,-100,4,2,1,50,0,0
153710,-100,4,2,1,40,0,0
158074,-100,4,1,1,25,0,0
159528,-100,4,2,1,50,0,0
170075,-100,4,1,2,50,0,0
171166,-100,4,2,1,50,0,0
182803,-100,4,1,2,50,0,1
194259,-100,4,2,1,50,0,0
203351,-200,4,2,1,40,0,0

[Colours]
Combo1 : 81,81,255
Combo2 : 249,159,62
Combo3 : 234,242,68
Combo4 : 99,245,238
Combo5 : 225,225,225
Combo6 : 251,106,236
Combo7 : 185,111,247
Combo8 : 137,243,73

[HitObjects]
420,104,605,1,8,0:0:0
420,104,969,2,0,P|344:88|272:108,1,150,4|8,0:0|0:0,0:0:0
224,168,1514,1,2,0:0:0
176,236,1696,2,0,P|100:252|28:232,1,150,2|8,0:0|0:0,0:0:0
16,152,2241,5,2,0:0:0
224,168,2605,2,0,P|264:176|300:168,1,75,2|8,0:0|0:0,0:0:0
292,88,2969,2,0,P|258:81|218:89,1,75,2|2,0:0|0:0,0:0:0
148,132,3332,1,0,0:0:0
148,132,3514,1,8,0:0:0
256,312,3878,6,0,P|336:328|404:308,1,150,2|8,0:0|0:0,0:0:0
448,244,4423,1,2,0:0:0
448,244,4605,2,0,P|448:88,1,150,2|8,0:0|0:0,0:0:0
376,56,5151,5,2,0:0:0
376,56,5514,2,0,P|336:48|300:56,1,75,2|8,0:0|0:0,0:0:0
256,124,5878,1,2,0:0:0
256,208,6060,2,0,P|256:292,1,75,2|0,0:0|0:0,0:0:0
316,340,6424,1,8,0:0:0
336,344,6514,1,2,0:0:0
356,344,6605,1,2,0:0:0
376,340,6696,1,0,0:0:0
392,336,6787,6,0,P|416:260|404:188,1,150,2|8,0:0|0:0,0:0:0
256,60,7515,1,2,0:0:0
172,60,7696,2,0,P|84:60,2,75,2|8|2,0:0|0:0|0:0,0:0:0
256,252,8424,2,0,P|216:268|176:268,1,75,0|8,0:0|0:0,0:0:0
128,208,8787,6,0,P|200:180|276:176,1,150,2|2,0:0|0:0,0:0:0
392,240,9333,1,8,0:0:0
256,252,9515,1,2,0:0:0
356,164,9697,6,0,P|392:152|432:164,1,75,2|2,0:0|0:0,0:0:0
328,296,10060,2,0,P|312:324|272:332,1,75,8|2,0:0|0:0,0:0:0
256,252,10424,1,0,0:0:0
392,240,10606,1,2,0:0:0
276,172,10788,1,8,0:0:0
328,296,10969,1,2,1:0:0
328,296,11333,5,2,0:0:0
240,336,11515,1,0,0:0:0
148,300,11697,1,2,0:0:0
52,320,11879,2,0,P|40:360,2,37.5,10|8|8,0:0|0:0|0:0,0:0:0
44,224,12242,2,0,P|12:200,2,37.5,10|8|8,0:0|0:0|0:0,0:0:0
140,204,12606,6,0,P|156:128|144:56,1,150,4|8,0:0|0:0,0:0:0
144,58,13333,2,0,P|64:58,2,75,0|0|8,0:0|0:0|0:0,0:0:0
228,56,13879,6,0,P|300:84|372:76,1,150
484,72,14424,2,0,P|468:32|448:4,1,75,8|0,0:0|0:0,0:0:0
432,152,14788,2,0,P|448:192|468:220,2,75,0|0|8,0:0|0:0|0:0,0:0:0
432,152,15515,6,0,P|384:160|360:176,1,75
276,268,15879,2,0,P|316:276|352:268,1,75,8|0,0:0|0:0,0:0:0
260,176,16243,1,0,0:0:0
260,176,16606,1,8,0:0:0
180,204,16788,6,0,P|108:224|32:204,1,150
20,124,17334,2,0,P|8:48,1,75,10|2,0:0|0:0,0:0:0
124,32,17697,2,0,P|135:106,1,75
180,204,18061,1,8,0:0:0
180,204,18425,6,0,P|152:280|96:320,1,150,0|8,0:0|0:0,0:0:0
248,144,19152,1,0,0:0:0
248,144,19516,1,8,0:0:0
332,144,19697,2,0,P|408:144,2,75
212,228,20243,6,0,P|256:236|292:228,1,75,8|0,0:0|0:0,0:0:0
284,56,20607,2,0,P|254:50|210:58,1,75
124,200,20970,1,8,0:0:0
124,92,21152,1,0,0:0:0
248,144,21334,6,0,P|264:220|244:300,1,150,0|8,0:0|0:0,0:0:0
125,345,21879,2,0,P|109:269|129:189,1,150
204,272,22425,1,8,0:0:0
204,272,22607,6,0,P|116:272,1,75,2|0,3:0|0:0,0:0:0
218,169,22971,2,0,P|298:169,1,75,2|8,0:0|0:0,0:0:0
383,272,23334,2,0,P|308:272,1,75,2|0,0:0|0:0,0:0:0
388,184,23698,1,2,0:0:0
460,120,23880,2,0,P|504:128,2,37.5,8|8|0,0:0|0:0|0:0,0:0:0
368,88,24243,6,0,P|292:72|216:92,1,150,4|8,0:0|0:0,0:0:0
222,88,24971,2,0,P|184:104|152:104,1,75
92,48,25334,1,8,0:0:0
32,104,25516,2,0,P|4:180|32:240,1,150
96,308,26062,2,0,P|123:248|95:172,1,150,8|0,0:0|0:0,0:0:0
95,172,26789,6,0,P|135:155|175:155,1,75,8|0,0:0|0:0,0:0:0
293,244,27153,2,0,P|257:252|219:244,1,75
346,153,27516,1,8,0:0:0
346,153,27880,1,0,0:0:0
428,136,28062,1,0,0:0:0
372,76,28244,1,8,0:0:0
346,153,28426,6,0,P|328:228|356:300,1,150
436,300,28971,2,0,P|448:260|440:224,1,75,10|2,0:0|0:0,0:0:0
346,152,29335,2,0,P|186:152,1,150,0|8,0:0|0:0,0:0:0
48,336,30062,6,0,P|40:296|44:256,1,75
220,264,30426,2,0,P|222:297|214:337,1,75,8|0,0:0|0:0,0:0:0
132,288,30789,1,0,0:0:0
132,288,31153,5,8,0:0:0
132,196,31335,2,0,P|132:40,1,150
48,104,31880,1,8,0:0:0
256,48,32244,1,0,0:0:0
464,104,32608,1,8,0:0:0
464,104,32971,2,0,P|484:184|464:248,1,150,0|8,0:0|0:0,0:0:0
404,304,33517,5,10,0:0:0
308,220,33699,1,0,0:0:0
332,344,33881,1,2,0:0:0
384,228,34062,1,8,0:0:0
272,292,34244,1,2,0:0:0
272,292,34608,6,0,P|228:304|196:296,1,75,10|0,0:0|0:0,0:0:0
308,220,34972,2,0,P|340:248|348:280,1,75,10|0,0:0|0:0,0:0:0
228,224,35335,1,10,0:0:0
148,240,35517,1,0,0:0:0
208,144,35699,1,10,0:0:0
128,160,35881,6,0,P|52:164|-12:200,1,150,4|8,0:0|0:0,0:0:0
20,276,36426,1,0,0:0:0
84,332,36608,2,0,P|160:348|232:332,1,150,2|10,0:0|0:0,0:0:0
296,284,37154,1,2,0:0:0
296,284,37517,2,0,P|380:284,1,75,2|10,0:0|0:0,0:0:0
128,160,38063,5,0,0:0:0
184,80,38245,1,0,0:0:0
104,24,38426,1,8,0:0:0
48,104,38608,1,0,0:0:0
128,160,38790,6,0,P|208:176|276:160,1,150,0|8,0:0|0:0,0:0:0
344,116,39336,1,0,0:0:0
420,148,39517,2,0,P|448:220|424:292,1,150,2|10,0:0|0:0,0:0:0
356,328,40063,1,2,0:0:0
356,328,40427,2,0,P|280:328,1,75,2|10,0:0|0:0,0:0:0
96,192,40972,6,0,P|32:144,1,75
96,284,41336,2,0,P|32:332,1,75,8|0,0:0|0:0,0:0:0
176,240,41699,2,0,P|328:240,1,150,0|8,0:0|0:0,0:0:0
384,160,42245,1,0,0:0:0
320,84,42427,2,0,P|240:84,1,75
104,108,42790,2,0,P|144:40,1,75,8|0,0:0|0:0,0:0:0
214,175,43154,6,0,P|174:243,1,75
84,320,43518,1,8,0:0:0
84,320,43881,2,0,P|20:264,1,75
176,240,44245,2,0,P|252:240,1,75,8|0,0:0|0:0,0:0:0
340,220,44609,6,0,P|360:144|336:80,1,150,0|8,0:0|0:0,0:0:0
280,152,45154,2,0,P|432:152,1,150
480,228,45700,2,0,P|484:276|476:308,1,75,8|0,0:0|0:0,0:0:0
316,340,46064,6,0,P|300:264,1,75,2|2,0:0|0:0,0:0:0
144,216,46427,2,0,P|128:256|124:288,1,75,8|2,0:0|0:0,0:0:0
388,288,46791,2,0,P|384:256|368:216,1,75,2|0,0:0|0:0,0:0:0
211,266,47155,2,0,P|196:340,1,75,10|0,0:0|0:0,0:0:0
256,196,47518,6,0,P|256:116,2,75,4|0|8,0:0|0:0|0:0,0:0:0
211,266,48064,1,0,0:0:0
144,216,48246,2,0,P|124:140|140:68,1,150,2|10,0:0|0:0,0:0:0
200,140,48791,2,0,P|48:140,1,150,2|0,0:0|0:0,0:0:0
60,220,49337,1,10,0:0:0
296,160,49700,5,0,0:0:0
340,72,49882,1,0,0:0:0
244,52,50064,1,8,0:0:0
200,140,50246,1,0,0:0:0
296,160,50428,6,0,P|372:176|444:160,1,150,0|8,0:0|0:0,0:0:0
484,232,50973,1,0,0:0:0
440,300,51155,2,0,P|405:292|367:300,1,75,0|2,0:0|0:0,0:0:0
296,339,51519,1,8,0:0:0
256,268,51700,1,4,0:0:0
256,268,52064,6,0,P|184:288,1,75,2|8,0:0|0:0,0:0:0
92,216,52428,2,0,P|164:196,1,75,2|0,0:0|0:0,0:0:0
88,308,52791,1,2,0:0:0
12,260,52973,1,8,0:0:0
12,260,53064,1,8,0:0:0
12,260,53155,1,0,0:0:0
92,216,53337,6,0,P|112:144|88:72,1,150,4|8,0:0|0:0,0:0:0
28,148,53882,1,2,0:0:0
272,148,54246,1,2,0:0:0
272,148,54428,1,12,0:0:0
210,74,54610,2,0,P|188:144|208:216,1,150,2|0,0:0|0:0,0:0:0
208,216,55337,6,0,P|151:275,1,75,2|2,0:0|0:0,0:0:0
304,216,55701,2,0,P|360:275,1,75,2|8,0:0|0:0,0:0:0
256,296,56064,1,10,0:0:0
256,192,56246,12,10,57519,0:0:0
424,120,57883,5,2,0:0:0
332,168,58065,1,2,0:0:0
420,228,58246,1,0,0:0:0
324,272,58428,2,0,P|284:292,3,37.5,10|8|8|8,0:0|0:0|0:0|0:0,0:0:0
252,300,58792,2,0,P|212:300,3,37.5,10|8|8|8,0:0|0:0|0:0|0:0,0:0:0
176,288,59156,6,0,P|136:280|96:288,1,75,4|2,0:2|0:0,0:0:0
144,192,59519,2,0,P|184:200|224:192,1,75,0|2,0:0|0:0,0:0:0
276,116,59883,1,2,0:0:0
276,116,60247,5,2,0:0:0
200,52,60428,1,0,0:0:0
116,104,60610,1,2,0:0:0
44,36,60792,1,2,0:0:0
276,116,61156,2,0,P|296:196|276:264,1,150,2|2,0:0|0:0,0:0:0
44,332,61883,5,2,0:0:0
44,332,62065,2,0,P|24:256|40:184,1,150,2|0,0:0|0:0,0:0:0
148,96,62610,1,2,0:0:0
148,96,62792,2,0,P|168:172|152:244,1,150,2|0,0:0|0:0,0:0:0
88,168,63338,5,2,0:0:0
88,168,63520,2,0,P|168:168,1,75,2|0,0:0|0:0,0:0:0
294,80,63883,2,0,P|214:80,1,75,2|2,0:0|0:0,0:0:0
348,168,64247,1,2,0:0:0
349,168,64429,2,0,P|424:168,1,75,8|10,0:2|3:0,0:0:0
192,308,64974,6,0,P|140:368,1,75,4|2,0:2|0:0,0:0:0
320,308,65338,2,0,P|369:364,1,75,2|0,0:0|0:0,0:0:0
256,232,65702,1,2,0:0:0
256,232,66065,5,2,0:0:0
220,140,66247,1,0,0:0:0
136,92,66429,1,2,0:0:0
40,116,66611,2,0,P|16:192|40:256,1,150,2|2,0:0|0:0,0:0:0
256,232,67338,2,0,P|180:260,1,75,2|0,0:0|0:0,0:0:0
220,140,67702,5,0,0:0:0
220,140,67884,2,0,P|296:112,1,75,2|0,0:0|0:0,0:0:0
368,176,68247,1,4,0:2:0
256,232,68429,5,0,0:0:0
256,232,68611,2,0,P|180:260,1,75,2|0,0:0|0:0,0:0:0
112,192,68975,1,4,0:2:0
20,152,69157,6,0,P|12:196|20:228,1,75,2|2,0:0|0:0,0:0:0
168,104,69520,2,0,P|128:92|96:92,1,75,0|2,0:0|0:0,0:0:0
96,292,69884,2,0,P|128:292|168:280,1,75,2|2,0:0|0:0,0:0:0
112,192,70248,2,0,P|64:192,2,37.5,8|0|10,0:2|0:0|3:0,0:0:0
112,192,70793,6,0,P|192:192,1,75,4|2,0:2|0:0,0:0:0
132,48,71157,2,0,P|68:96,1,75,0|2,0:0|0:0,0:0:0
188,112,71520,1,2,0:0:0
188,112,71884,5,2,0:0:0
324,112,72066,1,2,0:0:0
256,44,72248,1,0,0:0:0
256,180,72430,1,2,0:0:0
320,256,72611,2,0,P|348:228|360:192,1,75,2|0,0:0|0:0,0:0:0
192,256,72975,2,0,P|164:228|152:192,1,75,2|0,0:0|0:0,0:0:0
256,105,73339,2,0,P|256:181,1,75,2|2,0:0|0:0,0:0:0
192,256,73702,6,0,P|128:296|72:256,1,150,0|4,0:0|0:2,0:0:0
73,125,74248,1,2,0:0:0
73,125,74430,2,0,P|128:88|192:128,1,150,2|4,0:0|0:2,0:0:0
268,192,74975,1,2,0:0:0
364,192,75157,5,2,0:0:0
364,192,75248,1,0,0:0:0
364,192,75339,2,0,P|448:192,1,75,0|2,0:0|0:0,0:0:0
472,284,75703,2,0,P|400:304|328:284,1,150,2|6,0:0|0:2,0:0:0
268,192,76248,2,0,P|268:152|272:112,1,75,2|2,0:0|0:0,0:0:0
360,72,76612,5,0,0:0:0
360,72,76794,1,2,0:0:0
200,260,77157,2,0,P|132:296,1,75,2|0,0:0|0:0,0:0:0
268,192,77521,2,0,P|332:236,1,75,2|0,0:0|0:0,0:0:0
440,272,77885,6,0,P|390:327|319:350,1,150,2|0,0:0|0:0,0:0:0
329,235,78430,1,2,0:0:0
329,235,78794,2,0,P|378:179|449:156,1,150,2|4,0:0|0:0,0:0:0
256,84,79521,5,2,0:0:0
256,84,79703,1,2,0:0:0
80,196,80067,1,2,0:0:0
256,312,80430,1,2,0:0:0
256,312,80794,6,0,P|180:328|108:316,1,150,4|2,0:2|0:0,0:0:0
80,196,81339,2,0,P|72:152|80:120,1,75,0|2,0:0|0:0,0:0:0
244,88,81703,2,0,P|272:168|244:232,1,150,2|2,0:0|0:0,0:0:0
172,156,82249,1,2,0:0:0
256,192,82430,12,4,83885,0:0:0
424,136,94250,5,2,0:0:0
356,80,94432,1,0,0:0:0
300,148,94613,1,2,0:0:0
368,208,94795,1,2,0:0:0
368,208,94886,1,0,0:0:0
368,208,94977,1,0,0:0:0
456,220,95159,2,0,P|500:220,2,37.5,2|0|0,0:0|0:0|0:0,0:0:0
400,292,95523,6,0,P|328:312|248:292,1,150,4|8,0:0|0:0,0:0:0
255,296,96250,2,0,P|216:296|176:308,1,75
108,340,96614,1,8,0:0:0
52,280,96795,2,0,P|44:204|52:128,1,150
108,70,97341,6,0,P|72:54|32:54,1,75,8|0,0:0|0:0,0:0:0
129,149,97705,2,0,P|165:165|205:165,1,75
276,136,98068,1,8,0:0:0
276,136,98432,6,0,P|276:56,2,75,0|0|8,0:0|0:0|0:0,0:0:0
276,136,99159,2,0,P|352:156|420:132,1,150,0|8,0:0|0:0,0:0:0
344,76,99705,2,0,P|344:232,1,150
364,308,100250,1,10,0:0:0
423,251,100432,1,2,0:0:0
344,226,100614,6,0,P|268:214|192:230,1,150,0|8,0:0|0:0,0:0:0
100,60,101341,2,0,P|140:48|176:52,1,75
96,148,101705,2,0,P|56:160|20:156,1,75,8|0,0:0|0:0,0:0:0
12,76,102069,1,0,0:0:0
256,164,102432,1,8,0:0:0
184,124,102614,6,0,P|164:200|192:276,1,150
244,324,103160,2,0,P|320:312|392:324,2,150,8|0|8,0:0|0:0|0:0,0:0:0
244,324,104251,6,0,P|164:324,1,75
256,224,104614,1,8,0:0:0
256,224,104796,2,0,P|331:224,1,75
320,132,105160,1,2,0:0:0
256,48,105342,1,2,0:0:0
192,132,105523,1,10,0:0:0
192,132,105887,6,0,P|116:132,1,75,10|0,0:0|0:0,0:0:0
256,48,106251,2,0,P|176:48,1,75,10|0,0:0|0:0,0:0:0
320,132,106614,1,2,0:0:0
320,132,106796,2,0,P|480:132,1,150,2|4,0:0|0:0,0:0:0
328,320,107705,5,0,0:0:0
328,320,107887,2,0,P|252:340|184:320,1,150,2|2,1:0|3:0,0:0:0
256,104,109342,5,2,1:0:0
148,68,109706,1,0,0:0:0
48,120,110069,2,0,P|28:192|44:264,1,150,2|2,3:0|1:0,0:0:0
374,229,111524,2,0,P|382:189|374:149,1,75,2|0,3:0|0:0,0:0:0
312,60,112251,5,2,1:0:0
200,60,112615,1,0,0:0:0
104,120,112979,2,0,P|84:196|104:264,1,150,2|2,3:0|1:0,0:0:0
408,262,114433,2,0,P|428:196|408:120,1,150,0|2,3:0|1:0,0:0:0
256,112,115888,5,0,0:0:0
179,167,116070,1,0,0:0:0
208,256,116252,1,0,0:0:0
300,258,116434,1,0,0:0:0
332,169,116615,1,0,0:0:0
84,324,116979,5,4,0:0:0
256,192,117070,12,8,118434,0:0:0
456,252,118797,6,0,P|384:280|316:256,1,150,4|8,0:0|0:0,0:0:0
268,192,119343,1,0,0:0:0
318,126,119525,2,0,P|384:104|456:132,1,150,2|10,0:0|0:0,0:0:0
384,188,120070,1,2,0:0:0
384,188,120434,2,0,P|384:272,1,75,0|10,0:0|0:0,0:0:0
128,276,120979,6,0,P|80:336,1,75
212,276,121343,2,0,P|260:336,1,75,8|0,0:0|0:0,0:0:0
168,200,121707,2,0,P|168:48,1,150,0|8,0:0|0:0,0:0:0
244,20,122252,1,0,0:0:0
304,76,122434,2,0,P|380:96|448:76,1,150,0|8,0:0|0:0,0:0:0
376,20,122980,2,0,P|376:176,1,150,4|0,0:0|0:0,0:0:0
336,260,123525,5,10,0:0:0
372,352,123707,1,2,0:0:0
464,316,123889,1,0,0:0:0
432,224,124071,1,2,0:0:0
336,260,124252,5,8,0:0:0
336,260,124343,1,8,0:0:0
336,260,124434,2,0,P|296:276|264:280,1,75,0|4,0:0|0:0,0:0:0
128,200,124798,2,0,P|168:184|200:180,1,75,2|8,0:0|0:0,0:0:0
160,300,125162,1,2,0:0:0
160,300,125525,6,0,P|80:312,1,75,2|12,0:0|0:0,0:0:0
128,200,125889,2,0,P|48:212,1,75,2|0,0:0|0:0,0:0:0
104,96,126253,1,2,0:0:0
104,96,126616,5,2,0:0:0
188,44,126798,1,2,0:0:0
256,112,126980,1,0,0:0:0
324,44,127162,1,10,0:0:0
408,96,127344,1,2,0:0:0
256,192,127525,12,10,128798,0:0:0
236,120,129162,5,2,0:0:0
172,212,129344,1,2,0:0:0
264,276,129526,1,0,0:0:0
328,184,129707,2,0,P|352:152,3,37.5,10|8|8|8,0:0|0:0|0:0|0:0,0:0:0
380,124,130071,2,0,P|420:120,3,37.5,10|8|8|8,0:0|0:0|0:0|0:0,0:0:0
448,148,130435,6,0,P|464:192|464:228,1,75,4|2,0:2|0:0,0:0:0
428,324,130798,2,0,P|388:340|356:340,1,75,0|2,0:0|0:0,0:0:0
264,276,131162,1,2,0:0:0
264,276,131526,6,0,P|304:260|340:256,1,75,2|0,0:0|0:0,0:0:0
168,232,131889,2,0,P|128:216|92:212,1,75,2|2,0:0|0:0,0:0:0
96,212,132435,6,0,P|79:247|55:275,2,75,2|0|2,0:0|0:0|0:0,0:0:0
72,84,132981,2,0,P|36:96|8:124,1,75,0|2,0:0|0:0,0:0:0
152,136,133344,2,0,P|308:136,1,150,2|0,0:0|0:0,0:0:0
388,240,133890,1,2,0:0:0
388,240,134072,2,0,P|232:240,1,150,2|0,0:0|0:0,0:0:0
156,292,134617,6,0,P|80:320,1,75,2|2,0:0|0:0,0:0:0
80,192,134981,1,0,0:0:0
156,92,135163,2,0,P|80:64,1,75,2|0,0:0|0:0,0:0:0
80,192,135526,2,0,P|232:192,1,150,2|10,0:0|3:0,0:0:0
408,112,136254,5,4,0:2:0
312,124,136435,2,0,P|324:168|352:192,1,75,2|0,0:0|0:0,0:0:0
408,112,136799,1,2,0:0:0
348,32,136981,2,0,P|272:20|200:36,1,150,2|2,0:0|0:0,0:0:0
128,100,137526,5,0,0:0:0
220,128,137708,1,2,0:0:0
148,192,137890,2,0,P|76:224|8:216,1,150,2|2,0:0|0:0,0:0:0
220,128,138617,2,0,P|256:120|292:128,1,75,2|0,0:0|0:0,0:0:0
364,192,138981,5,2,0:0:0
364,192,139163,2,0,P|436:224|504:216,1,150,2|4,0:0|0:2,0:0:0
364,192,139708,6,0,P|296:228,1,75,2|2,0:0|0:0,0:0:0
300,324,140072,2,0,P|366:359,1,75,0|4,0:0|0:2,0:0:0
212,276,140436,5,2,0:0:0
196,180,140618,1,2,0:0:0
116,292,140799,5,0,0:0:0
100,196,140981,1,2,0:0:0
20,308,141163,5,0,0:0:0
4,212,141345,1,2,0:0:0
84,100,141527,6,0,P|77:57,2,37.5,8|0|10,0:2|0:0|3:0,0:0:0
84,100,142072,6,0,P|160:80,1,75,4|2,0:2|0:0,0:0:0
268,161,142436,2,0,P|192:181,1,75,0|2,0:0|0:0,0:0:0
248,72,142800,1,2,0:0:0
248,72,143163,6,0,P|288:60|320:60,1,75,2|2,0:0|0:0,0:0:0
440,104,143527,2,0,P|420:140|392:160,1,75,0|2,0:0|0:0,0:0:0
268,160,143891,2,0,P|276:204|296:236,1,75,2|0,0:0|0:0,0:0:0
400,280,144254,1,2,0:0:0
400,280,144436,1,2,0:0:0
393,160,144618,1,0,0:0:0
393,160,144800,1,2,0:0:0
291,230,144982,6,0,P|216:256|152:232,1,150,2|4,0:0|0:2,0:0:0
76,148,145527,1,2,0:0:0
76,148,145709,2,0,P|151:122|215:146,1,150,2|4,0:0|0:2,0:0:0
152,232,146254,1,2,0:0:0
76,148,146436,5,2,0:0:0
76,148,146527,1,0,0:0:0
76,148,146618,2,0,P|87:73,1,75,0|2,0:0|0:0,0:0:0
180,32,146982,2,0,P|256:20|328:32,1,150,2|6,0:0|0:2,0:0:0
424,73,147527,2,0,P|436:148,1,75,2|2,0:0|0:0,0:0:0
360,232,147891,5,0,0:0:0
360,232,148073,1,2,0:0:0
76,148,148436,2,0,P|88:72,1,75,2|0,0:0|0:0,0:0:0
152,232,148800,2,0,P|140:308,1,75,2|0,0:0|0:0,0:0:0
56,256,149164,5,2,0:0:0
456,256,149709,1,2,0:0:0
256,152,150073,1,2,0:0:0
256,248,150255,5,0,0:0:0
256,268,150346,1,0,0:0:0
256,288,150437,1,4,0:0:0
256,308,150528,1,0,0:0:0
256,328,150618,1,0,0:0:0
348,356,150800,5,2,0:0:0
348,356,150982,2,0,P|364:280,1,75,2|0,0:0|0:0,0:0:0
164,356,151346,2,0,P|148:280,1,75,2|0,0:0|0:0,0:0:0
256,248,151709,1,2,0:0:0
256,248,152073,6,0,P|256:96,1,150,6|2,0:2|0:0,0:0:0
180,160,152619,1,2,0:0:0
332,160,152800,1,0,0:0:0
256,248,152982,1,2,0:0:0
256,248,153346,2,0,P|256:328,1,75,2|2,0:0|0:0,0:0:0
164,356,153710,5,2,3:0:0
72,184,154073,1,2,0:0:0
256,248,154437,1,0,0:0:0
172,72,154801,1,2,0:0:0
340,72,155164,5,2,3:0:0
256,248,155528,1,2,0:0:0
440,184,155892,1,0,0:0:0
348,356,156255,1,2,0:0:0
164,288,156619,5,2,3:0:0
356,252,156983,1,2,0:0:0
324,60,157346,1,0,0:0:0
132,92,157710,1,2,0:0:0
164,288,158074,5,2,0:0:0
176,300,158165,1,0,0:0:0
192,312,158256,1,0,0:0:0
208,320,158346,1,0,0:0:0
224,328,158437,2,0,P|264:340,3,37.5,2|0|0|0,0:0|0:0|0:0|0:0,0:0:0
300,340,158801,2,0,P|340:340,3,37.5,2|0|0|0,0:0|0:0|0:0|0:0,0:0:0
376,328,159165,2,0,P|416:312,3,37.5,2|0|0|0,0:0|0:0|0:0|0:0,0:0:0
440,284,159528,6,0,P|456:208|440:136,1,150,4|8,0:0|0:0,0:0:0
392,72,160074,2,0,P|312:52|248:72,1,150
192,128,160619,1,8,0:0:0
124,172,160801,6,0,P|48:192|-20:168,1,150
16,96,161347,1,8,0:0:0
100,92,161529,1,0,0:0:0
124,172,161710,2,0,P|136:216|132:248,1,75
88,312,162074,1,8,0:0:0
133,245,162256,1,0,0:0:0
208,208,162438,6,0,P|283:195|355:207,1,150,0|8,0:0|0:0,0:0:0
420,280,162983,2,0,P|420:320|412:356,1,75
288,280,163347,2,0,P|276:204|284:128,1,150
352,60,163892,5,2,0:0:0
448,52,164074,1,2,0:0:0
408,140,164256,1,8,0:0:0
352,60,164438,1,2,0:0:0
160,60,164802,1,2,0:0:0
112,124,164983,5,10,0:0:0
104,140,165074,1,0,0:0:0
100,156,165165,1,0,0:0:0
96,176,165256,1,0,0:0:0
96,196,165347,2,0,P|96:244,3,37.5,2|0|0|0,0:0|0:0|0:0|0:0,0:0:0
108,272,165711,2,0,P|124:308,3,37.5,10|0|0|0,0:0|0:0|0:0|0:0,0:0:0
156,332,166074,2,0,P|200:344|232:340,1,75,2|2,0:0|0:0,0:0:0
296,248,166438,2,0,P|252:236|220:240,1,75,10|0,0:0|0:0,0:0:0
328,336,166802,6,0,P|352:368,2,37.5,2|0|0,0:0|0:0|0:0,0:0:0
416,268,167165,2,0,P|456:276,2,37.5,10|0|0,0:0|0:0|0:0,0:0:0
368,168,167529,1,2,0:0:0
368,168,167711,1,2,0:0:0
456,100,167893,1,10,0:0:0
456,100,168075,1,0,0:0:0
368,168,168256,6,0,P|324:184,3,37.5,2|0|0|0,0:0|0:0|0:0|0:0,0:0:0
292,192,168620,2,0,P|248:192,3,37.5,10|0|0|0,0:0|0:0|0:0|0:0,0:0:0
212,192,168984,2,0,P|172:192|136:204,1,75,2|2,0:0|0:0,0:0:0
80,260,169347,1,8,0:0:0
80,260,169529,1,2,0:0:0
256,64,170075,5,2,1:0:0
256,64,170620,2,0,P|296:60,2,37.5
56,96,171166,1,10,0:2:0
256,192,181349,12,8,182440,0:0:0
392,116,182803,6,0,P|352:104|320:104,1,75,4|2,0:2|0:0,0:0:0
392,228,183167,2,0,P|432:240|464:240,1,75,0|2,0:0|0:0,0:0:0
312,188,183531,2,0,P|236:172|164:192,1,150,2|0,0:0|0:0,0:0:0
84,240,184076,1,2,0:0:0
172,284,184258,1,0,0:0:0
88,336,184440,5,2,0:0:0
168,190,184622,1,0,0:0:0
80,48,184803,1,2,0:0:0
84,144,184985,5,2,0:0:0
168,92,185167,1,0,0:0:0
80,48,185349,2,0,P|36:40|4:48,1,75,2|0,0:0|0:0,0:0:0
168,92,185713,6,0,P|244:104|324:88,1,150,0|4,0:0|0:2,0:0:0
276,232,186258,1,2,0:0:0
276,232,186440,2,0,P|200:220|120:236,1,150,2|4,0:0|0:2,0:0:0
52,296,186985,1,2,0:0:0
128,356,187167,5,2,0:0:0
128,356,187258,1,0,0:0:0
128,356,187349,2,0,P|168:368|200:360,1,75
292,328,187713,1,2,0:0:0
292,328,188076,1,4,0:2:0
368,268,188258,2,0,P|384:188,1,75,2|0,0:0|0:0,0:0:0
304,64,188622,2,0,P|288:144,1,75,2|2,0:0|0:0,0:0:0
289,137,189167,6,0,P|212:144,1,75,2|0,0:0|0:0,0:0:0
64,116,189531,2,0,P|104:48,1,75,2|0,0:0|0:0,0:0:0
128,200,189895,2,0,P|116:276|76:340,1,150,2|0,0:0|0:0,0:0:0
36,248,190440,1,2,0:0:0
288,336,190804,1,2,0:0:0
380,304,190986,5,0,0:0:0
380,304,191077,1,0,0:0:0
380,304,191168,2,0,P|392:228,1,75,4|0,0:0|0:0,0:0:0
376,132,191531,1,2,0:0:0
300,72,191713,2,0,P|224:56|152:72,1,150,2|2,0:0|0:0,0:0:0
60,308,192440,1,2,0:0:0
60,308,192804,6,0,P|136:324|208:308,1,150,4|2,0:2|0:0,0:0:0
312,224,193350,1,0,0:0:0
200,224,193531,1,2,0:0:0
306,309,193713,2,0,P|376:324|452:308,1,150,2|2,0:0|0:0,0:0:0
480,232,194259,6,0,P|512:212,2,37.5,2|0|6,0:0|0:0|0:0,0:0:0
348,76,194804,1,8,0:0:0
348,76,195168,2,0,P|424:76,2,75,2|2|8,0:0|0:0|0:0,0:0:0
300,144,195713,2,0,P|228:172|156:136,1,150,2|0,0:0|0:0,0:0:0
104,88,196259,1,8,0:0:0
52,152,196441,2,0,P|32:228|52:296,1,150,2|2,0:0|0:0,0:0:0
120,340,196986,2,0,P|196:340,1,75,8|2,0:0|0:0,0:0:0
368,292,197350,6,0,P|341:323|310:337,1,75,2|0,0:0|0:0,0:0:0
156,188,197714,2,0,P|160:232|180:264,1,75,8|2,0:0|0:0,0:0:0
348,152,198077,2,0,P|328:188|300:208,1,75,2|0,0:0|0:0,0:0:0
248,116,198441,1,8,0:0:0
328,44,198623,6,0,P|404:28|476:44,1,150,2|0,0:0|0:0,0:0:0
301,207,199350,1,2,0:0:0
301,207,199532,2,0,P|225:223|153:207,1,150,10|0,0:0|0:0,0:0:0
88,136,200078,5,8,0:0:0
88,136,200168,1,8,0:0:0
88,136,200259,1,12,0:0:0
136,52,200441,1,8,0:0:0
192,132,200623,1,0,0:0:0
256,60,200805,1,0,1:0:0
256,60,201169,6,0,P|256:16,2,37.5,8|8|8,0:0|0:0|0:0,0:0:0
320,132,201532,1,4,3:0:0
376,52,201714,1,0,1:0:0
424,136,201896,5,0,0:0:0
364,240,202078,1,2,1:0:0
256,192,202260,1,2,0:0:0
160,236,202441,5,2,1:0:0
172,132,202623,1,2,1:0:0
256,192,202805,1,2,1:0:0
160,236,202987,1,2,1:0:0
36,104,203351,6,0,P|16:100,2,18.75,0|0|2,0:0|0:0|0:0,0:0:0
