osu file format v14

[General]
AudioFilename: undine.mp3
AudioLeadIn: 0
PreviewTime: 75868
Countdown: 0
SampleSet: Soft
StackLeniency: 0.7
Mode: 0
LetterboxInBreaks: 0
WidescreenStoryboard: 1

[Editor]
DistanceSpacing: 1.4
BeatDivisor: 2
GridSize: 4
TimelineZoom: 0.9000055

[Metadata]
Title:Undine
TitleUnicode:ウンディーネ
Artist:Makino Yui
ArtistUnicode:牧野由依
Creator:Lanturn
Version:Aquamarine
Source:ARIA The ANIMATION
Tags:Choro Club feat. Senoo Natural Origination Avvenire OP Opening Akari Aika Alice Alicia Akira Athena
BeatmapID:913037
BeatmapSetID:422276

[Difficulty]
HPDrainRate:4
CircleSize:5
OverallDifficulty:4
ApproachRate:4
SliderMultiplier:0.466666666666667
SliderTickRate:1

[Events]
//Background and Video events
0,0,"Undine.jpg",0,0
//Break Periods
2,8917,10532
//Storyboard Layer 0 (Background)
//Storyboard Layer 1 (Fail)
//Storyboard Layer 2 (Pass)
//Storyboard Layer 3 (Foreground)
//Storyboard Sound Samples

[TimingPoints]
539,902.255639097744,4,2,1,20,1,0
539,-33.3333,4,2,1,20,0,0
990,805.369127516779,4,2,1,20,1,0
1392,821.917808219178,4,2,1,20,1,0
1392,-33.3333,4,2,1,20,0,0
1803,789.473684210526,4,2,1,20,1,0
2592,905.660377358491,4,2,1,20,1,0
2592,-33.3333,4,2,1,20,0,0
3050,916.030534351145,4,2,1,20,1,0
3508,1200,4,2,1,20,1,0
3508,-33.3333,4,2,1,20,0,0
4708,779.220779220779,4,2,1,20,1,0
4708,-33.3333,4,2,1,20,0,0
5487,857.142857142857,4,2,1,30,1,0
5487,-33.3333,4,2,1,30,0,0
5915,750,4,2,1,30,1,0
6290,816.326530612245,4,2,1,30,1,0
6290,-33.3333,4,2,1,30,0,0
6698,774.196530612245,4,2,1,30,1,0
7472,830.449826989619,4,2,1,30,1,0
7472,-33.3333,4,2,1,30,0,0
7887,898.876404494382,4,2,1,30,1,0
8336,879.120879120879,4,2,1,30,1,0
8336,-33.3333,4,2,1,30,0,0
11852,784.313725490196,4,2,1,30,1,0
11852,-33.3333,4,2,1,30,0,0
12244,833.333333333333,4,2,1,30,1,0
12660,1207.0006035003,4,2,1,30,1,0
12660,-33.3333,4,2,1,30,0,0
22552,1207.0006035003,4,2,1,30,1,0
28587,-100,4,2,1,5,0,0
29561,402.684563758389,3,2,1,30,1,0
77883,-100,4,2,1,50,0,1
121373,-100,4,2,1,30,0,0
143114,402.684563758389,3,2,1,30,1,0
191436,-100,4,2,1,50,0,1
234926,-100,4,2,1,30,0,0
321905,-100,4,2,1,20,0,0
326738,-100,4,2,1,10,0,0

[Colours]
Combo1 : 255,255,26
Combo2 : 247,79,201
Combo3 : 0,0,255
Combo4 : 0,128,64
Combo5 : 157,255,255
Combo6 : 250,5,79

[HitObjects]
136,100,539,6,0,L|108:168,1,70.0000667572659,2|0,0:0|0:0,0:0:0:0:
150,220,1392,2,0,L|238:220,1,69.9999999999999,0|2,0:0|0:0,0:0:0:0:
319,148,2592,6,0,L|295:81,1,70,0|2,0:0|0:0,0:0:0:0:
341,36,3508,1,0,0:0:0:0:
341,36,4708,2,0,L|384:100,1,70.0000667572659
336,140,5487,6,0,L|259:140,1,70,2|0,0:0|0:0,0:0:0:0:
216,100,6290,2,0,L|140:100,1,70,0|2,0:0|0:0,0:0:0:0:
60,196,7472,2,0,L|148:196,1,70,0|2,0:0|0:0,0:0:0:0:
184,244,8336,5,0,0:0:0:0:
343,204,11852,6,0,L|247:204,1,70,2|0,0:0|0:0,0:0:0:0:
228,252,12660,6,0,L|228:324,2,46.6666666666667,2|0|0,0:0|0:0|0:0,0:0:0:0:
181,205,13867,2,0,L|109:205,2,46.6666666666667,2|0|0,0:0|0:0|0:0,0:0:0:0:
227,158,15074,2,0,L|227:86,2,46.6666666666667,2|0|0,0:0|0:0|0:0,0:0:0:0:
273,204,16281,1,2,0:0:0:0:
256,192,16683,12,2,19902,0:0:0:0:
256,192,22552,12,0,28587,0:0:0:0:
192,144,29561,6,0,L|192:92,2,46.6666666666667,4|0|0,0:1|0:0|0:0,0:0:0:0:
232,196,30769,2,0,P|280:208|324:192,1,93.3333333333334,2|0,0:0|0:0,0:0:0:0:
364,144,31977,1,2,0:0:0:0:
428,140,32379,1,0,0:0:0:0:
468,192,32782,1,0,0:0:0:0:
476,256,33185,2,0,P|460:300|412:324,1,93.3333333333334,2|0,0:0|0:0,0:0:0:0:
368,284,34393,6,0,L|368:228,2,46.6666666666667,2|0|0,0:0|0:0|0:0,0:0:0:0:
320,328,35601,2,0,P|280:340|228:328,1,93.3333333333334,2|0,0:0|0:0,0:0:0:0:
184,283,36809,2,0,P|144:271|92:284,1,93.3333333333334,2|0,0:0|0:0,0:0:0:0:
40,320,38017,1,2,0:0:0:0:
40,320,38822,1,0,0:0:0:0:
12,260,39225,6,0,L|12:164,1,93.3333333333334,2|0,0:0|0:0,0:0:0:0:
76,148,40433,2,0,L|76:244,1,93.3333333333334,2|0,0:0|0:0,0:0:0:0:
140,224,41641,2,0,L|140:128,1,93.3333333333334,2|0,0:0|0:0,0:0:0:0:
204,112,42849,2,0,L|204:208,1,93.3333333333334,2|0,0:0|0:0,0:0:0:0:
250,251,44057,6,0,L|284:292,2,46.6666666666667,2|0|0,0:0|0:0|0:0,0:0:0:0:
280,192,45265,2,0,B|352:224|352:168|416:200,1,140,2|2,0:0|0:0,0:0:0:0:
460,248,46876,1,0,0:0:0:0:
440,312,47279,1,0,0:0:0:0:
384,348,47681,1,2,0:0:0:0:
324,320,48084,1,0,0:0:0:0:
264,296,48487,1,0,0:0:0:0:
204,320,48889,6,0,P|125:339|106:329,1,93.3333333333334,2|2,0:1|0:3,0:0:0:0:
56,316,50097,2,0,L|-4:316,2,46.6666666666667,8|0|0,0:0|0:0|0:0,0:0:0:0:
100,268,51305,1,2,0:1:0:0:
53,221,51708,1,0,0:0:0:0:
99,174,52111,1,2,0:3:0:0:
145,127,52514,2,0,P|129:80|156:32,1,93.3333333333334,8|2,0:0|0:1,0:0:0:0:
209,30,53722,6,0,L|210:134,1,93.3333333333334,2|2,0:1|0:3,0:0:0:0:
274,127,54930,2,0,P|290:80|264:32,1,93.3333333333334,8|0,0:0|0:0,0:0:0:0:
324,0,56138,2,0,L|388:0,2,46.6666666666667,2|0|2,0:1|0:0|0:3,0:0:0:0:
274,43,57346,1,8,0:0:0:0:
274,43,58151,1,2,0:1:0:0:
274,43,58554,6,0,B|274:96|274:96|244:144,1,93.3333333333334,2|2,0:1|0:3,0:0:0:0:
205,175,59762,2,0,L|146:175,2,46.6666666666667,2|0|0,0:1|0:0|0:0,0:0:0:0:
251,221,60970,2,0,B|273:254|273:254|273:308,1,93.3333333333334,2|2,0:1|0:3,0:0:0:0:
226,353,62178,1,2,0:1:0:0:
168,324,62581,1,0,0:0:0:0:
108,348,62983,1,2,0:1:0:0:
56,308,63386,6,0,P|72:264|61:219,1,93.3333333333334,2|2,0:1|0:3,0:0:0:0:
32,160,64594,1,2,0:1:0:0:
12,96,64997,1,0,0:0:0:0:
75,111,65399,1,0,0:0:0:0:
56,48,65802,2,0,P|102:52|133:84,1,93.3333333333334,2|2,0:1|0:3,0:0:0:0:
180,131,67010,2,0,P|223:145|273:129,1,93.3333333333334,2|2,0:1|0:1,0:0:0:0:
314,85,68218,6,0,P|345:52|390:48,1,93.3333333333334,2|2,0:1|0:3,0:0:0:0:
440,90,69426,2,0,L|500:90,2,46.6666666666667,2|0|0,0:1|0:0|0:0,0:0:0:0:
391,133,70634,2,0,P|405:177|389:221,1,93.3333333333334,2|2,0:1|0:3,0:0:0:0:
353,274,71842,1,0,0:0:0:0:
291,251,72245,1,0,0:0:0:0:
235,284,72648,1,2,0:3:0:0:
173,261,73050,6,0,B|120:261|120:261|80:232,1,93.3333333333334,2|2,0:1|0:3,0:0:0:0:
20,232,74258,2,0,B|20:179|20:179|48:140,1,93.3333333333334,0|2,0:0|0:3,0:0:0:0:
44,80,75467,2,0,B|97:80|97:80|136:108,1,93.3333333333334,2|0,0:1|0:0,0:0:0:0:
154,164,76675,1,2,0:1:0:0:
208,200,77077,1,2,0:1:0:0:
272,209,77480,1,2,0:1:0:0:
336,196,77883,6,0,P|340:240|384:292,1,93.3333333333333,6|2,0:1|0:3,0:0:0:0:
428,260,79091,2,0,P|424:216|380:164,1,93.3333333333333,8|2,0:0|0:3,0:0:0:0:
352,128,80299,2,0,L|352:64,2,46.6666666666667,0|0|2,0:0|0:0|0:3,0:0:0:0:
296,164,81507,2,0,B|252:152|252:180|204:164,1,93.3333333333333,8|2,0:0|0:1,0:0:0:0:
164,112,82715,6,0,B|134:48|95:91|68:18,2,140,2|8|2,0:1|0:0|0:1,0:0:0:0:
140,172,85534,1,0,0:0:0:0:
165,232,85936,1,2,0:3:0:0:
127,285,86339,2,0,L|55:325,2,46.6666666666667,8|0|2,0:0|0:0|0:1,0:0:0:0:
177,326,87547,6,0,P|243:345|290:312,1,93.3333333333333,2|2,0:1|0:3,0:0:0:0:
306,288,88755,1,8,0:0:0:0:
306,288,89560,1,0,0:0:0:0:
306,288,89963,2,0,P|288:244|304:196,1,93.3333333333334,2|2,0:1|0:3,0:0:0:0:
257,151,91171,1,8,0:0:0:0:
257,151,91977,1,2,0:1:0:0:
257,151,92379,6,0,L|140:192,1,93.3333333333333,2|2,0:1|0:3,0:0:0:0:
142,122,93587,2,0,L|230:91,1,93.3333333333333,2|2,0:1|0:3,0:0:0:0:
207,29,94795,2,0,L|90:70,1,93.3333333333333,2|2,0:1|0:3,0:0:0:0:
57,38,96003,1,2,0:1:0:0:
16,89,96406,1,0,0:0:0:0:
18,154,96809,1,2,0:1:0:0:
56,206,97212,6,0,P|52:263|17:314,1,93.3333333333333,6|2,0:1|0:3,0:0:0:0:
69,350,98420,2,0,L|167:350,1,93.3333333333333,8|0,0:0|0:0,0:0:0:0:
205,300,99628,2,0,L|275:301,2,46.6666666666667,2|0|2,0:1|0:0|0:3,0:0:0:0:
156,255,100836,2,0,P|140:201|157:168,1,93.3333333333333,8|2,0:0|0:1,0:0:0:0:
205,212,102044,6,0,P|265:235|341:214,1,140,2|8,0:1|0:0,0:0:0:0:
382,170,103654,1,0,0:0:0:0:
382,104,104057,1,0,0:0:0:0:
335,57,104460,2,0,P|296:44|230:57,1,93.3333333333333,2|2,0:1|0:3,0:0:0:0:
198,96,105668,2,0,L|111:97,2,46.6666666666667,8|0|2,0:0|0:0|0:1,0:0:0:0:
244,142,106876,6,0,P|228:186|244:230,1,93.3333333333333,2|2,0:1|0:3,0:0:0:0:
196,274,108084,2,0,L|88:274,1,93.3333333333333,8|0,0:0|0:0,0:0:0:0:
56,227,109292,2,0,P|70:183|54:140,1,93.3333333333333,2|2,0:1|0:3,0:0:0:0:
100,94,110500,1,8,0:0:0:0:
146,47,110903,1,0,0:0:0:0:
162,111,111305,1,2,0:1:0:0:
208,64,111708,6,0,L|324:64,1,93.3333333333333,2|2,0:1|0:3,0:0:0:0:
332,120,112916,2,0,L|448:120,1,93.3333333333333,2|0,0:1|0:0,0:0:0:0:
464,68,114124,2,0,L|516:68,2,46.6666666666667,2|0|2,0:1|0:0|0:3,0:0:0:0:
410,30,115332,2,0,P|366:42|318:30,1,93.3333333333333,2|0,0:1|0:0,0:0:0:0:
256,44,116540,70,0,L|256:188,1,140,2|8,0:1|0:0,0:0:0:0:
256,248,118151,1,0,0:0:0:0:
197,285,118554,1,2,0:1:0:0:
197,285,118956,2,0,P|256:317|315:285,1,140,2|8,0:1|0:0,0:0:0:0:
388,104,121373,6,0,P|454:92|496:144,1,140,2|2,0:1|0:3,0:0:0:0:
432,152,122983,1,2,0:0:0:0:
472,204,123386,1,0,0:0:0:0:
408,212,123789,2,0,P|372:248|324:256,1,93.3333333333333,2|2,0:0|0:3,0:0:0:0:
124,104,126205,6,0,P|58:92|16:144,1,140,2|2,0:1|0:3,0:0:0:0:
80,152,127816,1,0,0:0:0:0:
40,204,128218,1,0,0:0:0:0:
104,212,128621,2,0,P|140:248|188:256,1,93.3333333333333,2|2,0:0|0:3,0:0:0:0:
232,216,129829,2,0,L|304:216,2,46.6666666666667,2|0|0,0:3|0:0|0:0,0:0:0:0:
188,168,131037,6,0,P|204:128|184:80,1,93.3333333333333,2|2,0:1|0:3,0:0:0:0:
134,43,132245,1,2,0:3:0:0:
68,48,132648,1,2,0:0:0:0:
20,92,133050,1,0,0:0:0:0:
48,152,133453,2,0,B|80:220|24:220|52:288,1,140,2|2,0:1|0:3,0:0:0:0:
92,336,135064,1,0,0:0:0:0:
156,336,135467,1,0,0:0:0:0:
208,296,135869,6,0,P|268:280|320:296,2,93.3333333333333,2|2|2,0:0|0:0|0:0,0:0:0:0:
320,364,138285,2,0,P|371:322|371:252,1,140,2|2,0:0|0:3,0:0:0:0:
344,192,139896,1,0,0:0:0:0:
360,128,140299,1,0,0:0:0:0:
392,72,140701,6,0,L|444:72,2,46.6666666666667,2|0|0,0:0|0:0|0:0,0:0:0:0:
328,72,141909,1,2,0:3:0:0:
152,156,143114,6,0,B|108:72|150:25|150:25|212:36|220:140,1,280,6|2,0:1|0:1,0:0:0:0:
256,328,146738,1,2,0:0:0:0:
360,156,147946,6,0,B|404:72|362:25|362:25|300:36|293:135,1,280,2|2,0:1|0:1,0:0:0:0:
256,328,151570,1,2,0:0:0:0:
256,328,152778,6,0,B|216:344|184:328|184:328|148:344|116:328,1,140,2|2,0:1|0:0,0:0:0:0:
268,200,155194,2,0,B|228:216|196:200|196:200|160:216|128:200,1,140,2|2,0:1|0:0,0:0:0:0:
280,72,157610,6,0,B|240:88|208:72|208:72|172:88|140:72,1,140,2|0,0:1|0:0,0:0:0:0:
31,234,160026,2,0,L|31:310,2,46.6666666666667,2|0|0,0:1|0:0|0:0,0:0:0:0:
76,186,161234,1,2,0:0:0:0:
138,166,161637,1,0,0:0:0:0:
203,170,162040,1,2,0:1:0:0:
256,208,162442,6,0,P|348:220|372:212,1,93.3333333333333,2|2,0:1|0:3,0:0:0:0:
356,156,163650,2,0,P|264:144|240:152,1,93.3333333333333,8|0,0:0|0:0,0:0:0:0:
204,168,164858,2,0,L|156:116,2,46.6666666666667,2|0|2,0:1|0:0|0:3,0:0:0:0:
208,232,166067,2,0,P|164:296|132:300,1,93.3333333333333,8|2,0:0|0:1,0:0:0:0:
100,264,167275,6,0,L|100:170,1,93.3333333333333,2|2,0:1|0:3,0:0:0:0:
36,188,168483,2,0,L|36:94,1,93.3333333333333,8|0,0:0|0:0,0:0:0:0:
100,112,169691,1,2,0:1:0:0:
100,112,170899,1,8,0:0:0:0:
100,112,172107,6,0,P|129:147|169:171,1,93.3333333333333,2|2,0:1|0:3,0:0:0:0:
224,132,173315,1,2,0:1:0:0:
288,148,173718,1,0,0:0:0:0:
324,204,174120,1,0,0:0:0:0:
292,260,174523,2,0,B|220:292|220:240|156:264,1,140,2|2,0:1|0:1,0:0:0:0:
92,280,176134,1,0,0:0:0:0:
48,328,176536,1,2,0:1:0:0:
28,264,176939,6,0,L|20:160,1,93.3333333333333,2|2,0:1|0:3,0:0:0:0:
59,118,178147,2,0,L|54:61,2,46.6666666666667,2|0|0,0:1|0:0|0:0,0:0:0:0:
112,156,179355,2,0,B|148:168|180:156|180:156|208:168|252:156,1,140,2|2,0:1|0:1,0:0:0:0:
300,116,180966,1,0,0:0:0:0:
360,92,181369,1,2,0:1:0:0:
416,124,181771,6,0,P|432:176|400:240,1,93.3333333333333,2|2,0:1|0:3,0:0:0:0:
384,264,182979,1,2,0:1:0:0:
448,276,183382,1,0,0:0:0:0:
406,326,183785,1,0,0:0:0:0:
341,315,184187,2,0,P|294:325|251:317,1,93.3333333333333,2|2,0:1|0:3,0:0:0:0:
188,294,185395,2,0,L|112:293,2,46.6666666666667,2|0|2,0:0|0:0|0:1,0:0:0:0:
224,239,186603,6,0,B|279:159,1,93.3333333333334,2|2,0:1|0:3,0:0:0:0:
224,128,187811,2,0,B|169:208,1,93.3333333333334,2|2,0:1|0:3,0:0:0:0:
112,176,189020,2,0,B|167:96,1,93.3333333333334,2|2,0:1|0:3,0:0:0:0:
120,52,190228,1,2,0:1:0:0:
60,76,190630,1,2,0:1:0:0:
28,132,191033,1,2,0:1:0:0:
13,196,191436,6,0,L|12:295,1,93.3333333333333,6|2,0:1|0:3,0:0:0:0:
77,287,192644,2,0,L|77:188,1,93.3333333333333,8|0,0:0|0:0,0:0:0:0:
43,138,193852,2,0,L|43:82,2,46.6666666666667,2|0|2,0:1|0:0|0:3,0:0:0:0:
77,193,195060,2,0,P|120:208|184:192,1,93.3333333333333,8|2,0:0|0:1,0:0:0:0:
224,172,196268,6,0,P|269:165|313:180,1,93.3333333333333,2|2,0:1|0:3,0:0:0:0:
360,224,197476,2,0,P|340:288|364:340,1,93.3333333333333,8|0,0:0|0:0,0:0:0:0:
412,320,198684,2,0,P|432:256|408:204,1,93.3333333333333,2|2,0:1|0:3,0:0:0:0:
400,172,199892,1,8,0:0:0:0:
364,117,200295,1,0,0:0:0:0:
430,114,200697,1,2,0:1:0:0:
400,172,201100,6,0,P|322:169|306:88,2,140,2|8|2,0:1|0:0|0:1,0:0:0:0:
364,117,203919,1,0,0:0:0:0:
329,61,204322,1,2,0:3:0:0:
298,119,204724,2,0,P|236:158|176:159,1,93.3333333333333,8|2,0:0|0:1,0:0:0:0:
160,129,205932,6,0,L|63:103,1,93.3333333333333,2|2,0:1|0:3,0:0:0:0:
49,167,207140,2,0,L|146:193,1,93.3333333333333,2|2,0:1|0:3,0:0:0:0:
121,254,208348,2,0,L|24:228,1,93.3333333333333,2|2,0:1|0:3,0:0:0:0:
27,295,209556,1,2,0:1:0:0:
72,342,209959,1,0,0:0:0:0:
137,348,210362,1,2,0:1:0:0:
192,313,210765,6,0,P|241:301|284:313,1,93.3333333333333,6|2,0:1|0:3,0:0:0:0:
336,348,211973,2,0,P|380:358|425:346,1,93.3333333333333,8|0,0:0|0:0,0:0:0:0:
465,293,213181,2,0,L|521:293,2,46.6666666666667,2|0|2,0:1|0:0|0:3,0:0:0:0:
422,243,214389,2,0,P|378:233|333:245,1,93.3333333333333,8|2,0:0|0:1,0:0:0:0:
286,292,215597,6,0,B|218:321|214:270|139:298,2,140,2|8|2,0:1|0:0|0:1,0:0:0:0:
332,245,218416,1,0,0:0:0:0:
326,179,218818,1,2,0:3:0:0:
290,124,219221,2,0,L|313:66,2,46.6666666666667,8|0|2,0:0|0:0|0:1,0:0:0:0:
232,156,220429,6,0,P|184:180|136:168,1,93.3333333333333,2|2,0:1|0:3,0:0:0:0:
128,112,221637,2,0,P|176:88|224:100,1,93.3333333333333,8|0,0:0|0:0,0:0:0:0:
276,124,222845,1,2,0:1:0:0:
276,124,223650,1,2,0:3:0:0:
327,164,224053,2,0,L|403:164,2,46.6666666666667,8|0|2,0:0|0:0|0:1,0:0:0:0:
272,200,225261,5,2,0:1:0:0:
272,200,226067,1,2,0:3:0:0:
272,200,226469,2,0,P|228:220|168:192,1,93.3333333333333,8|0,0:0|0:0,0:0:0:0:
132,168,227677,2,0,L|48:168,2,46.6666666666667,2|0|2,0:1|0:0|0:3,0:0:0:0:
164,112,228885,2,0,B|164:64|164:64|196:20,1,93.3333333333333,8|2,0:0|0:1,0:0:0:0:
256,28,230093,22,0,L|256:156,1,93.3333333333333,2|2,0:1|0:3,0:0:0:0:
212,168,231301,2,0,P|256:155|300:168,1,93.3333333333333,8|2,0:0|0:1,0:0:0:0:
256,224,232509,1,2,0:1:0:0:
256,224,233315,1,2,0:3:0:0:
256,288,233718,2,0,L|256:336,2,46.6666666666667,8|0|0,0:0|0:0|0:0,0:0:0:0:
256,224,234926,5,2,0:1:0:0:
256,224,235731,1,2,0:3:0:0:
256,160,236134,1,8,0:0:0:0:
256,160,236939,1,0,0:0:0:0:
256,96,237342,1,2,0:1:0:0:
256,96,238147,1,2,0:3:0:0:
299,47,238550,2,0,L|299:-5,2,46.6666666666667,8|0|2,0:0|0:0|0:1,0:0:0:0:
352,84,239758,6,0,B|400:140|344:160|384:216,1,140,2|2,0:1|0:1,0:0:0:0:
256,364,242174,2,0,B|224:300|288:300|256:228,1,140,2|2,0:1|0:1,0:0:0:0:
160,84,244590,6,0,B|112:140|168:160|128:216,1,140,2|2,0:1|0:1,0:0:0:0:
84,264,246201,1,0,0:0:0:0:
40,312,246603,1,0,0:0:0:0:
104,328,247006,2,0,L|204:328,1,93.3333333333333,2|0,0:1|0:0,0:0:0:0:
248,288,248214,2,0,L|360:288,1,93.3333333333333,2|0,0:1|0:0,0:0:0:0:
375,344,249422,6,0,P|410:289|375:232,1,140,2|2,0:1|0:1,0:0:0:0:
184,192,251838,2,0,L|88:192,2,93.3333333333333,2|0|0,0:1|0:0|0:0,0:0:0:0:
304,144,254254,6,0,P|349:91|357:39,2,93.3333333333333,2|0|0,0:1|0:0|0:0,0:0:0:0:
237,143,256268,1,0,0:0:0:0:
185,103,256671,1,2,0:1:0:0:
185,103,257879,2,0,L|185:23,2,70,2|0|2,0:1|0:0|0:1,0:0:0:0:
185,103,260295,6,0,P|168:176|100:240,1,140,2|2,0:1|0:1,0:0:0:0:
68,252,261905,1,0,0:0:0:0:
124,288,262308,1,0,0:0:0:0:
248,336,263113,1,0,0:0:0:0:
248,336,263516,1,2,0:1:0:0:
248,336,263919,6,0,L|348:336,1,93.3333333333333,2|0,0:1|0:0,0:0:0:0:
387,289,265127,1,2,0:1:0:0:
340,242,265530,1,0,0:0:0:0:
340,242,265932,1,0,0:0:0:0:
340,242,266335,2,0,L|232:242,1,93.3333333333333,2|0,0:1|0:0,0:0:0:0:
200,195,267543,1,2,0:1:0:0:
246,148,267946,1,0,0:0:0:0:
246,148,268348,1,2,0:1:0:0:
246,148,268751,6,0,P|304:104|396:104,1,140,2|2,0:1|0:1,0:0:0:0:
448,276,271167,2,0,P|390:320|298:320,1,140,2|2,0:1|0:1,0:0:0:0:
256,192,273583,12,2,277207,0:0:0:0:
264,256,278416,6,0,B|196:232|196:280|112:256,1,140,2|8,0:1|0:0,0:0:0:0:
126,259,280832,1,2,0:1:0:0:
106,195,281234,1,0,0:0:0:0:
134,135,281637,1,0,0:0:0:0:
186,95,282040,2,0,L|186:27,2,46.6666666666667,8|0|2,0:0|0:0|0:1,0:0:0:0:
244,124,283248,6,0,B|312:148|312:100|396:124,1,140,2|8,0:1|0:0,0:0:0:0:
382,121,285664,1,2,0:1:0:0:
402,185,286067,1,0,0:0:0:0:
374,245,286469,1,0,0:0:0:0:
322,285,286872,2,0,L|322:353,2,46.6666666666667,8|0|2,0:0|0:0|0:1,0:0:0:0:
264,256,288080,6,0,P|220:320|132:320,2,140,2|8|2,0:1|0:0|0:1,0:0:0:0:
244,192,290899,1,0,0:0:0:0:
184,216,291301,1,0,0:0:0:0:
188,152,291704,2,0,L|152:120,2,46.6666666666667,8|0|2,0:0|0:0|0:1,0:0:0:0:
248,128,292912,6,0,P|292:64|380:64,2,140,2|8|2,0:1|0:0|0:1,0:0:0:0:
268,192,295731,1,0,0:0:0:0:
328,168,296134,1,0,0:0:0:0:
323,233,296536,2,0,L|359:265,2,46.6666666666667,8|0|2,0:0|0:0|0:1,0:0:0:0:
268,264,297744,6,0,L|120:264,1,140,2|8,0:1|0:0,0:0:0:0:
108,204,299355,1,0,0:0:0:0:
108,204,299758,1,0,0:0:0:0:
108,204,300160,2,0,L|248:204,1,140,2|8,0:1|0:0,0:0:0:0:
268,144,301771,1,0,0:0:0:0:
268,144,302174,1,2,0:1:0:0:
268,144,302577,6,0,P|228:78|253:4,1,140,2|8,0:1|0:0,0:0:0:0:
436,24,304993,2,0,P|475:89|450:163,1,140,2|8,0:1|0:0,0:0:0:0:
410,189,306603,1,0,0:0:0:0:
381,247,307006,1,2,0:1:0:0:
376,312,307409,6,0,P|328:352|252:336,1,140,2|8,0:1|0:0,0:0:0:0:
209,293,309020,1,0,0:0:0:0:
209,293,309422,1,0,0:0:0:0:
162,339,309825,2,0,P|95:353|42:311,1,140,2|8,0:1|0:0,0:0:0:0:
108,128,312241,6,0,P|140:188|104:264,1,140,2|8,0:1|0:0,0:0:0:0:
20,80,314657,2,0,L|20:28,2,46.6666666666667,2|0|0,0:1|0:0|0:0,0:0:0:0:
8,144,315865,1,8,0:0:0:0:
36,204,316268,1,0,0:0:0:0:
8,264,316671,1,0,0:0:0:0:
32,324,317073,6,0,P|104:304|164:324,1,140,2|8,0:1|0:0,0:0:0:0:
360,308,319489,2,0,P|380:240|364:172,1,140,2|8,0:1|0:0,0:0:0:0:
256,12,321905,38,0,B|256:188|256:188|359:195|378:316|322:372|255:388|183:358|174:304|174:271,2,560,2|2|2,0:1|0:1|0:0,0:0:0:0:
