osu file format v14

[General]
AudioFilename: Undine.mp3
AudioLeadIn: 0
PreviewTime: 28012
Countdown: 0
SampleSet: Soft
StackLeniency: 0.3
Mode: 0
LetterboxInBreaks: 0
WidescreenStoryboard: 0

[Editor]
Bookmarks: 28013,77946,116603,143181,191503,230161,273650,317140
DistanceSpacing: 1.1
BeatDivisor: 4
GridSize: 4
TimelineZoom: 2.6

[Metadata]
Title:Undine
TitleUnicode:ウンディーネ
Artist:Makino Yui
ArtistUnicode:牧野由依
Creator:Hollow Wings
Version:Lullaby
Source:ARIA The ANIMATION
Tags:まきの ゆい 天球の音楽 てんきゅうのおんがく Tenkyuu no Ongaku 河井英里 かわい えり Kawai Eri 窪田 ミナ くぼた みな Kubota Mina DreaM117er m1223961117
BeatmapID:862094
BeatmapSetID:396227

[Difficulty]
HPDrainRate:5
CircleSize:4
OverallDifficulty:5
ApproachRate:7
SliderMultiplier:2.1
SliderTickRate:1

[Events]
//Background and Video events
0,0,"Undine.jpg",0,0
//Break Periods
2,22812,28724
//Storyboard Layer 0 (Background)
//Storyboard Layer 1 (Fail)
//Storyboard Layer 2 (Pass)
//Storyboard Layer 3 (Foreground)
//Storyboard Sound Samples

[TimingPoints]
599,882.352941176471,3,2,1,20,1,0
1438,810.810810810811,3,2,1,20,1,0
3119,882.352941176471,3,2,1,20,1,0
4793,697.674418604651,3,2,1,20,1,0
4793,-133.333333333333,3,2,1,20,0,0
5526,857.142857142857,3,2,1,30,1,0
6330,845.070422535211,3,2,1,30,1,0
7515,857.142857142857,3,2,1,30,1,0
8391,881.057268722467,3,2,1,30,1,0
11915,779.220779220779,3,2,1,20,1,0
12694,805.369127516779,3,2,1,30,1,0
17000,805.369127516779,3,2,1,30,1,0
18731,805.369127516779,3,2,1,30,1,0
19871,805.369127516779,3,2,1,30,1,0
22612,805.369127516779,3,2,1,30,1,0
27208,805.369127516779,3,2,1,30,1,0
29624,-133.333333333333,3,2,1,30,0,0
47744,-133.333333333333,3,2,1,40,0,0
48952,-100,3,2,1,40,0,0
68080,-100,3,2,1,20,0,0
68281,-100,3,2,1,50,0,0
77946,-66.6666666666667,3,2,1,60,0,1
96872,-66.6666666666667,3,2,1,60,0,0
97275,-66.6666666666667,3,2,1,60,0,1
116603,-100,3,2,1,50,0,0
121436,-100,3,2,1,40,0,0
143181,-133.333333333333,3,2,1,30,0,0
162510,-100,3,2,1,40,0,0
181838,-100,3,2,1,50,0,0
191503,-66.6666666666667,3,2,1,60,0,1
210429,-66.6666666666667,3,2,1,60,0,0
210832,-66.6666666666667,3,2,1,60,0,1
230161,-80,3,2,1,50,0,0
254322,-66.6666666666667,3,2,1,60,0,0
273650,-80,3,2,1,50,0,0
317140,-100,3,2,1,40,0,0
321973,-100,3,2,1,30,0,0
326805,-100,3,2,1,20,0,0
331637,-100,3,2,1,10,0,0

[Colours]
Combo1 : 255,162,224
Combo2 : 96,184,255
Combo3 : 207,237,254

[HitObjects]
139,196,599,5,2,0:3:0:0:
187,90,1040,1,0,0:0:0:0:
224,196,1438,5,0,0:0:0:0:
324,141,1843,1,0,0:0:0:0:
136,275,2654,5,0,0:0:0:0:
60,179,3119,1,2,0:3:0:0:
53,293,3560,1,0,0:0:0:0:
432,340,4793,2,0,P|400:316|379:284,1,78.7500030040742
286,267,5526,5,2,0:3:0:0:
249,157,5954,1,0,0:0:0:0:
205,250,6330,5,0,0:0:0:0:
128,163,6752,1,0,0:0:0:0:
331,191,7515,5,0,0:0:0:0:
389,91,7943,1,2,0:3:0:0:
412,206,8391,1,0,0:0:0:0:
412,206,11915,5,0,0:0:0:0:
296,199,12304,1,0,0:0:0:0:
241,296,12694,5,2,0:3:0:0:
140,240,13096,1,0,0:0:0:0:
124,125,13498,1,0,0:0:0:0:
178,226,13902,5,0,0:0:0:0:
176,110,14303,1,2,0:3:0:0:
274,48,14706,1,0,0:0:0:0:
247,160,15110,5,2,0:3:0:0:
265,13,15512,1,0,0:0:0:0:
151,34,15916,1,0,0:0:0:0:
106,140,16318,5,0,0:0:0:0:
36,71,17000,5,0,0:0:0:0:
419,294,18731,5,0,0:0:0:0:
405,271,18831,2,0,L|394:262,1,13.125
416,246,18932,2,0,L|421:229,1,17.5
204,319,19871,5,0,0:0:0:0:
183,335,19971,2,0,L|176:345,1,13.125
152,334,20072,2,0,L|134:314,1,26.25
220,140,22612,5,0,0:0:0:0:
304,276,29624,6,0,P|312:316|320:372,1,78.7500030040742,2|0,0:3|0:0,0:0:0:0:
392,304,30429,2,0,P|395:255|401:211,1,78.7500030040742
421,141,31234,1,0,0:0:0:0:
368,72,31637,1,0,0:0:0:0:
296,120,32040,1,0,0:0:0:0:
340,196,32442,1,0,0:0:0:0:
452,76,32845,1,0,0:0:0:0:
292,36,33248,1,0,0:0:0:0:
292,36,34053,1,0,0:0:0:0:
212,64,34456,6,0,P|172:59|48:46,1,157.500006008148,2|0,0:3|0:0,0:0:0:0:
44,132,35664,1,0,0:0:0:0:
128,104,36067,1,0,0:0:0:0:
116,188,36469,1,0,0:0:0:0:
200,168,36872,2,0,L|189:246,1,78.7500030040742
228,324,37677,1,0,0:0:0:0:
312,352,38080,2,0,P|390:341|468:332,1,157.500006008148
456,248,39288,5,2,0:3:0:0:
388,300,39691,1,0,0:0:0:0:
468,332,40093,1,0,0:0:0:0:
376,212,40496,2,0,P|384:162|396:44,1,157.500006008148
296,164,41704,2,0,P|289:125|278:87,1,78.7500030040742
212,192,42510,1,0,0:0:0:0:
256,267,42912,2,0,P|181:292|102:297,1,157.500006008148
304,340,44120,6,0,P|344:352|392:352,1,78.7500030040742
360,268,44926,1,0,0:0:0:0:
335,182,45328,2,0,P|374:184|412:196,1,78.7500030040742
360,268,46134,1,0,0:0:0:0:
276,248,46536,1,0,0:0:0:0:
172,240,46939,1,2,0:3:0:0:
68,272,47342,1,0,0:0:0:0:
8,168,47744,2,0,P|4:129|18:92,2,78.7500030040742
120,144,48952,6,0,P|115:87|104:12,1,105,4|0,0:0|0:0,0:0:0:0:
108,39,49556,1,2,0:0:0:0:
108,39,49758,1,4,0:0:0:0:
212,88,50161,2,0,P|245:81|288:76,1,52.5,2|8,0:0|0:0,0:0:0:0:
320,92,50563,2,0,P|313:144|308:196,1,105,2|0,0:1|0:0,0:0:0:0:
364,296,51369,1,4,0:0:0:0:
256,252,51771,1,0,0:0:0:0:
392,216,52174,1,0,0:0:0:0:
284,328,52577,2,0,P|178:318|72:312,1,210,0|4,0:0|0:0,0:0:0:0:
74,312,53785,6,0,P|50:266|62:203,1,105,4|0,0:0|0:0,0:0:0:0:
167,246,54590,1,0,0:0:0:0:
250,165,54993,1,2,0:0:0:0:
142,134,55395,1,0,0:0:0:0:
167,246,55798,1,2,0:0:0:0:
276,284,56201,2,0,P|332:276|392:272,1,105,6|2,0:0|0:0,0:0:0:0:
380,272,56805,1,8,0:0:0:0:
380,272,57006,1,0,0:0:0:0:
479,211,57409,2,0,P|434:186|385:168,2,105,2|0|0,0:0|0:0|0:0,0:0:0:0:
389,78,58617,6,0,P|339:93|288:104,1,105,4|8,0:0|0:0,0:0:0:0:
196,36,59422,1,0,0:0:0:0:
140,136,59825,2,0,P|168:144|212:148,2,52.5,6|8|0,0:0|0:0|0:0,0:0:0:0:
36,84,60630,1,0,0:0:0:0:
80,192,61033,2,0,P|91:238|100:316,1,105,4|8,0:0|0:0,0:0:0:0:
200,348,61838,1,0,0:0:0:0:
288,272,62241,2,0,P|293:247|296:204,2,52.5,4|8|2,0:0|0:0|0:1,0:0:0:0:
392,324,63046,1,6,0:0:0:0:
476,244,63449,6,0,P|472:184|456:124,2,105,4|8|0,0:0|0:0|0:0,0:0:0:0:
392,324,64657,2,0,L|328:316,1,52.5,4|0,0:0|0:0,0:0:0:0:
288,292,65060,2,0,P|239:296|184:304,1,105,2|2,0:0|0:0,0:0:0:0:
76,348,65865,1,4,0:0:0:0:
120,240,66268,1,8,0:0:0:0:
16,188,66671,1,0,0:0:0:0:
120,240,67073,2,0,P|168:236|224:228,1,105,4|0,0:0|0:0,0:0:0:0:
324,168,67879,2,0,P|332:144|340:96,1,52.5,4|0,0:0|0:0,0:0:0:0:
292,80,68281,6,0,P|303:186|320:300,1,210,4|0,0:0|0:0,0:0:0:0:
420,348,69489,1,4,0:0:0:0:
484,252,69892,2,0,P|490:225|492:187,1,52.5
484,144,70295,1,2,0:0:0:0:
396,68,70697,2,0,P|347:72|292:80,1,105,6|8,0:0|0:0,0:0:0:0:
188,136,71503,1,0,0:0:0:0:
288,196,71905,1,2,0:0:0:0:
184,248,72308,2,0,P|135:244|80:236,1,105,2|0,0:1|0:0,0:0:0:0:
188,276,73114,6,0,P|236:280|292:288,1,105,0|8,0:0|0:0,0:0:0:0:
176,300,73919,1,0,0:0:0:0:
188,184,74322,2,0,P|252:108|364:112,1,210,4|2,0:0|0:0,0:0:0:0:
467,141,75530,2,0,P|462:115|456:89,2,52.5,2|2|2,0:0|0:0|0:0,0:0:0:0:
475,215,76335,5,0,0:0:0:0:
435,298,76738,1,4,0:0:0:0:
334,357,77140,1,4,0:0:0:0:
197,360,77543,1,0,0:0:0:0:
65,274,77946,6,0,P|212:223|367:245,1,315.000012016297,8|8,0:1|0:0,0:0:0:0:
435,298,78952,1,4,0:0:0:0:
354,328,79154,2,0,P|275:331|200:308,2,157.500006008148,2|0|2,0:1|0:0|0:0,0:0:0:0:
367,245,80161,1,4,0:0:0:0:
339,163,80362,6,0,P|330:124|330:85,1,78.7500030040742,4|2,0:0|0:0,0:0:0:0:
394,27,80765,2,0,P|434:32|471:47,1,78.7500030040742,0|4,0:0|0:0,0:0:0:0:
458,132,81167,2,0,P|480:163|488:202,1,78.7500030040742,0|4,0:0|0:0,0:0:0:0:
445,275,81570,2,0,P|428:311|423:350,2,78.7500030040742,8|2|8,0:0|0:0|0:0,0:0:0:0:
367,245,82174,1,8,0:0:0:0:
289,284,82375,1,4,0:0:0:0:
209,248,82577,1,4,0:0:0:0:
179,328,82778,6,0,P|145:348|106:354,2,78.7500030040742,4|2|8,0:1|0:0|0:0,0:0:0:0:
209,248,83382,2,0,P|178:222|141:209,1,78.7500030040742,4|2,0:0|0:0,0:0:0:0:
60,238,83784,1,4,0:0:0:0:
72,152,83986,2,0,P|100:78|147:15,1,157.500006008148,2|2,0:1|0:0,0:0:0:0:
175,97,84590,2,0,P|199:135|245:154,1,78.7500030040742,0|2,0:0|0:0,0:0:0:0:
310,176,84993,1,0,0:0:0:0:
391,146,85194,6,0,P|337:89|262:70,1,157.500006008148,4|8,0:0|0:0,0:0:0:0:
227,150,85798,1,4,0:0:0:0:
155,197,85999,1,8,0:0:0:0:
231,237,86201,1,4,0:0:0:0:
281,307,86402,2,0,P|288:345|315:373,1,78.7500030040742,10|0,0:0|0:0,0:0:0:0:
402,381,86805,2,0,P|431:355|441:317,1,78.7500030040742,0|2,0:0|0:0,0:0:0:0:
404,239,87208,2,0,P|367:226|329:236,1,78.7500030040742,4|0,0:0|0:0,0:0:0:0:
326,148,87610,6,0,P|440:161|514:250,1,236.250009012223,4|14,0:0|0:0,0:0:0:0:
402,381,88617,1,0,0:0:0:0:
332,328,88818,2,0,P|294:334|259:352,2,78.7500030040742,2|0|2,0:0|0:0|0:0,0:0:0:0:
285,253,89422,2,0,P|245:243|210:220,1,78.7500030040742,0|2,0:0|0:0,0:0:0:0:
198,138,89825,1,4,0:0:0:0:
256,74,90026,6,0,P|246:152|214:223,1,157.500006008148,4|8,0:0|0:0,0:0:0:0:
135,260,90630,1,4,0:0:0:0:
120,174,90832,1,0,0:0:0:0:
198,138,91034,1,4,0:0:0:0:
256,74,91235,2,0,P|222:54|183:52,1,78.7500030040742,2|0,0:0|0:0,0:0:0:0:
102,21,91637,2,0,P|67:40|28:41,1,78.7500030040742,2|8,0:0|0:0,0:0:0:0:
29,41,92040,1,4,0:0:0:0:
29,41,92241,1,8,0:0:0:0:
43,125,92442,6,0,P|106:223|95:339,1,236.250009012223,6|4,0:0|0:0,0:0:0:0:
28,282,93248,2,0,P|60:259|102:254,1,78.7500030040742,0|4,0:0|0:0,0:0:0:0:
184,271,93650,2,0,P|250:312|298:374,1,157.500006008148,2|2,0:0|0:0,0:0:0:0:
447,285,94456,1,2,0:0:0:0:
360,290,94657,1,4,0:0:0:0:
287,239,94859,6,0,P|254:168|244:91,1,157.500006008148,4|8,0:0|0:0,0:0:0:0:
312,38,95463,1,4,0:0:0:0:
324,123,95664,1,8,0:0:0:0:
244,91,95865,1,4,0:0:0:0:
401,76,96067,2,0,B|412:71|436:78|436:78|442:164|387:184,1,157.500006008148,4|2,0:0|0:0,0:0:0:0:
244,91,96872,2,0,P|205:86|171:67,1,78.7500030040742,4|0,0:0|0:0,0:0:0:0:
102,122,97275,6,0,P|213:86|324:123,1,236.250009012223,8|4,0:1|0:0,0:0:0:0:
266,286,98281,1,4,0:0:0:0:
318,355,98483,2,0,P|393:332|470:341,2,157.500006008148,2|2|8,0:1|0:0|0:0,0:0:0:0:
232,364,99489,1,0,0:0:0:0:
152,329,99691,6,0,P|87:284|10:269,1,157.500006008148,4|8,0:0|0:0,0:0:0:0:
10,269,100295,2,0,P|33:301|65:325,1,78.7500030040742,4|0,0:0|0:0,0:0:0:0:
152,329,100697,1,4,0:0:0:0:
205,261,100899,2,0,P|234:188|295:139,1,157.500006008148,2|2,0:0|0:0,0:0:0:0:
336,62,101503,1,4,0:0:0:0:
246,78,101704,2,0,P|264:113|294:139,1,78.7500030040742,2|4,0:0|0:0,0:0:0:0:
382,134,102107,6,0,P|380:213|398:290,1,157.500006008148,4|8,0:1|0:0,0:0:0:0:
422,206,102711,2,0,P|437:128|473:59,1,157.500006008148,4|4,0:0|0:0,0:0:0:0:
499,142,103315,2,0,P|429:105|387:36,2,157.500006008148,2|8|2,0:1|0:0|0:0,0:0:0:0:
473,59,104322,1,4,0:0:0:0:
388,40,104523,6,0,P|271:39|157:70,1,236.250009012223,4|4,0:0|0:0,0:0:0:0:
82,28,105328,2,0,P|42:26|4:36,2,78.7500030040742,2|4|2,0:0|0:0|0:0,0:0:0:0:
83,114,105932,1,2,0:0:0:0:
56,197,106134,2,0,P|39:232|11:259,1,78.7500030040742,8|2,0:0|0:0,0:0:0:0:
92,285,106536,2,0,P|121:313|142:346,1,78.7500030040742,4|0,0:0|0:0,0:0:0:0:
197,279,106939,6,0,P|276:276|350:250,1,157.500006008148,6|8,0:0|0:0,0:0:0:0:
267,225,107543,2,0,P|265:264|275:302,1,78.7500030040742,4|0,0:0|0:0,0:0:0:0:
352,340,107945,1,4,0:0:0:0:
436,327,108147,2,0,P|469:255|484:178,1,157.500006008148,2|2,0:1|0:0,0:0:0:0:
412,129,108751,2,0,P|388:97|376:60,1,78.7500030040742,0|2,0:0|0:0,0:0:0:0:
452,19,109153,1,4,0:0:0:0:
376,60,109355,6,0,P|354:136|360:214,1,157.500006008148,4|8,0:0|0:0,0:0:0:0:
279,183,109959,1,4,0:0:0:0:
279,183,110161,2,0,P|279:223|270:261,1,78.7500030040742,2|4,0:0|0:0,0:0:0:0:
182,251,110563,2,0,P|181:291|191:329,1,78.7500030040742,2|8,0:0|0:0,0:0:0:0:
121,380,110966,2,0,P|87:360|49:350,1,78.7500030040742,0|2,0:0|0:0,0:0:0:0:
39,263,111369,2,0,P|73:243|100:215,1,78.7500030040742,4|8,0:0|0:0,0:0:0:0:
169,164,111771,6,0,P|123:101|53:64,1,157.500006008148,6|8,0:0|0:0,0:0:0:0:
55,64,112375,1,4,0:0:0:0:
44,150,112577,1,2,0:0:0:0:
44,150,112778,1,0,0:0:0:0:
100,215,112979,2,0,P|178:212|256:221,1,157.500006008148,4|2,0:0|0:0,0:0:0:0:
340,239,113583,2,0,P|380:238|419:233,1,78.7500030040742,0|2,0:0|0:0,0:0:0:0:
498,197,113986,1,4,0:0:0:0:
419,233,114187,5,6,0:0:0:0:
419,233,114590,2,0,P|425:275|421:320,1,78.7500030040742,8|0,0:0|0:0,0:0:0:0:
371,381,114993,2,0,P|354:341|350:299,1,78.7500030040742
350,306,115395,2,0,P|355:227|377:152,1,157.500006008148
372,65,115999,1,0,0:0:0:0:
287,36,116201,2,0,P|285:75|299:112,1,78.7500030040742,4|0,0:0|0:0,0:0:0:0:
298,111,116603,6,0,P|221:98|132:88,1,157.5,6|4,0:0|0:0,0:0:0:0:
32,128,117610,1,4,0:0:0:0:
48,184,117812,2,0,P|45:218|40:252,1,52.5,2|0,0:0|0:0,0:0:0:0:
20,288,118214,2,0,P|72:280|136:272,1,105,2|4,0:0|0:0,0:0:0:0:
212,352,119020,1,4,0:0:0:0:
320,312,119422,2,0,P|316:285|314:259,1,52.5,8|4,0:0|0:0,0:0:0:0:
368,280,119825,2,0,P|371:253|376:228,1,52.5,0|4,0:0|0:0,0:0:0:0:
420,268,120228,2,0,P|444:216|480:164,1,105,8|2,0:0|0:0,0:0:0:0:
470,176,121033,1,2,0:0:0:0:
340,60,121436,6,0,P|351:111|356:164,1,105,4|8,0:0|0:0,0:0:0:0:
252,112,122241,2,0,P|249:138|243:163,1,52.5,8|4,0:0|0:0,0:0:0:0:
196,128,122644,2,0,P|186:152|174:175,1,52.5,2|8,0:0|0:0,0:0:0:0:
140,132,123046,1,4,0:0:0:0:
28,100,123449,1,2,0:0:0:0:
52,212,123852,2,0,P|40:263|36:315,1,105,6|8,0:0|0:0,0:0:0:0:
140,368,124657,2,0,P|165:361|190:352,1,52.5,0|4,0:0|0:0,0:0:0:0:
202,297,125060,2,0,P|183:278|163:261,1,52.5,2|8,0:0|0:0,0:0:0:0:
108,276,125463,1,0,0:0:0:0:
108,276,125664,1,8,0:0:0:0:
108,276,125865,1,6,0:0:0:0:
212,328,126268,6,0,P|268:324|320:316,2,105,6|8|0,0:0|0:0|0:0,0:0:0:0:
320,284,127476,2,0,P|371:276|424:272,1,105,10|4,0:0|0:0,0:0:0:0:
308,260,128281,1,2,0:0:0:0:
216,192,128684,2,0,P|228:144|232:84,1,105,6|8,0:0|0:0,0:0:0:0:
140,20,129489,1,0,0:0:0:0:
140,20,129691,1,4,0:0:0:0:
140,20,129892,2,0,P|127:70|123:123,2,105,8|4|2,0:0|0:0|0:0,0:0:0:0:
32,60,131100,6,0,P|48:156|60:280,1,210,4|8,0:0|0:0,0:0:0:0:
59,268,132107,1,4,0:0:0:0:
59,268,132308,2,0,P|110:275|160:316,1,105,2|4,0:0|0:0,0:0:0:0:
252,244,133114,1,2,0:0:0:0:
344,316,133516,2,0,P|354:263|364:192,1,105,6|8,0:0|0:0,0:0:0:0:
276,136,134322,2,0,P|249:132|216:128,1,52.5,8|4,0:0|0:0,0:0:0:0:
180,92,134724,1,2,0:0:0:0:
128,116,134926,1,8,0:0:0:0:
72,120,135127,2,0,P|79:171|89:223,1,105,4|4,0:0|0:0,0:0:0:0:
140,328,135932,6,0,P|132:276|122:224,1,105,6|8,0:0|0:0,0:0:0:0:
224,172,136738,1,0,0:0:0:0:
212,228,136939,1,8,0:0:0:0:
232,284,137140,1,4,0:0:0:0:
280,316,137342,1,8,0:0:0:0:
336,312,137543,2,0,P|388:304|456:288,1,105,2|2,0:0|0:0,0:0:0:0:
508,200,138348,2,0,P|456:188|404:180,1,105,6|8,0:0|0:0,0:0:0:0:
300,228,139154,2,0,P|292:201|288:160,2,52.5,8|2|6,0:0|0:0|0:0,0:0:0:0:
266,339,139959,1,4,0:0:0:0:
152,362,140362,1,6,0:0:0:0:
74,276,140765,5,4,0:0:0:0:
110,166,141167,1,4,0:0:0:0:
110,166,141369,1,8,0:0:0:0:
224,142,141771,1,4,0:0:0:0:
224,142,141973,1,2,0:0:0:0:
188,252,142778,5,0,0:0:0:0:
250,313,143181,2,0,P|285:330|323:340,1,78.7500030040742,4|0,0:0|0:0,0:0:0:0:
410,337,143986,1,0,0:0:0:0:
444,257,144389,1,2,0:0:0:0:
401,246,144590,1,8,0:0:0:0:
361,263,144791,1,0,0:0:0:0:
276,244,145194,1,2,0:0:0:0:
248,161,145597,6,0,P|178:181|188:252,1,157.500006008148,6|8,0:0|0:0,0:0:0:0:
110,267,146805,1,2,0:0:0:0:
67,257,147006,1,8,0:0:0:0:
67,257,147409,1,8,0:0:0:0:
110,267,147610,1,4,0:0:0:0:
109,266,148013,6,0,P|108:306|91:340,1,78.7500030040742,6|0,0:0|0:0,0:0:0:0:
67,257,148818,2,0,P|101:238|140:236,1,78.7500030040742,8|2,0:0|0:0,0:0:0:0:
178,214,149422,1,8,0:0:0:0:
195,174,149624,1,0,0:0:0:0:
110,156,150027,1,2,0:0:0:0:
74,77,150429,6,0,P|141:116|195:174,1,157.500006008148,6|8,0:0|0:0,0:0:0:0:
228,93,151637,1,2,0:0:0:0:
226,49,151838,1,8,0:0:0:0:
239,90,152040,1,0,0:0:0:0:
249,48,152241,1,8,0:0:0:0:
251,91,152442,1,2,0:0:0:0:
323,74,152711,6,0,L|335:71,1,13.125000500679,8|8,0:0|0:0,0:0:0:0:
323,74,152845,2,0,P|373:133|444:167,1,157.500006008148,6|8,0:0|0:0,0:0:0:0:
381,227,154053,1,2,0:0:0:0:
353,260,154254,2,0,P|315:268|276:267,1,78.7500030040742,8|8,0:0|0:0,0:0:0:0:
247,234,154859,1,2,0:0:0:0:
192,166,155261,6,0,P|115:179|53:227,1,157.500006008148,6|8,0:0|0:0,0:0:0:0:
61,314,156469,1,2,0:0:0:0:
101,302,156671,2,0,P|140:301|174:321,1,78.7500030040742,8|0,0:0|0:0,0:0:0:0:
194,359,157275,1,2,0:0:0:0:
278,370,157677,6,0,P|337:367|395:354,1,118.125004506111,6|0,0:0|0:0,0:0:0:0:
438,349,158483,2,0,L|476:354,2,39.3750015020371,8|0|10,0:0|0:0|0:0,0:0:0:0:
384,280,159288,1,0,0:0:0:0:
412,247,159489,2,0,L|451:244,1,39.3750015020371,8|6,0:0|0:0,0:0:0:0:
400,173,160093,5,6,0:0:0:0:
413,131,160295,1,8,0:0:0:0:
381,101,160496,2,0,L|344:114,1,39.3750015020371,2|8,0:0|0:0,0:0:0:0:
305,95,160899,2,0,L|253:78,1,39.3750015020371,0|8,0:0|0:0,0:0:0:0:
249,94,161201,1,8,0:0:0:0:
249,94,161301,2,0,L|241:144,1,39.3750015020371,14|8,0:0|0:0,0:0:0:0:
284,206,161704,2,0,L|255:243,1,39.3750015020371,0|8,0:0|0:0,0:0:0:0:
259,320,162107,2,0,L|222:332,1,39.3750015020371,6|8,0:0|0:0,0:0:0:0:
147,343,162510,6,0,P|89:292|56:221,1,157.5,6|2,0:0|0:0,0:0:0:0:
61,148,163315,1,8,0:0:0:0:
61,148,163718,1,2,0:0:0:0:
93,82,163919,1,8,0:0:0:0:
61,148,164120,2,0,P|85:156|111:155,1,52.5
93,82,164523,1,2,0:0:0:0:
170,206,164926,5,6,0:0:0:0:
170,205,165328,2,0,P|194:196|220:195,1,52.5,0|2,0:0|0:0,0:0:0:0:
291,214,165731,1,0,0:0:0:0:
291,214,166134,1,2,0:0:0:0:
220,195,166335,1,8,0:0:0:0:
220,195,166738,1,8,0:0:0:0:
291,214,166939,1,6,0:0:0:0:
376,333,167342,5,6,0:0:0:0:
437,121,167946,1,2,0:0:0:0:
398,183,168147,1,0,0:0:0:0:
398,183,168550,1,2,0:0:0:0:
437,121,168751,1,8,0:0:0:0:
418,50,168952,2,0,P|394:38|368:34,1,52.5
295,42,169355,1,2,0:0:0:0:
295,42,169758,5,6,0:0:0:0:
241,92,169959,1,8,0:0:0:0:
173,120,170161,2,0,P|149:122|116:118,1,52.5,2|8,0:0|0:0,0:0:0:0:
94,51,170563,2,0,P|68:47|42:52,1,52.5,8|0,0:0|0:0,0:0:0:0:
21,84,170865,1,8,0:0:0:0:
34,118,170966,2,0,L|24:145,2,26.25,8|8|8,0:0|0:0|0:0,0:0:0:0:
102,144,171369,1,8,0:0:0:0:
148,200,171570,1,8,0:0:0:0:
148,273,171771,2,0,L|119:279,5,17.5,8|8|8|0|2|2,0:0|0:0|0:0|0:0|0:0|0:0,0:0:0:0:
149,290,172174,6,0,P|173:301|199:303,1,52.5,6|2,0:0|0:0,0:0:0:0:
272,294,172577,2,0,P|295:281|313:263,1,52.5,8|2,0:0|0:0,0:0:0:0:
347,198,172979,2,0,P|352:169|348:131,1,52.5,8|0,0:0|0:0,0:0:0:0:
389,83,173382,1,6,0:0:0:0:
389,83,173583,1,8,0:0:0:0:
344,24,173785,2,0,P|317:25|293:33,1,52.5
289,107,174187,1,2,0:0:0:0:
289,107,174590,5,6,0:0:0:0:
425,160,174993,1,8,0:0:0:0:
440,231,175194,1,2,0:0:0:0:
426,303,175395,2,0,P|404:316|379:323,1,52.5,8|0,0:0|0:0,0:0:0:0:
306,309,175798,1,6,0:0:0:0:
264,369,175999,1,8,0:0:0:0:
286,298,176201,1,2,0:1:0:0:
232,347,176402,1,8,0:0:0:0:
160,330,176603,1,4,0:0:0:0:
155,182,177006,6,0,P|124:184|104:192,1,52.5,6|0,0:0|0:0,0:0:0:0:
34,215,177409,2,0,P|30:246|34:268,1,52.5,8|2,0:0|0:0,0:0:0:0:
49,338,177812,2,0,P|70:353|95:361,1,52.5
160,330,178214,1,6,0:0:0:0:
192,263,178416,1,8,0:0:0:0:
251,219,178617,2,0,P|275:210|301:209,1,52.5
373,224,179020,1,2,0:0:0:0:
252,140,179422,5,6,0:0:0:0:
104,138,179825,1,8,0:0:0:0:
12,254,180228,2,0,P|31:234|44:212,1,52.5
28,140,180630,2,0,P|25:114|15:90,1,52.5,4|0,0:0|0:0,0:0:0:0:
66,36,181033,1,2,0:0:0:0:
131,68,181234,1,8,0:0:0:0:
201,47,181436,1,4,0:0:0:0:
294,158,181838,6,0,P|321:156|346:148,1,52.5,6|0,0:0|0:0,0:0:0:0:
370,79,182241,2,0,P|390:66|406:42,1,52.5,8|2,0:0|0:0,0:0:0:0:
471,76,182644,2,0,P|478:39|479:6,1,52.5,8|2,0:0|0:0,0:0:0:0:
479,24,183046,1,4,0:0:0:0:
332,15,183449,1,0,0:0:0:0:
294,158,183852,1,2,0:0:0:0:
422,228,184254,5,4,0:0:0:0:
275,243,184657,1,8,0:0:0:0:
347,256,184859,1,2,0:0:0:0:
378,322,185060,2,0,P|352:330|327:332,1,52.5,4|0,0:0|0:0,0:0:0:0:
255,314,185463,1,2,0:0:0:0:
166,197,185865,1,2,0:1:0:0:
92,196,186067,1,4,0:0:0:0:
28,232,186268,1,2,0:0:0:0:
100,221,186469,1,4,0:0:0:0:
153,269,186671,6,0,P|162:294|181:311,1,52.5,6|0,0:0|0:0,0:0:0:0:
255,314,187073,1,8,0:0:0:0:
219,378,187275,1,2,0:0:0:0:
255,313,187476,2,0,P|265:290|269:264,1,52.5,0|2,0:0|0:0,0:0:0:0:
260,191,187879,1,6,0:0:0:0:
208,53,188281,2,0,P|188:35|158:25,1,52.5,0|8,0:0|0:0,0:0:0:0:
92,45,188684,2,0,P|66:46|42:55,1,52.5,2|0,0:0|0:0,0:0:0:0:
30,128,189087,6,0,P|56:135|83:135,1,52.5,6|0,0:0|0:0,0:0:0:0:
149,163,189489,1,8,0:0:0:0:
107,329,189892,2,0,P|132:317|154:298,1,52.5,0|2,0:0|0:0,0:0:0:0:
220,276,190295,1,4,0:0:0:0:
379,353,190697,2,0,P|380:301|374:249,1,105,4|0,0:0|0:0,0:0:0:0:
299,206,191301,1,8,0:0:0:0:
220,276,191503,6,0,P|301:258|384:248,1,157.500006008148,8|0,0:1|0:0,0:0:0:0:
356,332,192107,2,0,P|300:288|316:184,1,157.500006008148,4|4,0:0|0:0,0:0:0:0:
362,146,192711,2,0,P|402:150|458:178,1,78.7500030040742,2|0,0:1|0:0,0:0:0:0:
496,100,193114,2,0,P|479:63|475:0,1,78.7500030040742
389,5,193516,2,0,P|365:37|313:72,1,78.7500030040742,2|4,0:0|0:0,0:0:0:0:
256,98,193919,6,0,P|265:176|270:254,1,157.500006008148,4|2,0:0|0:0,0:0:0:0:
224,328,194523,1,4,0:0:0:0:
141,305,194724,1,0,0:0:0:0:
81,365,194926,1,4,0:0:0:0:
4,324,195127,2,0,P|6:279|12:232,1,78.7500030040742,8|4,0:0|0:0,0:0:0:0:
76,192,195530,1,2,0:0:0:0:
64,108,195731,1,8,0:0:0:0:
52,24,195932,1,4,0:0:0:0:
52,24,196335,6,0,P|136:36|208:40,1,157.500006008148,4|8,0:1|0:0,0:0:0:0:
272,100,196939,2,0,P|320:92|372:88,2,78.7500030040742,4|2|4,0:0|0:0|0:0,0:0:0:0:
208,160,197543,2,0,P|248:180|312:176,1,78.7500030040742,2|0,0:1|0:0,0:0:0:0:
352,232,197946,1,4,0:0:0:0:
424,184,198147,1,0,0:0:0:0:
500,224,198348,1,2,0:0:0:0:
500,224,198751,6,0,P|496:148|480:48,1,157.500006008148,4|8,0:0|0:0,0:0:0:0:
404,96,199355,1,4,0:0:0:0:
336,44,199556,2,0,P|320:88|328:144,1,78.7500030040742,8|4,0:0|0:0,0:0:0:0:
384,180,199959,2,0,P|296:176|246:239,2,157.500006008148,8|8|4,0:0|0:0|0:0,0:0:0:0:
436,248,200966,1,0,0:0:0:0:
456,332,201167,6,0,P|416:332|368:304,1,78.7500030040742,4|2,0:0|0:0,0:0:0:0:
300,352,201570,1,8,0:0:0:0:
248,284,201771,1,4,0:0:0:0:
172,244,201973,1,2,0:0:0:0:
84,252,202174,1,4,0:0:0:0:
16,304,202375,2,0,P|8:222|1:147,1,157.500006008148,8|2,0:0|0:0,0:0:0:0:
48,72,202979,1,0,0:0:0:0:
136,60,203181,2,0,P|129:102|128:152,1,78.7500030040742,2|4,0:0|0:0,0:0:0:0:
213,151,203583,6,0,P|219:112|221:72,1,78.7500030040742,6|0,0:0|0:0,0:0:0:0:
297,30,203986,1,8,0:0:0:0:
370,75,204187,2,0,P|409:72|448:66,2,78.7500030040742,4|2|4,0:0|0:0|0:0,0:0:0:0:
333,153,204791,2,0,P|371:159|411:161,1,78.7500030040742,8|0,0:0|0:0,0:0:0:0:
442,242,205194,2,0,P|403:248|363:250,1,78.7500030040742,2|8,0:0|0:0,0:0:0:0:
297,306,205597,1,4,0:0:0:0:
212,286,205798,1,8,0:0:0:0:
149,346,205999,6,0,P|80:285|6:300,1,157.500006008148,6|8,0:0|0:0,0:0:0:0:
61,368,206603,1,4,0:0:0:0:
99,290,206805,2,0,P|105:241|106:191,1,78.7500030040742,8|4,0:0|0:0,0:0:0:0:
30,168,207208,2,0,P|21:92|19:4,2,157.500006008148,4|2|2,0:0|0:0|0:0,0:0:0:0:
106,211,208214,1,0,0:0:0:0:
190,191,208416,6,0,P|196:152|197:112,2,78.7500030040742,4|0|8,0:0|0:0|0:0,0:0:0:0:
217,273,209020,1,0,0:0:0:0:
298,301,209221,2,0,P|379:286|484:292,2,157.500006008148,4|4|2,0:0|0:0|0:0,0:0:0:0:
231,356,210228,1,8,0:0:0:0:
148,330,210429,1,4,0:0:0:0:
148,330,210832,6,0,P|101:281|121:179,1,157.500006008148,8|0,0:1|0:0,0:0:0:0:
176,249,211436,2,0,P|101:283|34:241,1,157.500006008148,4|4,0:0|0:0,0:0:0:0:
27,163,212040,2,0,P|20:121|18:64,1,78.7500030040742,2|8,0:1|0:0,0:0:0:0:
87,34,212442,2,0,P|126:48|177:75,1,78.7500030040742,2|0,0:0|0:0,0:0:0:0:
225,121,212845,2,0,P|262:107|297:90,1,78.7500030040742,0|4,0:0|0:0,0:0:0:0:
371,44,213248,6,0,P|376:106|388:213,1,157.500006008148,2|0,0:0|0:0,0:0:0:0:
413,283,213852,1,4,0:0:0:0:
483,333,214053,2,0,P|497:302|487:238,1,78.7500030040742,0|4,0:0|0:0,0:0:0:0:
413,283,214456,2,0,P|350:274|255:268,1,157.500006008148,0|2,0:0|0:0,0:0:0:0:
182,313,215060,1,8,0:0:0:0:
258,353,215261,1,4,0:0:0:0:
333,309,215463,1,4,0:0:0:0:
335,222,215664,6,0,P|328:135|324:52,1,157.500006008148,4|8,0:1|0:0,0:0:0:0:
249,21,216268,1,4,0:0:0:0:
324,64,216469,2,0,P|385:57|425:51,1,78.7500030040742,2|4,0:0|0:0,0:0:0:0:
466,113,216872,1,2,0:1:0:0:
335,222,217275,1,2,0:0:0:0:
250,203,217476,1,0,0:0:0:0:
165,220,217677,1,2,0:0:0:0:
97,274,217879,1,4,0:0:0:0:
70,356,218080,6,0,P|154:353|246:337,1,157.500006008148,2|8,0:0|0:0,0:0:0:0:
310,363,218684,1,4,0:0:0:0:
363,294,218885,2,0,P|314:275|273:283,1,78.7500030040742,8|4,0:0|0:0,0:0:0:0:
274,191,219288,2,0,P|352:176|454:167,2,157.500006008148,0|0|2,0:0|0:0|0:0,0:0:0:0:
197,232,220295,1,0,0:0:0:0:
139,296,220496,6,0,P|176:315|226:314,1,78.7500030040742,4|2,0:0|0:0,0:0:0:0:
286,362,220899,1,8,0:0:0:0:
371,348,221100,1,4,0:0:0:0:
456,333,221301,2,0,P|449:277|444:236,1,78.7500030040742,8|4,0:0|0:0,0:0:0:0:
418,172,221704,2,0,P|431:104|364:37,1,157.500006008148,2|2,0:1|0:0,0:0:0:0:
291,25,222308,1,0,0:0:0:0:
229,86,222510,1,2,0:0:0:0:
143,70,222711,1,8,0:0:0:0:
79,129,222912,6,0,P|40:123|0:119,2,78.7500030040742,4|2|8,0:0|0:0|0:0,0:0:0:0:
135,195,223516,1,4,0:0:0:0:
190,261,223718,2,0,P|228:255|268:251,1,78.7500030040742,0|4,0:0|0:0,0:0:0:0:
342,296,224120,2,0,P|401:284|475:355,2,157.500006008148,0|0|4,0:0|0:0|0:0,0:0:0:0:
268,251,225127,1,8,0:0:0:0:
258,165,225328,6,0,P|346:156|438:141,1,157.500006008148,6|8,0:0|0:0,0:0:0:0:
490,187,225932,1,4,0:0:0:0:
451,265,226134,2,0,P|400:259|353:256,1,78.7500030040742,8|4,0:0|0:0,0:0:0:0:
301,305,226536,1,2,0:1:0:0:
301,305,226939,2,0,P|250:299|203:296,1,78.7500030040742,0|2,0:0|0:0,0:0:0:0:
152,347,227342,2,0,P|101:341|54:338,1,78.7500030040742,8|4,0:0|0:0,0:0:0:0:
65,252,227744,6,0,P|116:259|191:175,2,157.500006008148,6|8|8,0:0|0:0|0:0,0:0:0:0:
21,176,228751,1,4,0:0:0:0:
59,98,228952,2,0,P|110:92|157:89,1,78.7500030040742,4|2,0:0|0:0,0:0:0:0:
222,108,229355,2,0,P|273:102|320:99,1,78.7500030040742,8|8,0:0|0:0,0:0:0:0:
382,127,229758,1,4,0:0:0:0:
402,269,230161,5,6,0:0:0:0:
257,273,230563,1,8,0:0:0:0:
323,245,230765,1,4,0:0:0:0:
265,287,230966,1,8,0:0:0:0:
313,233,231167,1,4,0:0:0:0:
279,296,231369,2,0,P|305:317|335:329,1,65.625,2|0,0:0|0:0,0:0:0:0:
407,340,231771,1,8,0:0:0:0:
437,198,232174,1,4,0:0:0:0:
357,77,232577,5,6,0:0:0:0:
289,102,232778,1,2,0:0:0:0:
217,105,232979,1,8,0:0:0:0:
147,85,233181,1,4,0:0:0:0:
219,85,233382,1,8,0:0:0:0:
150,108,233583,1,4,0:0:0:0:
100,162,233785,2,0,P|92:193|93:226,1,65.625,10|0,0:0|0:0,0:0:0:0:
111,295,234187,1,0,0:0:0:0:
54,162,234590,1,2,0:0:0:0:
37,305,234993,5,6,0:0:0:0:
178,333,235395,1,8,0:0:0:0:
246,309,235597,1,10,0:0:0:0:
186,350,235798,2,0,P|218:355|250:354,1,65.625,0|4,0:0|0:0,0:0:0:0:
276,285,236201,2,0,P|306:275|339:271,1,65.625,4|8,0:0|0:0,0:0:0:0:
409,287,236603,1,12,0:0:0:0:
480,273,236805,1,8,0:0:0:0:
414,302,237006,1,2,0:0:0:0:
276,257,237409,6,0,P|217:227|167:185,1,131.25,6|8,0:0|0:0,0:0:0:0:
140,118,238013,1,4,0:0:0:0:
144,46,238214,1,0,0:0:0:0:
114,112,238416,1,4,0:0:0:0:
56,155,238617,1,14,0:0:0:0:
200,155,239020,2,0,P|234:151|270:159,1,65.625,0|4,0:0|0:0,0:0:0:0:
333,177,239422,1,6,0:0:0:0:
468,129,239825,6,0,P|438:140|409:155,1,65.625,6|2,0:0|0:0,0:0:0:0:
390,225,240228,1,8,0:0:0:0:
390,297,240429,1,6,0:0:0:0:
390,297,240832,1,2,0:0:0:0:
390,224,241033,2,0,P|388:159|379:94,1,131.25,6|4,0:0|0:0,0:0:0:0:
309,35,241637,1,2,0:0:0:0:
304,125,241838,2,0,P|343:176|389:223,1,131.25,10|6,0:0|0:0,0:0:0:0:
433,282,242442,5,2,0:0:0:0:
460,214,242644,1,8,0:0:0:0:
404,259,242845,1,4,0:0:0:0:
333,273,243046,1,0,0:0:0:0:
265,247,243248,1,4,0:0:0:0:
322,287,243449,2,0,P|277:241|215:222,1,131.25,14|0,0:0|0:0,0:0:0:0:
143,226,244053,1,12,0:0:0:0:
78,260,244254,2,0,P|57:285|42:313,1,65.625,4|0,0:0|0:0,0:0:0:0:
100,356,244657,5,6,0:0:0:0:
100,356,245060,1,8,0:0:0:0:
145,299,245261,1,2,0:0:0:0:
143,226,245463,1,2,0:0:0:0:
92,174,245664,1,4,0:0:0:0:
159,198,245865,2,0,P|176:168|184:131,1,65.625,6|8,0:0|0:0,0:0:0:0:
255,136,246268,2,0,P|282:118|305:94,1,65.625,0|8,0:0|0:0,0:0:0:0:
374,113,246671,1,2,0:0:0:0:
374,112,247073,6,0,P|366:178|369:243,1,131.25,6|12,0:0|0:0,0:0:0:0:
394,311,247677,1,2,0:0:0:0:
384,239,247879,1,0,0:0:0:0:
324,280,248080,1,4,0:0:0:0:
390,251,248281,2,0,P|327:231|262:237,1,131.25,2|0,0:0|0:0,0:0:0:0:
262,237,249087,1,4,0:0:0:0:
261,236,249489,6,0,P|196:232|135:254,1,131.25,6|8,0:0|0:0,0:0:0:0:
76,122,250295,1,0,0:0:0:0:
121,177,250496,1,4,0:0:0:0:
117,248,250697,2,0,P|169:289|231:310,1,131.25,6|0,0:0|0:0,0:0:0:0:
302,298,251301,1,8,0:0:0:0:
261,236,251503,1,2,0:0:0:0:
261,236,251905,6,0,P|249:272|252:307,1,65.625,6|4,0:0|0:0,0:0:0:0:
275,367,252308,1,8,0:0:0:0:
302,298,252510,1,4,0:0:0:0:
260,235,252711,2,0,P|260:203|268:171,1,65.625,2|4,0:0|0:0,0:0:0:0:
313,115,253114,1,14,0:0:0:0:
179,61,253516,1,2,0:0:0:0:
313,115,253919,2,0,P|345:112|376:101,1,65.625,12|8,0:0|0:0,0:0:0:0:
299,142,254322,6,0,P|369:179|447:177,1,157.500006008148,6|8,0:0|0:0,0:0:0:0:
487,109,254926,1,4,0:0:0:0:
442,44,255127,2,0,P|413:71|392:104,1,78.7500030040742
370,180,255530,2,0,P|365:258|378:335,1,157.500006008148
378,335,256335,1,0,0:0:0:0:
378,335,256738,6,0,P|299:338|224:361,1,157.500006008148
158,318,257342,1,4,0:0:0:0:
80,304,257543,1,0,0:0:0:0:
79,225,257744,1,4,0:0:0:0:
47,151,257946,2,0,P|162:128|278:146,1,236.250009012223,2|0,0:0|0:0,0:0:0:0:
279,147,258751,1,4,0:0:0:0:
214,17,259154,6,0,P|158:72|84:100,1,157.500006008148,6|8,0:0|0:0,0:0:0:0:
33,40,259758,1,4,0:0:0:0:
65,111,259959,1,0,0:0:0:0:
126,161,260161,1,4,0:0:0:0:
203,173,260362,1,4,0:0:0:0:
214,17,260765,6,0,P|285:155|419:232,1,315.000012016297,4|4,0:0|0:0,0:0:0:0:
509,102,261973,2,0,P|435:117|352:115,1,157.500006008148,0|2,0:0|0:0,0:0:0:0:
287,160,262577,1,8,0:0:0:0:
261,234,262778,2,0,P|195:276|120:299,1,157.500006008148,6|2,0:0|0:0,0:0:0:0:
46,273,263382,1,0,0:0:0:0:
111,317,263583,1,4,0:0:0:0:
267,321,263986,6,0,P|346:330|422:348,1,157.500006008148,6|8,0:0|0:0,0:0:0:0:
491,309,264590,2,0,P|451:311|413:321,1,78.7500030040742,4|2,0:0|0:0,0:0:0:0:
342,355,264993,1,8,0:0:0:0:
267,321,265194,2,0,P|189:322|111:334,1,157.500006008148,6|2,0:0|0:0,0:0:0:0:
39,302,265798,1,8,0:0:0:0:
27,224,265999,1,6,0:0:0:0:
124,80,266402,5,4,0:0:0:0:
99,250,266805,1,8,0:0:0:0:
144,176,267006,1,4,0:0:0:0:
222,138,267208,1,2,0:0:0:0:
308,139,267409,1,4,0:0:0:0:
379,187,267610,1,2,0:0:0:0:
205,207,268013,2,0,P|129:190|60:152,1,157.500006008148,2|4,0:0|0:0,0:0:0:0:
224,58,268818,6,0,P|302:46|383:46,1,157.500006008148,4|0,0:0|0:0,0:0:0:0:
472,23,269422,1,4,0:0:0:0:
379,187,269825,1,0,0:0:0:0:
286,168,270026,2,0,P|211:142|141:107,1,157.500006008148,4|4,0:0|0:0,0:0:0:0:
28,259,270832,1,2,0:0:0:0:
196,344,271234,6,0,P|274:334|352:330,1,157.500006008148,6|4,0:0|0:0,0:0:0:0:
447,339,271838,1,4,0:0:0:0:
304,214,272241,1,4,0:0:0:0:
244,145,272442,2,0,P|317:175|395:184,1,157.500006008148,4|2,0:0|0:0,0:0:0:0:
490,181,273046,1,8,0:0:0:0:
430,107,273248,1,4,0:0:0:0:
337,127,273449,1,0,0:0:0:0:
304,214,273650,6,0,P|236:233|156:237,1,131.25,6|0,0:0|0:0,0:0:0:0:
97,228,274254,1,4,0:0:0:0:
48,78,274657,1,4,0:0:0:0:
117,115,274859,2,0,P|184:134|265:138,2,131.25,2|4|2,0:0|0:0|0:0,0:0:0:0:
50,157,275865,1,8,0:0:0:0:
17,228,276067,6,0,P|22:267|30:306,1,65.625,4|0,0:0|0:0,0:0:0:0:
72,357,276469,1,2,0:0:0:0:
148,336,276671,1,4,0:0:0:0:
148,336,277073,1,4,0:0:0:0:
225,319,277275,2,0,P|289:325|361:352,2,131.25,2|2|4,0:0|0:0|0:0,0:0:0:0:
173,260,278281,1,0,0:0:0:0:
213,192,278483,6,0,P|293:184|368:180,1,131.25,6|8,0:0|0:0,0:0:0:0:
418,205,279087,1,4,0:0:0:0:
502,72,279489,2,0,L|502:39,2,32.8125,2|0|2,0:0|0:0|0:0,0:0:0:0:
459,138,279892,1,4,0:0:0:0:
418,205,280093,2,0,P|423:242|427:283,1,65.625,8|0,0:0|0:0,0:0:0:0:
392,341,280496,1,4,0:0:0:0:
392,341,280697,1,2,0:0:0:0:
314,326,280899,6,0,P|317:261|327:185,1,131.25,6|6,0:0|0:0,0:0:0:0:
293,122,281503,1,4,0:0:0:0:
365,92,281704,1,0,0:0:0:0:
396,163,281905,1,0,0:0:0:0:
325,195,282107,1,10,0:0:0:0:
293,122,282308,1,0,0:0:0:0:
365,92,282510,1,2,0:0:0:0:
293,122,282711,1,8,0:0:0:0:
220,152,282912,2,0,P|183:147|132:146,1,65.625,4|8,0:0|0:0,0:0:0:0:
76,137,283315,6,0,P|140:123|171:51,1,131.25,6|4,0:0|0:0,0:0:0:0:
92,60,283919,2,0,P|101:124|108:190,1,131.25,4|4,0:0|0:0,0:0:0:0:
69,259,284523,1,10,0:0:0:0:
107,327,284724,1,8,0:0:0:0:
176,364,284926,1,0,0:0:0:0:
254,358,285127,1,8,0:0:0:0:
321,317,285328,2,0,P|322:282|327:243,1,65.625,6|8,0:0|0:0,0:0:0:0:
386,201,285731,6,0,P|388:168|391:135,1,65.625,6|0,0:0|0:0,0:0:0:0:
360,62,286134,2,0,P|294:69|229:72,1,131.25,2|4,0:0|0:0,0:0:0:0:
170,126,286738,1,4,0:0:0:0:
114,182,286939,2,0,P|62:143|-1:149,2,131.25,10|8|6,0:0|0:0|0:0,0:0:0:0:
149,252,287946,1,8,0:0:0:0:
224,229,288147,6,0,P|269:260|354:239,1,131.25,6|8,0:0|0:0,0:0:0:0:
404,297,288751,2,0,P|438:292|481:291,1,65.625,4|2,0:0|0:0,0:0:0:0:
504,220,289154,2,0,L|508:184,2,21.875,6|0|2,0:0|0:0|0:0,0:0:0:0:
504,220,289355,2,0,P|498:153|489:77,1,131.25,2|4,0:0|0:0,0:0:0:0:
434,32,289959,1,0,0:0:0:0:
363,70,290160,1,2,0:0:0:0:
376,147,290361,1,8,0:0:0:0:
455,159,290563,5,6,0:0:0:0:
299,134,290966,2,0,P|265:138|225:141,1,65.625,2|8,0:0|0:0,0:0:0:0:
171,189,291369,2,0,P|138:186|105:182,1,65.625,0|4,0:0|0:0,0:0:0:0:
40,139,291771,1,2,0:0:0:0:
40,139,292174,1,8,0:0:0:0:
111,106,292375,1,4,0:0:0:0:
40,139,292577,2,0,P|27:178|32:217,1,65.625,4|8,0:0|0:0,0:0:0:0:
44,278,292979,6,0,P|108:268|174:261,1,131.25,14|0,0:0|0:0,0:0:0:0:
238,308,293583,2,0,P|303:301|368:291,1,131.25,4|4,0:0|0:0,0:0:0:0:
444,313,294187,1,10,0:0:0:0:
457,235,294389,1,8,0:0:0:0:
468,157,294590,1,4,0:0:0:0:
468,157,294993,5,2,0:0:0:0:
457,235,295194,1,0,0:0:0:0:
444,313,295395,1,6,0:0:0:0:
444,313,295798,5,4,0:0:0:0:
457,235,295999,1,4,0:0:0:0:
468,156,296201,2,0,P|459:91|455:26,2,131.25,0|2|0,0:0|0:0|0:0,0:0:0:0:
457,235,297208,1,8,0:0:0:0:
383,262,297409,2,0,P|349:259|298:251,1,65.625,4|0,0:0|0:0,0:0:0:0:
243,281,297812,6,0,P|177:281|129:343,1,131.25,6|0,0:0|0:0,0:0:0:0:
208,351,298416,2,0,P|199:286|195:221,1,131.25,4|4,0:0|0:0,0:0:0:0:
223,147,299020,2,0,P|254:156|286:160,1,65.625,10|0,0:0|0:0,0:0:0:0:
355,86,299422,2,0,P|347:54|334:24,1,65.625,4|0,0:0|0:0,0:0:0:0:
236,8,299825,2,0,P|211:30|192:56,1,65.625,2|0,0:0|0:0,0:0:0:0:
273,81,300228,6,0,P|338:72|403:68,1,131.25,6|6,0:0|0:0,0:0:0:0:
473,105,300832,1,8,0:0:0:0:
406,147,301033,1,0,0:0:0:0:
363,212,301234,1,4,0:0:0:0:
354,290,301436,1,10,0:0:0:0:
216,365,301838,2,0,P|166:315|84:323,1,131.25,2|10,0:0|0:0,0:0:0:0:
38,348,302442,1,8,0:0:0:0:
40,268,302644,6,0,P|30:204|29:117,1,131.25,6|0,0:0|0:0,0:0:0:0:
72,72,303248,1,4,0:0:0:0:
72,72,303650,1,4,0:0:0:0:
147,95,303852,2,0,P|205:51|275:60,2,131.25,2|4|2,0:0|0:0|0:0,0:0:0:0:
115,167,304859,1,0,0:0:0:0:
167,225,305060,6,0,L|232:216|297:207,1,131.25,6|4,0:0|0:0,0:0:0:0:
355,260,305664,1,4,0:0:0:0:
433,262,305865,1,8,0:0:0:0:
493,211,306067,1,4,0:0:0:0:
502,132,306268,1,2,0:0:0:0:
456,68,306469,1,4,0:0:0:0:
379,49,306671,2,0,P|346:50|297:59,1,65.625,4|8,0:0|0:0,0:0:0:0:
248,98,307073,2,0,P|215:96|182:91,1,65.625,4|8,0:0|0:0,0:0:0:0:
122,142,307476,6,0,P|56:147|-6:100,1,131.25,14|4,0:0|0:0,0:0:0:0:
50,176,308080,2,0,P|59:243|65:313,1,131.25,4|4,0:0|0:0,0:0:0:0:
116,365,308684,2,0,P|164:356|206:353,1,65.625,10|8,0:0|0:0,0:0:0:0:
250,316,309087,2,0,P|217:322|185:326,1,65.625,4|0,0:0|0:0,0:0:0:0:
254,289,309489,2,0,P|286:282|318:278,1,65.625,6|0,0:0|0:0,0:0:0:0:
396,293,309892,5,14,0:0:0:0:
396,293,310295,2,0,P|401:254|401:211,1,65.625,2|4,0:0|0:0,0:0:0:0:
379,152,310697,2,0,P|373:190|374:234,1,65.625,8|4,0:0|0:0,0:0:0:0:
355,140,311100,2,0,P|360:101|360:58,1,65.625,8|8,0:0|0:0,0:0:0:0:
310,13,311503,1,2,0:0:0:0:
245,58,311704,1,8,0:0:0:0:
168,41,311905,1,12,0:0:0:0:
54,150,312308,6,0,P|116:141|205:134,1,131.25,14|8,0:0|0:0,0:0:0:0:
224,203,312912,2,0,P|193:258|120:260,1,131.25,4|4,0:0|0:0,0:0:0:0:
59,229,313516,1,10,0:0:0:0:
207,282,313919,1,4,0:0:0:0:
59,229,314322,1,4,0:0:0:0:
207,282,314724,6,0,P|272:276|337:267,1,131.25,6|0,0:0|0:0,0:0:0:0:
318,343,315328,2,0,P|276:317|273:222,1,131.25,4|4,0:0|0:0,0:0:0:0:
320,187,315932,2,0,P|355:190|404:198,1,65.625,2|0,0:0|0:0,0:0:0:0:
460,171,316335,2,0,P|427:166|394:163,1,65.625,0|8,0:0|0:0,0:0:0:0:
359,92,316738,2,0,P|326:87|293:84,1,65.625,6|0,0:0|0:0,0:0:0:0:
200,78,317140,6,0,P|88:143|42:263,1,262.5,6|2,0:0|0:0,0:0:0:0:
28,350,318348,2,0,P|54:351|79:342,1,52.5
127,264,318751,2,0,P|137:213|173:176,1,105,4|6,0:0|0:0,0:0:0:0:
255,274,319556,2,0,P|360:274|453:320,2,210,6|4|0,0:0|0:0|0:0,0:0:0:0:
174,177,321570,1,12,0:0:0:0:
253,78,321973,6,0,P|404:71|502:188,1,315,6|2,0:0|0:0,0:0:0:0:
502,188,323583,2,0,L|505:251,1,52.5,12|12,0:0|0:0,0:0:0:0:
466,290,323986,2,0,L|473:237,1,52.5,2|0,0:0|0:0,0:0:0:0:
419,204,324389,5,6,0:0:0:0:
366,170,324590,1,0,0:0:0:0:
400,222,324791,1,8,0:0:0:0:
340,244,324993,1,4,0:0:0:0:
341,306,325194,2,0,L|284:313,1,52.5,12|8,0:0|0:0,0:0:0:0:
233,281,325597,1,10,0:0:0:0:
170,171,325999,1,8,0:0:0:0:
44,184,326402,1,8,0:0:0:0:
151,249,326805,6,0,B|279:381|508:310|508:310|426:254|419:171|419:171|476:172|491:189,1,630,14|4,0:0|0:0,0:0:0:0:
256,192,329422,12,2,334053,0:0:0:0:
