osu file format v5

[General]
AudioFilename: 11 - Dark Side ni Tsuitekite.mp3
AudioLeadIn: 1026
PreviewTime: 49360
Countdown: 1
SampleSet: Normal
StackLeniency: 0.7
Mode: 0
LetterboxInBreaks: 1
EditorBookmarks: 153229

[Metadata]
Title:Dark Side ni Tsuitekite
Artist:Makino Yui
Creator:Real1
Version:Normal
Source:
Tags:

[Difficulty]
HPDrainRate:5
CircleSize:4
OverallDifficulty:5
SliderMultiplier:1.4
SliderTickRate:2

[Events]
//Background and Video events
0,0,"1160609433292.jpg"
//Break Periods
2,15180,16530
2,73428,73929
2,77428,77929
2,87429,102429
2,159429,159929
//Storyboard Layer 0 (Background)
//Storyboard Layer 1 (Failing)
//Storyboard Layer 2 (Passing)
//Storyboard Layer 3 (Foreground)
//Storyboard Sound Samples
//Background Colour Transformations
3,100,163,162,255

[TimingPoints]
1230.69079943379,500,4,1,0,71,1
70729,-100,4,2,0,51,0
80979,-100,4,1,0,71,0
156729,-100,4,2,0,50,0
166396,-100,4,1,0,71,0

[Colours]
Combo1 : 233,233,233
Combo2 : 255,128,64
Combo3 : 255,255,179
Combo4 : 180,103,103

[HitObjects]
256,192,1230,1,0
384,192,1730,1,0
384,192,1980,1,0
384,192,2230,1,4
384,320,2730,6,2,B|232:320,1,140
184,256,3730,1,0
184,256,3980,1,0
184,256,4230,1,4
184,128,4730,5,0
312,128,5230,1,0
440,128,5730,1,0
440,128,5980,1,0
440,128,6230,1,4
448,256,6730,6,2,B|288:256,1,140
184,256,7730,2,4,B|184:168,2,70
312,256,8730,5,0
312,128,9230,1,0
184,128,9730,1,0
184,128,9980,1,0
184,128,10230,1,4
312,128,10730,6,0,B|312:296,1,140
440,264,11730,2,0,B|440:184,1,70
440,128,12230,1,4
256,304,13230,5,0
256,304,13480,1,0
256,240,13730,2,2,B|256:152,1,70
256,104,14230,1,0
256,104,14480,1,0
320,104,14730,2,4,B|320:184,1,70
256,192,17730,5,0
320,192,17980,1,0
376,224,18230,1,0
432,192,18480,1,0
440,128,18730,1,0
384,96,18980,1,0
320,96,19230,2,2,B|248:96,1,70
184,96,19730,1,0
184,160,19980,1,0
184,224,20230,2,2,B|184:344,1,70
248,296,20730,2,8,B|320:296,3,70
376,296,21730,2,4,B|376:224,1,70
312,192,22230,6,2,B|152:192,1,140
104,104,23230,6,2,B|264:104,1,140
368,112,24230,1,0
368,112,24480,1,0
368,112,24730,2,4,B|368:256,1,140
256,320,25730,6,0,B|256:240,1,70
256,184,26230,1,0
256,120,26480,1,0
320,120,26730,2,0,B|392:120,1,70
392,184,27230,2,0,B|392:256,1,70
392,128,27980,1,2
400,256,28480,6,2,B|344:288|248:168|176:272|88:112,1,350
96,56,29980,1,4
112,240,30730,5,0
240,240,31230,1,0
368,240,31730,1,2
368,240,31980,1,2
368,240,32230,1,2
368,112,32730,1,0
240,112,33230,1,4
192,232,33730,6,0,B|352:232,1,140
392,232,34480,1,0
392,168,34730,1,0
392,104,34980,1,0
328,104,35230,2,0,B|192:104,1,70
192,104,35730,1,0
128,104,35980,2,2,B|128:248,1,140
216,336,36980,6,0,B|256:328|312:344|272:272|304:208|304:208|368:272|368:160|376:192|424:216|432:192,1,280
280,48,38730,5,0
280,176,39230,1,0
152,176,39730,1,2
152,176,39980,1,2
152,176,40230,1,2
152,304,40730,1,0
280,304,41230,1,4
376,224,41730,6,0,B|328:200|376:152|296:152|224:112|200:80|240:208|144:112,1,280
146,114,42980,1,4
336,280,43980,5,2
336,280,44230,1,2
336,280,44480,1,2
88,80,45730,6,0,B|168:128|232:64|256:96|312:56|312:112|376:72,1,280
424,80,46980,2,0,B|424:168,1,70
424,216,47480,1,0
424,216,47730,1,0
424,280,47980,2,0,B|312:280,1,70
288,280,48480,1,2
224,280,48730,1,2
224,216,48980,1,2
96,72,49730,5,0
224,72,50230,1,0
224,72,50480,1,0
224,72,50730,1,0
352,72,51230,1,0
352,200,51730,1,0
352,264,51980,2,0,B|272:264,1,70
216,264,52480,2,0,B|216:208,2,35
152,264,52980,2,4,B|56:264,1,70
160,88,53730,6,2,B|368:88,1,140
360,88,54480,1,0
360,216,54980,1,0
360,216,55230,1,0
296,216,55480,1,0
232,216,55730,2,0,B|152:216,1,70
96,216,56230,2,2,B|96:296,1,70
96,352,56730,2,2,B|176:352,1,70
232,352,57230,2,2,B|312:352,1,70
256,192,57730,12,8,58730
256,192,59230,5,4
256,192,59730,12,8,60730
256,192,61230,5,4
256,64,61730,5,0
320,64,61980,1,0
384,64,62230,1,0
448,64,62480,1,0
448,128,62730,1,0
448,192,62980,1,0
448,256,63230,1,0
384,256,63480,1,0
320,256,63730,1,0
320,192,63980,1,0
320,256,64230,1,0
320,320,64480,1,0
256,320,64730,1,0
128,320,65230,2,4,B|88:232|88:232|160:200|104:160|296:144|320:96|360:144|168:136|96:88|448:88,1,560
164,263,68480,6,8,B|260:263,4,70
164,198,69730,6,0,B|164:39,1,140
352,64,70980,5,4
352,256,71730,1,4
264,160,72230,1,4
264,160,72730,2,4,B|56:160,1,140
56,192,74980,5,4
240,192,75730,1,4
368,192,76230,1,4
368,320,76730,2,4,B|208:320,1,140
96,192,78980,5,4
256,192,79730,1,4
256,192,80230,1,4
256,192,80730,1,4
168,96,81230,5,0
168,96,81480,1,0
168,96,81730,1,0
232,96,81980,2,2,B|320:96,1,70
360,96,82480,2,8,B|456:96,1,70
432,160,82980,2,2,B|432:256,1,70
435,300,83480,2,8,B|355:300,1,70
363,229,83980,2,2,B|363:157,1,70
293,158,84480,2,8,B|213:158,1,70
256,192,85230,12,4,87230
256,192,103730,5,0
320,192,103980,2,0,B|416:192,2,70
320,128,104730,2,0,B|320:40,3,70
216,128,105980,6,2,B|216:224,1,70
216,264,106480,1,0
280,264,106730,1,0
344,264,106980,1,0
408,264,107230,1,0
472,264,107480,2,4,B|472:96,1,140
304,208,108730,5,0
176,208,109230,1,0
48,208,109730,1,0
48,208,109980,1,0
48,208,110230,1,0
48,80,110730,1,0
176,80,111230,1,4
176,208,111730,5,0
240,208,111980,1,0
304,208,112230,1,0
368,208,112480,1,0
432,208,112730,1,0
432,272,112980,1,0
368,272,113230,2,0,B|368:184,1,70
368,136,113730,2,0,B|272:136,1,70
296,200,114230,1,0
296,264,114480,1,0
296,328,114730,2,2,B|152:328,1,140
48,256,115730,1,0
48,256,115980,1,4
152,140,116730,5,0
280,140,117230,1,0
280,140,117480,1,0
280,140,117730,1,4
408,140,118230,1,0
408,140,118730,1,0
408,268,119230,1,4
280,272,119730,6,0,B|280:112,1,140
280,64,120480,2,0,B|192:64,1,70
208,128,120980,2,0,B|208:208,1,70
208,256,121480,2,0,B|136:256,2,70
272,256,122230,2,0,B|352:256,1,70
272,152,122980,5,2
208,152,123230,1,2
144,152,123480,1,2
208,152,123730,1,2
144,152,123980,1,2
256,304,124730,5,0
384,304,125230,1,0
384,176,125730,1,0
384,176,125980,1,0
192,176,126730,1,0
192,176,126980,1,0
192,176,127230,1,4
320,176,127730,6,0,B|388:160|464:176,1,140
464,240,128480,2,0,B|368:216|368:256|240:240,1,210
440,192,129980,5,0
376,192,130230,1,0
312,192,130480,1,0
40,32,131730,6,2,B|40:160,1,70
40,160,132230,1,0
40,224,132480,1,0
40,288,132730,1,8
104,288,132980,1,8
168,288,133230,1,8
232,288,133480,2,0,B|312:288,1,70
368,288,133980,2,2,B|368:136,1,140
368,80,134730,2,2,B|248:80,1,70
144,224,135730,5,0
280,224,136230,1,0
280,224,136480,1,0
280,224,136730,1,0
280,224,136980,1,0
402,223,137480,1,0
344,224,137730,1,0
144,224,138230,2,0,B|184:224,2,35
72,224,138730,2,4,B|72:152,1,70
48,336,139730,6,0,B|48:264,1,70
48,192,140230,1,0
48,120,140480,2,0,B|144:120,1,70
48,120,140980,2,0,B|48:40,1,70
120,48,141480,1,0
256,48,141980,5,0
256,120,142230,1,0
256,192,142480,1,0
256,264,142730,1,0
256,264,143230,2,2,B|392:264,1,105
256,192,143980,12,8,144730
256,192,145230,5,4
256,192,145980,12,8,146730
256,192,147230,5,4
392,200,147730,6,0,B|392:56,1,140
320,56,148480,1,0
248,56,148730,1,0
176,56,148980,1,0
104,56,149230,1,0
104,56,149480,1,0
104,128,149730,1,0
104,200,149980,1,0
104,272,150230,1,0
176,272,150480,1,0
248,272,150730,1,0
320,272,150980,1,0
392,272,151230,2,6,B|192:272|192:88|-40:272|24:32|312:8|24:40,1,560
256,192,154480,12,0,155730
72,320,156980,5,4
280,320,157730,1,4
416,320,158230,1,4
416,176,158730,1,4
416,104,158980,1,2
344,104,159230,1,4
472,40,160980,5,4
472,248,161730,1,4
328,248,162230,1,4
192,248,162730,1,4
192,176,162980,1,2
192,248,163230,1,4
480,40,164980,5,4
480,248,165730,1,4
336,248,166230,1,4
264,248,166480,5,0
192,248,166730,1,0
120,248,166980,2,0,B|120:176,1,70
192,176,167480,1,0
120,176,167730,1,0
88,120,167980,5,2
88,120,168230,1,8
88,120,168480,1,2
160,120,168730,5,2
160,120,168980,1,8
160,120,169230,1,4
232,120,169480,5,2
232,120,169730,1,8
232,120,169980,1,2
304,120,170230,5,2
304,120,170480,1,8
304,120,170730,1,2
256,192,171480,12,4,172980
