osu file format v5

[General]
AudioFilename: 11 - Dark Side ni Tsuitekite.mp3
AudioLeadIn: 1026
PreviewTime: 49360
Countdown: 1
SampleSet: Normal
StackLeniency: 0.7
Mode: 0
LetterboxInBreaks: 1
EditorBookmarks: 73980,75230,153229

[Metadata]
Title:Dark Side ni Tsuitekite
Artist:Makino Yui
Creator:Real1
Version:Hard
Source:
Tags:

[Difficulty]
HPDrainRate:7
CircleSize:5
OverallDifficulty:7
SliderMultiplier:1.4
SliderTickRate:2

[Events]
//Background and Video events
0,0,"1160609433292.jpg"
//Break Periods
2,15180,16830
2,87430,102830
//Storyboard Layer 0 (Background)
//Storyboard Layer 1 (Failing)
//Storyboard Layer 2 (Passing)
//Storyboard Layer 3 (Foreground)
//Storyboard Sound Samples
//Background Colour Transformations
3,100,163,162,255

[TimingPoints]
1230.69079943379,500,4,1,0,61,1
61480,-100,4,1,0,61,0
70729,-100,4,2,0,51,0
80979,-100,4,1,0,61,0
156729,-100,4,2,0,50,0
166396,-100,4,1,0,61,0

[Colours]
Combo1 : 233,233,233
Combo2 : 255,128,64
Combo3 : 255,255,179
Combo4 : 180,103,103

[HitObjects]
256,192,1230,1,0
256,192,1480,1,0
256,192,1730,1,4
256,48,2230,1,0
256,120,2480,1,0
256,192,2730,1,4
256,328,3230,5,0
328,328,3480,1,0
400,328,3730,1,0
472,328,3980,1,0
472,256,4230,1,0
472,184,4480,1,0
472,112,4730,1,4
168,119,5230,5,0
240,119,5480,1,0
312,119,5730,1,4
312,119,6230,1,0
240,119,6480,1,0
168,119,6730,1,4
168,336,7230,5,0
168,264,7480,1,0
168,336,7730,1,0
168,264,7980,1,0
168,336,8230,1,0
168,264,8480,1,0
168,192,8730,1,4
400,192,9230,5,0
328,192,9480,1,0
256,192,9730,1,4
112,192,10230,1,0
112,120,10480,1,0
112,192,10730,1,4
472,40,11230,5,0
400,40,11480,1,0
328,40,11730,1,0
256,40,11980,1,0
184,40,12230,1,0
112,40,12480,1,0
40,40,12730,1,4
48,176,13230,5,0
120,176,13480,1,2
120,176,13730,1,2
192,176,13980,1,0
192,176,14105,1,0
192,176,14230,1,0
264,176,14480,1,2
264,176,14730,1,2
336,176,14980,1,4
40,344,17730,5,0
112,344,17980,1,0
184,344,18230,1,0
256,344,18480,1,0
328,344,18730,1,0
400,344,18980,1,0
472,344,19230,6,2,B|472:272,1,70
472,200,19730,2,2,B|472:104,1,70
472,130,20230,2,2,B|390:130,1,70
402,130,20730,2,0,B|402:219,2,70,0|0|0
402,57,21480,1,2
402,57,21730,1,2
402,57,21980,1,2
405,263,22730,5,0
335,266,22980,1,0
265,266,23230,1,4
265,266,23730,1,0
265,196,23980,1,0
265,126,24230,1,4
68,192,24730,5,0
68,192,25230,1,4
64,56,25730,5,0
133,58,25980,1,0
202,56,26230,1,0
275,56,26480,2,0,B|358:56,1,70
415,56,26980,2,2,B|415:132,1,70
415,126,27480,2,2,B|331:126,1,70
415,126,27980,6,2,B|415:208,1,70
415,266,28480,1,0
415,336,28730,1,0
415,266,28980,1,0
344,265,29230,1,0
272,265,29480,1,0
128,265,29980,1,4
72,64,30730,5,0
72,64,30980,1,0
72,64,31230,1,4
208,64,31730,1,0
280,64,31980,1,0
352,64,32230,1,4
352,200,32730,5,0
352,200,32980,1,0
352,200,33230,1,4
256,304,33730,6,0,B|184:304,1,70
112,304,34230,1,0
112,232,34480,1,0
112,160,34730,1,0
112,88,34980,1,0
184,88,35230,1,0
256,88,35480,2,2,B|256:256,1,140
256,296,36230,2,2,B|344:296,1,70
445,142,36980,5,0
445,142,37105,1,0
445,142,37230,1,0
445,142,37480,2,2,B|269:142,1,140
160,296,38730,5,0
296,296,39230,1,0
432,296,39730,1,0
432,296,39855,1,0
432,296,39980,1,0
432,224,40230,1,4
432,80,40730,5,0
288,80,41230,1,4
40,40,41730,5,0
40,112,41980,2,0,B|40:184,1,70
40,182,42480,2,0,B|264:183,1,210
456,192,43980,5,8
456,192,44230,1,8
456,192,44480,1,8
120,296,45730,5,0
120,224,45980,1,0
120,152,46230,1,0
120,80,46480,1,0
256,80,46980,5,0
328,80,47230,1,0
256,80,47480,1,0
256,152,47730,1,0
256,224,47980,1,0
256,152,48230,2,2,B|256:80,1,70
256,82,48730,1,0
256,82,48980,1,4
256,288,49730,5,0
328,288,49980,1,0
400,288,50230,1,4
408,144,50730,1,0
336,144,50980,1,0
264,144,51230,1,4
264,280,51730,5,0
192,280,51980,1,0
120,280,52230,1,0
120,280,52355,1,0
120,280,52480,1,0
48,280,52730,1,4
48,208,52980,1,4
48,136,53230,1,4
256,192,53730,6,0,B|368:192,1,70
184,192,54480,1,0
296,104,54980,5,0
296,176,55230,1,0
296,176,55480,1,0
296,248,55730,1,0
368,248,55980,1,0
440,248,56230,1,0
440,248,56480,1,0
440,320,56730,2,2,B|320:320,1,70
370,320,57230,1,0
368,248,57480,1,4
256,192,57980,12,0,58730
256,192,58980,5,8
256,192,59105,1,8
256,192,59230,1,8
256,192,59980,12,0,60730
256,192,60980,5,8
256,192,61105,1,8
256,192,61230,1,8
272,304,61730,5,0
200,304,61980,1,0
128,304,62230,1,0
128,232,62480,1,0
128,160,62730,1,0
128,88,62980,1,0
128,88,63230,6,2,B|272:88,1,140
336,88,63980,1,0
336,88,64230,1,0
336,88,64480,1,0
336,88,64730,1,4
336,88,64980,1,6
336,88,65230,2,6,B|448:488|560:-8|48:80|32:336,1,630
456,40,68480,6,2,B|352:136,1,140
304,184,69230,1,2
240,216,69480,1,2
240,216,69605,1,2
240,216,69730,6,0,B|408:216,1,140
448,48,70980,5,4
344,232,71730,1,4
344,304,71980,1,2
344,304,72105,1,2
344,304,72230,1,4
272,280,72480,1,0
208,256,72730,1,4
152,216,72980,1,4
152,136,73230,5,8
224,136,73480,1,8
440,320,73980,6,2,B|376:264,1,70
336,224,74480,1,2
336,224,74730,1,2
288,176,74980,2,6,B|232:112,1,70
120,168,75730,5,4
216,64,76230,1,4
288,64,76480,1,2
360,64,76730,1,6
360,136,76980,1,2
360,208,77230,1,4
80,192,78230,6,2,B|176:192,1,70
150,192,78730,1,6
216,192,78980,5,4
424,192,79730,1,4
288,232,80230,1,4
216,192,80480,5,4
144,192,80730,1,2
280,192,81230,1,4
280,192,81480,1,0
424,192,81980,5,2
424,192,82105,1,2
424,192,82230,1,2
424,120,82480,1,8
352,120,82730,5,2
352,120,82855,1,2
352,120,82980,1,2
280,120,83230,1,8
232,176,83480,5,2
232,176,83605,1,2
232,176,83730,1,2
192,232,83980,1,8
136,184,84230,5,2
136,184,84355,1,2
136,184,84480,1,2
88,128,84730,1,8
256,192,85480,12,4,87230
56,320,103730,6,2,B|56:176,1,140
56,112,104480,1,0
56,112,104730,1,0
128,112,104980,1,2
128,112,105230,1,2
128,112,105480,1,2
264,112,105980,6,0,B|336:112,1,70
334,112,106480,2,0,B|334:192,1,70
334,182,106980,1,0
335,112,107230,2,0,B|431:112,1,70
472,112,107730,1,2
472,112,107980,1,2
272,192,108730,5,0
128,192,109230,1,0
128,192,109480,1,0
128,48,109980,1,0
128,48,110230,1,0
128,48,110480,1,0
168,104,110730,1,0
208,160,110980,1,0
248,216,111230,1,4
328,328,111730,6,2,B|456:216,1,140
312,160,112480,1,0
256,112,112730,1,0
256,112,112980,1,0
184,112,113230,2,2,B|184:208,1,70
184,248,113730,1,0
184,248,113980,1,0
184,320,114230,5,0
112,320,114480,1,0
40,320,114730,2,2,B|40:248,1,70
40,250,115230,2,2,B|128:250,1,70
180,250,115730,1,0
110,250,115980,1,4
320,248,116730,5,0
456,248,117230,1,0
457,108,117730,1,2
457,108,117980,1,2
457,108,118230,2,2,B|332:110,1,105
351,109,118730,1,0
351,109,118855,1,0
351,109,118980,1,0
281,111,119230,1,4
176,208,119730,5,0
120,168,119980,1,0
64,128,120230,1,0
64,128,120480,1,0
64,56,120730,2,2,B|208:56,1,140
272,56,121480,1,0
373,159,121980,1,0
373,159,122230,1,0
373,231,122480,1,4
200,192,122980,6,2,B|128:192,1,70
128,120,123480,2,2,B|208:120,1,70
200,192,123980,1,4
48,336,124730,5,0
48,264,124980,1,0
48,192,125230,1,4
48,192,125730,1,0
48,264,125980,1,0
48,336,126230,1,4
184,336,126730,5,0
256,336,126980,1,0
328,336,127230,1,4
328,200,127730,6,0,B|328:48,1,140
328,60,128480,2,0,B|214:60,1,70
187,61,128980,2,2,B|187:216,1,140
187,341,129980,1,0
257,341,130230,1,0
186,339,130480,1,4
472,344,131730,6,2,B|472:166,1,140
472,136,132480,1,0
328,136,132980,5,0
256,136,133230,1,0
184,136,133480,2,2,B|184:232,1,70
184,64,134230,6,2,B|288:64,1,70
320,64,134730,1,4
320,64,134980,1,4
320,272,135730,5,4
320,272,135980,1,4
112,272,136730,1,4
112,200,136980,1,4
320,200,137730,1,0
320,56,138230,1,0
320,56,138355,1,0
320,56,138480,1,0
320,56,138605,2,4,B|256:56,1,35
112,280,139730,6,2,B|288:136,1,210
416,147,140980,2,2,B|416:235,1,70,2|2
416,280,141480,1,4
288,328,141980,6,0,B|136:328,1,140
80,328,142730,1,0
80,256,142980,1,0
80,256,143105,1,0
80,256,143230,1,0
80,256,143480,2,2,B|80:128,1,70
256,192,143980,12,4,144730
256,192,145230,5,8
256,192,145355,1,8
256,192,145480,1,8
256,192,145980,12,4,146730
256,192,147230,5,8
256,192,147355,1,8
256,192,147480,1,8
256,264,147730,5,0
328,264,147980,1,0
400,264,148230,1,0
400,264,148480,2,2,B|400:120,1,140
400,56,149230,1,0
328,56,149480,1,0
400,56,149730,1,0
328,56,149980,1,0
328,128,150230,1,0
328,200,150480,1,0
328,128,150730,1,0
328,128,150980,1,0
328,128,151230,2,2,B|136:216|328:-8|320:-8|208:168|0:168|40:344,1,490
48,48,154480,5,0
48,48,154605,1,0
48,48,154730,1,0
96,96,154980,2,2,B|184:192,1,70
143,147,155480,1,0
212,150,155730,6,2,B|300:150,1,70
348,150,156230,1,4
40,336,156980,5,4
416,336,157730,1,4
415,74,158230,1,4
160,72,158730,1,4
160,200,158980,1,0
160,328,159230,1,4
256,192,159980,12,4,160980
328,280,161730,5,4
320,24,162230,1,4
72,80,162730,1,4
168,160,162980,1,2
264,240,163230,1,4
256,192,163980,12,4,164980
64,192,165730,5,4
312,192,166230,1,4
314,122,166480,5,4
383,123,166730,1,2
385,190,166980,5,4
385,190,167230,1,0
385,190,167480,1,0
385,190,167730,1,0
384,256,167980,5,2
384,256,168105,1,2
384,256,168230,1,2
314,258,168480,1,8
244,257,168730,5,2
244,257,168855,1,2
244,257,168980,1,2
174,257,169230,1,8
104,260,169480,5,2
104,260,169605,1,2
104,260,169730,1,2
104,190,169980,1,8
105,120,170230,5,2
105,120,170355,1,2
105,120,170480,1,2
174,121,170730,1,8
240,320,171480,5,8
240,248,171730,1,8
240,176,171980,1,8
240,248,172230,1,8
256,192,172480,12,4,173230
