osu file format v5

[General]
AudioFilename: 11 - Dark Side ni Tsuitekite.mp3
AudioLeadIn: 1026
PreviewTime: -1
Countdown: 1
SampleSet: Normal
StackLeniency: 0.7
Mode: 0
LetterboxInBreaks: 1
EditorBookmarks: 153229

[Metadata]
Title:Dark Side ni Tsuitekite
Artist:Makino Yui
Creator:Real1
Version:Easy
Source:
Tags:

[Difficulty]
HPDrainRate:5
CircleSize:3
OverallDifficulty:4
SliderMultiplier:1.4
SliderTickRate:1

[Events]
//Background and Video events
0,0,"1160609433292.jpg"
//Break Periods
2,15185,16416
2,49185,52416
//Storyboard Layer 0 (Background)
//Storyboard Layer 1 (Failing)
//Storyboard Layer 2 (Passing)
//Storyboard Layer 3 (Foreground)
//Storyboard Sound Samples
//Background Colour Transformations
3,100,163,162,255

[TimingPoints]
1230.69079943379,500,4,1,0,71,1
70729,-100,4,2,0,70,0
80979,-100,4,1,0,71,0

[Colours]
Combo1 : 233,233,233
Combo2 : 255,128,64
Combo3 : 255,255,179
Combo4 : 180,103,103

[HitObjects]
56,192,1230,1,0
168,192,1730,1,2
280,192,2230,1,2
392,192,2730,1,2
392,192,3230,5,0
280,192,3730,1,2
168,192,4230,1,2
56,192,4730,1,2
56,304,5230,6,2,B|384:304,1,280
338,191,6730,1,2
339,79,7230,1,2
231,79,7730,2,0,B|188:185|139:11|143:182|153:319,1,280
264,308,9230,5,0
376,308,9730,1,2
376,196,10230,1,2
373,83,10730,1,2
263,82,11230,1,0
408,56,13230,6,2,B|408:224,1,140
295,199,14230,2,4,B|47:71,1,210
64,64,17730,6,2,B|352:64,1,280
456,64,19230,1,0
456,176,19730,1,0
456,288,20230,1,0
344,288,20730,1,0
232,288,21230,1,0
120,288,21730,2,2,B|120:216,2,70
120,176,22730,5,0
232,176,23230,1,0
344,176,23730,1,2
344,176,24230,1,2
232,176,24730,1,2
120,176,25230,1,2
232,176,25730,6,2,B|376:176,1,140
304,264,26730,2,8,B|304:352,5,70
192,336,28480,6,0,B|-120:192|320:40,1,490
408,72,30730,5,0
408,184,31230,1,0
408,296,31730,1,2
296,296,32230,1,2
184,296,32730,1,2
72,296,33230,1,0
72,184,33730,6,0,B|224:184,1,140
320,184,34730,2,2,B|472:184,1,140
464,72,35730,2,4,B|168:72,1,280
184,184,37230,6,0,B|184:280,3,70
352,280,38730,5,0
352,168,39230,2,2,B|200:168,1,140
212,280,40230,1,0
320,280,40730,2,0,B|480:280,1,140
472,168,41730,6,2,B|200:168,1,210
152,168,42980,1,4
376,168,43980,6,2,B|376:248,2,70
443,64,45480,6,2,B|317:64,1,70
260,64,46230,2,2,B|157:64,1,70
78,68,46980,2,2,B|78:196,1,70
78,250,47730,2,0,B|230:250,1,140
329,251,48730,2,2,B|401:251,1,70
256,192,53730,6,2,B|256:48,1,140
144,56,54730,2,2,B|144:208,1,140
144,304,55730,1,0
256,304,56230,1,0
368,304,56730,1,0
368,192,57230,1,2
368,80,57730,1,2
256,192,57980,12,4,60730
48,328,61730,5,0
48,216,62230,1,0
48,104,62730,1,0
160,104,63230,2,2,B|264:104,6,70
256,192,64980,12,4,67730
40,40,68480,6,0,B|336:248,1,350
48,48,70980,6,4,B|640:-16|64:336,1,630
296,320,73980,6,0,B|376:320,5,70
128,80,76730,6,2,B|472:80,1,280
408,192,78230,6,4,B|320:192,1,70
144,256,78980,6,0,B|528:376|448:64,1,490
336,48,81230,6,2,B|248:48,1,70
152,48,81980,6,0,B|152:120,11,70
256,192,85480,12,4,86980
