osu file format v5

[General]
AudioFilename: 04 Long Dream.mp3
AudioLeadIn: 17000
PreviewTime: -1
Countdown: 1
SampleSet: Normal
EditorBookmarks: 7784,66859,77936,114858,133319,170241,177625

[Metadata]
Title:Long Dream
Artist:Makiko Noda
Creator:awp
Version:Hush The Noise

[Difficulty]
HPDrainRate:6
CircleSize:5
OverallDifficulty:7
SliderMultiplier:1.4
SliderTickRate:2

[Events]
//Break Periods
2,67059,76496
2,115058,131879

[TimingPoints]
384,461.525168200001,4,1,0,100

[HitObjects]
256,80,7768,1,0
304,80,7999,1,0
352,80,8229,1,0
400,80,8460,1,0
448,80,8691,1,0
448,128,8922,1,0
448,176,9152,1,4
448,224,9383,1,4
448,272,9614,6,0,C|304:272,1,140
224,240,10537,2,4,C|224:96,1,140
96,128,11460,5,0
96,176,11691,1,0
96,224,11922,1,0
96,272,12152,1,0
96,320,12383,1,0
144,320,12614,1,0
192,320,12845,1,4
240,320,13075,1,4
288,320,13306,2,0,C|385:196,1,140
372,69,14229,2,4,C|374:209,1,140
256,176,15152,6,0,C|256:96,2,70
208,176,15845,1,0
160,176,16075,1,0
112,176,16306,1,2
144,64,16768,1,0
144,64,16998,1,0
192,96,17229,1,0
240,128,17460,1,0
288,160,17691,1,0
336,192,17921,1,2
384,224,18152,1,2
336,192,18383,1,2
240,224,18845,5,0
192,256,19076,1,0
240,288,19307,1,0
288,256,19537,1,2
345,256,19768,1,0
400,256,19998,2,0,C|399:112,1,140
448,112,20691,1,0
400,80,20921,1,0
352,112,21152,1,0
304,112,21383,1,2
256,112,21614,1,2
208,112,21844,2,2,C|64:112,1,140
64,160,22537,5,0
64,208,22767,1,0
64,256,22998,1,0
64,304,23229,2,0,C|224:304,2,140
80,256,24383,2,0,C|160:256,1,70
192,256,24844,1,0
240,256,25075,1,0
192,176,25537,1,4
192,128,25767,1,4
352,112,26229,5,0
400,144,26460,1,0
352,160,26690,1,0
400,192,26921,1,0
352,208,27152,1,0
400,240,27383,1,0
352,256,27613,1,0
400,288,27844,1,0
352,304,28075,1,0
400,336,28306,2,0,L|256:337|255:264,1,210
256,192,29460,5,0
256,192,29690,1,0
256,192,29921,12,0,30383
256,192,30844,5,4
256,192,31075,1,4
256,192,31767,12,0,32229
256,192,32690,1,4
256,192,32921,1,4
256,192,33613,12,0,34075
256,192,34536,1,4
256,192,34767,1,4
256,192,35459,1,0
288,80,36382,1,4
224,80,36613,1,4
256,192,37306,5,0
256,192,37536,5,0
256,192,37767,5,0
187,120,38229,6,2,C|260:42|333:140,1,210
256,192,39382,1,2
256,192,39613,1,2
184,273,40075,2,2,C|258:344|351:256,1,210
256,192,41228,1,2
256,192,41459,1,2
96,96,41921,6,0,C|160:96,1,70
240,96,42382,2,0,C|272:128,1,70
352,160,42844,2,0,C|416:160,1,70
432,224,43305,2,0,C|368:256,1,70
301,254,43767,2,4,C|269:190,1,70
256,128,44228,2,4,C|256:64,2,70
256,192,45151,5,0
128,192,45613,6,2,C|45:252|137:324,2,210
192,192,47228,1,0
256,192,47459,2,2,C|332:112|242:51,2,210
256,256,49074,1,0
256,320,49305,1,0
256,256,49536,1,0
304,128,49997,2,0,L|304:176,1,70
336,256,50459,2,0,C|400:256,1,70
400,192,50921,2,0,C|352:128,1,70
304,96,51382,1,4
256,144,51613,1,4
208,96,51844,1,4
160,144,52074,1,4
256,192,52536,5,4
144,128,52997,1,0
144,192,53228,1,0
144,320,53690,1,2
192,320,53920,1,2
240,320,54151,1,4
288,320,54382,1,4
448,320,54843,1,0
448,256,55074,1,0
448,128,55536,2,2,C|384:128,1,70
320,160,55997,1,4
256,128,56228,1,4
144,144,56690,5,0
144,144,56920,1,0
176,192,57151,1,0
208,240,57382,1,0
240,288,57613,1,2
352,224,58074,1,0
416,192,58305,1,0
336,160,58536,1,2
400,128,58766,1,2
336,96,58997,1,2
400,64,59228,1,2
336,32,59459,2,2,L|224:32|224:80,1,140
96,176,60382,5,0
96,176,60613,1,0
160,208,60843,1,0
224,176,61074,1,0
288,208,61305,1,0
352,176,61536,1,4
416,208,61766,1,4
432,304,62228,5,0
432,304,62459,1,0
368,272,62689,1,0
304,304,62920,1,0
240,272,63151,1,0
176,304,63382,1,4
112,272,63612,1,4
256,192,64074,12,0,66843
256,64,77920,5,0
256,64,78150,1,0
256,128,78381,1,0
256,192,78612,2,4,C|256:272,1,70
256,320,79074,1,4
368,320,79535,1,4
432,320,79766,5,0
432,320,79997,1,0
432,256,80227,1,0
432,192,80458,2,4,B|432:112,1,70
432,64,80920,1,4
432,64,81150,1,4
288,64,81612,6,0,B|224:112,1,70
160,112,82073,2,4,B|96:80,1,70
48,128,82535,1,2
48,192,82766,1,2
48,256,82997,1,2
112,256,83227,1,0
176,272,83458,1,0
240,304,83689,6,2,B|304:240,1,70
352,256,84150,2,2,B|416:320,1,70
464,272,84612,1,4
416,224,84843,1,4
480,192,85073,1,4
464,128,85304,6,2,B|368:80|368:80|288:144|224:112,1,210
144,80,86458,1,4
192,128,86689,1,4
144,80,86919,1,4
112,144,87150,6,2,B|64:240|64:240|128:320|96:384,1,210
240,320,88304,1,4
288,272,88535,1,4
240,320,88766,1,4
224,256,88996,6,2,B|160:208,2,70
168,214,89689,6,2,B|187:141|288:176,2,140
240,240,90842,5,0
240,240,91073,1,0
288,288,91304,1,0
352,288,91535,1,0
416,272,91765,1,0
416,208,91996,1,0
352,192,92227,1,0
288,192,92457,1,0
256,192,92688,12,0,93150
256,192,93611,5,0
256,192,93842,1,0
256,192,94534,12,0,94996
256,192,95457,1,0
256,192,95688,1,0
256,192,96380,12,0,96842
256,192,97303,1,0
256,192,97534,1,0
256,192,98226,1,4
256,192,98688,12,0,100534
160,96,100996,6,2,B|202:113|176:188|176:188|259:166|251:253,1,210
256,320,102150,1,2
256,320,102265,1,2
256,320,102381,5,6
352,96,102842,6,2,B|310:113|336:188|336:188|253:166|261:253,1,210
256,320,103996,1,2
256,320,104111,1,2
256,320,104227,5,6
96,192,104688,6,0,C|96:112,1,70
208,64,105380,2,0,C|288:64,1,70
320,112,105842,1,0
320,176,106073,1,0
288,240,106304,2,0,C|192:240,1,70
160,208,106765,1,2
160,144,106996,1,2
224,144,107227,1,2
224,208,107457,1,2
368,176,107919,5,4
320,304,108380,5,0
256,304,108611,1,0
128,256,109073,1,0
128,128,109534,1,0
128,128,109650,1,0
128,128,109765,1,4
256,192,110226,5,0
320,192,110457,1,0
256,64,110919,1,0
384,128,111380,1,0
384,128,111496,1,0
384,128,111611,1,4
384,272,112073,1,0
320,272,112303,1,0
256,176,112765,5,0
304,208,112996,1,0
304,272,113226,1,0
256,304,113457,1,0
208,272,113688,1,0
208,208,113919,1,0
256,176,114149,1,0
255,241,114380,5,4
255,241,114611,5,4
255,241,114726,1,4
255,241,114842,1,4
128,64,133303,5,0
192,64,133534,2,4,B|192:112,2,35
256,64,133995,1,4
320,96,134226,1,0
256,128,134457,2,0,B|256:208,2,70
192,128,135149,5,0
128,128,135380,1,4
128,128,135495,1,4
128,128,135610,2,4,B|128:208,1,70
128,256,136072,2,0,B|224:256,3,70
272,256,136995,5,0
336,256,137226,1,4
336,256,137341,1,4
336,256,137456,1,4
400,256,137687,1,4
448,208,137918,1,0
400,160,138149,1,0
448,112,138380,1,0
400,64,138610,1,0
336,64,138841,5,0
272,64,139072,2,0,B|208:64,2,35
272,128,139533,2,0,B|272:176,2,35
272,64,139995,1,0
272,64,140110,1,0
272,64,140226,5,0
272,208,140687,5,4
272,352,141149,6,4,B|208:304,1,70
160,352,141610,1,0
96,304,141841,1,0
128,240,142072,2,0,B|64:176,2,70
192,208,142764,1,4
136,156,142995,1,4
192,208,143226,1,4
256,192,143456,5,0
320,192,143687,1,4
320,192,143802,1,4
320,192,143918,2,4,B|320:96,1,70
320,48,144379,5,2
320,48,144610,1,2
272,96,144841,1,4
208,48,145072,1,0
160,96,145302,1,0
96,48,145533,1,0
96,192,145995,5,2
96,192,146225,1,2
144,240,146456,1,2
192,192,146687,1,2
240,240,146918,1,2
288,192,147149,1,2
336,240,147379,2,4,B|384:176,1,70
304,64,148072,5,0
256,192,148533,5,4
144,256,148994,1,0
144,192,149225,1,0
144,64,149687,1,0
192,64,149917,1,0
240,64,150148,1,0
288,64,150379,1,4
448,64,150840,1,0
448,128,151071,1,4
448,256,151533,2,0,C|384:256,1,70
320,224,151994,1,0
256,256,152225,1,4
144,240,152687,5,0
144,240,152917,1,0
176,192,153148,1,4
208,144,153379,1,4
240,96,153610,1,0
352,160,154071,1,4
416,192,154302,1,0
336,224,154533,1,4
400,256,154763,1,0
336,288,154994,1,4
400,320,155225,1,4
336,352,155456,2,4,L|224:352|224:304,1,140
96,208,156379,5,0
96,208,156610,1,0
160,176,156840,1,4
224,208,157071,1,0
288,176,157302,1,0
352,208,157533,1,0
416,176,157763,1,4
432,80,158225,5,0
432,80,158456,1,0
368,112,158686,1,4
304,80,158917,1,0
240,112,159148,1,0
176,80,159379,1,0
112,112,159609,1,4
256,192,160071,12,0,162840
224,192,163302,1,0
288,192,163533,1,4
256,192,163763,12,4,164225
256,192,164686,1,0
256,160,165148,5,0
256,224,165379,1,4
256,192,165610,12,4,166071
256,192,166533,1,0
288,192,166994,5,0
224,192,167225,1,4
256,192,167456,12,4,167917
256,192,168379,1,0
256,224,168840,5,0
256,160,169071,1,4
256,112,169763,6,4,B|256:288,1,140
400,256,170686,1,2
400,192,170917,1,2
400,64,171609,6,4,B|256:64,1,140
112,64,172532,1,2
112,128,172763,1,2
128,336,173455,6,4,B|240:224,1,140
368,240,174378,1,2
320,192,174609,1,2
459,346,175302,6,4,B|363:234,1,140
233,168,176225,1,2
281,216,176455,1,2
256,192,176571,12,0,177609
