osu file format v5

[General]
AudioFilename: 04 Long Dream.mp3
AudioLeadIn: 0
PreviewTime: -1
Countdown: 1
SampleSet: Normal
StackLeniency: 0.7
Mode: 0
EditorBookmarks: 7784,66859,77936,114858,133319,170241,177625

[Metadata]
Title:Long Dream
Artist:Makiko Noda
Creator:awp
Version:Face The Noise

[Difficulty]
HPDrainRate:3
CircleSize:3
OverallDifficulty:3
SliderMultiplier:0.8
SliderTickRate:2

[Events]
//Background and Video events
//Break Periods
2,67059,76496
2,115058,131879
//Storyboard Layer 0 (Background)
//Storyboard Layer 1 (Failing)
//Storyboard Layer 2 (Passing)
//Storyboard Layer 3 (Foreground)
//Storyboard Sound Samples
//Background Colour Transformations
3,100,163,162,255
3,100,163,162,255
3,100,163,162,255
3,100,163,162,255
3,100,163,162,255
3,100,163,162,255
3,100,163,162,255
3,100,163,162,255
3,100,163,162,255
3,100,163,162,255
3,100,163,162,255
3,100,163,162,255
3,100,163,162,255
3,100,163,162,255
3,100,163,162,255
3,100,163,162,255
3,100,163,162,255
3,100,163,162,255
3,100,163,162,255
3,100,163,162,255
3,100,163,162,255
3,100,163,162,255
3,100,163,162,255
3,100,163,162,255
3,100,163,162,255
3,100,163,162,255
3,100,163,162,255
3,100,163,162,255
3,100,163,162,255
3,100,163,162,255
3,100,163,162,255
3,100,163,162,255
3,100,163,162,255
3,100,163,162,255
3,100,163,162,255
3,100,163,162,255
3,100,163,162,255
3,100,163,162,255
3,100,163,162,255
3,100,163,162,255
3,100,163,162,255
3,100,163,162,255
3,100,163,162,255
3,100,163,162,255
3,100,163,162,255
3,100,163,162,255
3,100,163,162,255
3,100,163,162,255
3,100,163,162,255
3,100,163,162,255
3,100,163,162,255
3,100,163,162,255
3,100,163,162,255
3,100,163,162,255
3,100,163,162,255
3,100,163,162,255
3,100,163,162,255
3,100,163,162,255
3,100,163,162,255
3,100,163,162,255
3,100,163,162,255
3,100,163,162,255
3,100,163,162,255
3,100,163,162,255
3,100,163,162,255
3,100,163,162,255
3,100,163,162,255
3,100,163,162,255
3,100,163,162,255
3,100,163,162,255
3,100,163,162,255
3,100,163,162,255
3,100,163,162,255
3,100,163,162,255

[TimingPoints]
384,461.525168200001,4,1,0,100

[HitObjects]
256,80,7768,1,0
448,80,8691,1,4
256,80,9614,1,0
64,80,10537,1,4
160,224,11460,2,2,B|239:298|352:192,1,160
352,112,13306,2,2,B|448:112|448:240,1,160
384,304,15152,5,0
176,304,16075,1,0
272,112,16998,1,0
272,112,17460,1,0
272,112,17921,1,4
272,112,18383,1,4
272,112,18845,5,0
80,192,19768,1,0
288,192,20691,2,2,B|432:192|432:128,2,160
256,64,23460,5,4
48,80,24383,1,0
80,288,25306,2,4,B|208:288,1,80
256,288,26229,1,0
448,192,27152,1,4
240,192,28075,1,0
192,48,28998,1,0
80,48,29460,1,0
112,144,29921,6,2,B|252:278|416:128,4,320
128,64,38229,5,0
208,128,38690,1,0
288,64,39152,1,0
448,208,40075,1,0
448,304,40536,1,0
336,304,40998,1,0
128,304,41921,1,0
48,240,42382,1,0
128,176,42844,1,0
48,112,43305,1,0
128,48,43767,1,4
128,48,44228,1,4
224,48,44690,6,0,B|320:48,2,80
304,176,46536,2,0,B|224:176,2,80
240,320,48382,2,0,B|320:320,2,80
80,240,50228,1,0
80,128,50690,1,0
128,192,51151,1,2
32,192,51613,1,2
80,128,52074,6,4,B|208:128,1,80
256,128,52997,2,4,B|256:176,1,80
352,208,53920,2,4,B|400:208,1,80
432,112,54843,2,4,B|432:96,1,80
320,32,55767,2,4,B|272:80,1,80
192,112,56690,2,4,B|144:64,1,80
48,96,57613,1,0
48,192,58074,1,0
144,192,58536,2,4,B|240:192,1,80
256,304,59920,5,4
256,96,60843,1,4
432,192,61766,1,4
256,192,62689,1,4
80,192,63612,1,4
256,192,64074,12,0,66843
256,80,77920,5,0
256,176,78381,1,0
352,128,78843,1,2
80,144,79766,1,0
160,208,80227,1,0
80,272,80689,1,2
288,288,81612,6,0,B|352:224,1,80
416,160,82535,1,2
224,80,83458,2,0,B|160:144,1,80
96,208,84381,1,2
256,288,85304,6,0,B|256:192,1,80
256,112,86227,2,0,B|256:32|400:32,1,160
400,128,87612,2,0,B|400:192,1,80
192,240,88996,2,0,B|192:160,1,80
96,144,89919,2,0,B|96:48|208:48,1,160
288,96,91304,1,0
256,192,91765,5,4
256,192,92227,5,4
256,192,92689,12,0,99150
142,77,100996,6,2,B|270:205,1,160
368,77,102842,2,2,B|224:221,1,160
49,272,104688,2,2,C|113:196|193:272|273:160,1,320
352,160,106996,1,2
96,80,108380,6,0,C|208:80,1,80
272,80,109303,1,4
368,80,109765,1,4
368,176,110226,2,0,C|224:176,1,80
176,176,111150,1,4
64,176,111611,1,4
64,272,112073,2,0,C|128:272,1,80
240,272,112996,2,4,C|240:208,4,80
128,96,133303,5,0
224,96,133764,1,4
320,96,134226,2,2,C|368:164|320:256,1,160
224,240,135610,1,4
112,230,136072,2,2,C|80:164|128:96,1,160
224,96,137457,1,4
384,304,138841,5,0
272,304,139303,1,0
160,304,139764,2,0,C|160:272,4,40
112,96,141610,6,2,C|288:96,1,160
304,208,143456,2,2,C|112:208,1,160
366,160,145302,2,2,C|439:160|439:249|359:249,1,240
256,208,147149,1,2
144,208,147610,1,2
48,208,148072,6,4,C|48:128,1,80
128,80,148995,2,4,C|192:80,1,80
288,144,149918,2,4,C|336:96,1,80
448,112,150841,2,4,C|384:176,1,80
384,272,151764,2,4,C|304:272,1,80
192,272,152687,2,4,C|192:192,1,80
160,96,153610,2,4,C|256:96,3,80
336,96,155456,5,0
336,192,155917,1,4
128,144,156841,1,0
48,96,157302,1,0
48,192,157764,1,4
256,144,158687,1,0
208,240,159148,1,0
304,240,159610,1,4
256,32,160533,1,0
256,32,160763,2,0,C|256:176,1,120
208,224,161917,2,0,C|304:224,9,80
256,192,166533,12,0,177609
