osu file format v5

[General]
AudioFilename: 04 Long Dream.mp3
AudioLeadIn: 17000
PreviewTime: -1
Countdown: 1
SampleSet: Normal
EditorBookmarks: 7784,66859,77936,114858,133319,170241,177625

[Metadata]
Title:Long Dream
Artist:Makiko Noda
Creator:awp
Version:Erase The Noise

[Difficulty]
HPDrainRate:4
CircleSize:4
OverallDifficulty:5
SliderMultiplier:1.1
SliderTickRate:2

[Events]
//Background and Video events
//Break Periods
2,67059,76496
2,115058,131879
//Storyboard Layer 0 (Background)
//Storyboard Layer 1 (Failing)
//Storyboard Layer 2 (Passing)
//Storyboard Layer 3 (Foreground)
//Storyboard Sound Samples
//Background Colour Transformations
3,100,163,162,255

[TimingPoints]
384,461.525168200001,4,1,0,100

[HitObjects]
256,80,7768,1,0
352,80,8229,1,0
448,80,8691,1,4
256,192,9614,1,0
160,192,10076,1,0
64,192,10537,1,4
288,336,11460,2,0,B|336:336|336:208,1,110
208,224,12383,1,4
208,96,12845,1,0
336,96,13306,2,0,B|400:96|400:208,1,110
384,304,14229,1,4
256,304,14691,1,6
256,176,15152,6,0,C|256:112,2,55
208,176,15845,1,0
80,176,16306,1,0
144,64,16768,1,0
144,64,16998,1,0
192,96,17229,1,0
240,128,17460,1,0
288,160,17691,1,0
400,240,18152,1,2
352,208,18383,1,2
224,224,18845,5,0
176,256,19076,1,0
224,288,19307,1,0
272,256,19537,1,0
400,256,19998,2,0,C|400:128,1,110
448,112,20691,1,0
400,80,20921,1,0
352,112,21152,1,0
400,144,21383,1,0
272,112,21844,1,2
144,112,22306,1,4
144,160,22537,5,0
144,208,22767,1,0
144,256,22998,1,0
144,304,23229,2,0,C|256:304,2,110
96,304,24383,2,0,C|64:304,1,55
64,176,25075,1,0
192,176,25537,1,4
256,176,25767,1,4
352,96,26229,5,0
400,128,26460,1,0
352,160,26690,1,0
400,192,26921,1,0
256,192,27383,1,2
128,192,27844,1,2
80,160,28075,1,0
128,128,28306,1,0
256,48,28998,6,0,C|320:48,1,55
384,48,29460,2,0,C|384:112,1,55
384,176,29921,2,2,C|304:176,1,55
128,176,30844,2,2,C|192:176,1,55
256,48,31767,2,2,C|256:96,1,55
256,320,32690,2,4,C|256:272,1,55
368,96,33613,1,2
320,144,33844,1,2
144,96,34536,1,2
192,144,34767,1,2
144,304,35459,1,2
192,256,35690,1,2
368,304,36382,1,4
320,256,36613,1,4
256,192,37306,5,4
128,192,37767,5,4
128,80,38229,6,2,C|213:57|320:80,2,165
192,192,40075,2,2,C|267:219|368:192,2,165
96,96,41921,2,0,C|144:96,1,55
288,96,42613,2,0,C|320:128,1,55
386,135,43075,2,0,C|386:87,1,55
448,80,43536,2,2,C|448:112,1,55
448,192,43998,2,2,C|416:224,1,55
384,288,44459,2,4,C|352:288,1,55
256,192,45151,5,4
128,192,45613,6,2,C|85:266|160:320,2,165
256,192,47459,2,2,C|299:118|224:64,2,165
128,192,49305,2,0,C|128:240,1,55
240,304,49997,2,0,C|304:304,1,55
304,240,50459,2,0,C|336:240,1,55
368,176,50921,2,2,C|432:176,1,55
432,112,51382,2,2,C|432:64,1,55
368,48,51844,2,4,C|336:48,1,55
256,192,52536,5,4
144,128,52997,1,0
144,192,53228,1,0
144,320,53690,2,4,C|288:320,1,110
448,320,54843,1,0
448,256,55074,1,0
448,128,55536,2,4,C|320:128,1,110
144,144,56690,5,0
144,144,56920,1,0
176,192,57151,1,0
208,240,57382,1,0
240,288,57613,1,0
352,224,58074,1,0
400,192,58305,1,0
320,96,58766,1,2
368,64,58997,1,2
320,32,59228,1,2
272,64,59459,2,4,C|144:64,1,110
96,176,60382,5,0
96,176,60613,1,0
144,176,60843,1,0
192,176,61074,1,0
320,176,61536,1,4
432,304,62228,1,0
432,304,62459,1,0
384,304,62689,1,0
336,304,62920,1,0
208,304,63382,1,4
256,192,64074,12,0,66843
256,80,77920,5,0
256,80,78150,1,0
256,128,78381,1,0
256,176,78612,2,2,C|256:288,1,110
128,288,79535,1,0
128,288,79766,1,0
128,240,79997,1,0
128,192,80227,1,0
128,144,80458,2,2,C|182:116|256:144,1,110
272,128,81150,1,2
400,128,81612,6,4,C|432:96,3,55
395,214,82766,1,0
272,256,83227,2,0,C|304:224,2,55
201,144,84150,2,2,C|329:144,1,110
256,272,85073,5,0
256,272,85304,1,0
208,240,85535,1,0
160,208,85766,1,0
112,176,85996,1,4
240,128,86458,1,4
352,80,86919,1,0
352,80,87150,1,0
384,128,87381,1,0
416,176,87612,1,0
448,224,87843,1,0
336,288,88304,2,4,C|288:240,1,55
64,240,88996,6,0,C|64:176,1,55
112,176,89458,2,0,C|112:240,1,55
240,240,90150,2,2,C|240:112,1,110
240,80,90842,2,0,C|272:80,1,55
176,192,91765,5,0
336,192,92227,5,0
256,192,92689,12,0,99150
142,77,100996,6,2,B|270:205,1,160
256,320,102150,1,2
368,77,102842,2,2,B|224:221,1,160
256,320,103996,1,2
96,192,104688,6,0,C|96:128,1,55
208,64,105380,2,0,C|256:64,1,55
304,112,105842,2,2,C|304:160,1,55
256,208,106304,2,2,C|192:208,1,55
160,160,106765,2,2,C|160:80,1,55
233,134,107457,1,4
233,134,107919,5,4
256,256,108380,5,0
256,256,108611,1,0
256,128,109073,1,4
128,128,109534,1,4
256,256,110226,1,0
256,256,110457,1,0
256,128,110919,1,4
384,128,111380,1,4
256,48,112073,1,0
256,48,112303,1,0
256,176,112765,5,0
304,208,112996,1,0
304,272,113226,1,0
256,304,113457,1,0
208,272,113688,1,0
208,208,113919,1,4
255,241,114380,5,4
176,128,133303,5,0
176,128,133534,1,0
224,128,133764,1,0
272,128,133995,1,0
272,192,134226,2,2,C|272:240,1,55
400,288,134918,1,0
400,160,135380,1,0
400,224,135610,1,0
272,192,136072,2,2,C|272:160,1,55
144,128,136764,1,0
144,256,137226,1,0
144,192,137456,1,0
256,272,137918,5,0
256,272,138149,1,0
256,224,138380,1,0
256,176,138610,1,0
256,128,138841,2,2,C|256:80,6,55
192,240,140687,5,4
320,240,141149,1,4
169,168,141610,6,2,C|345:168,1,160
256,64,142764,1,4
336,224,143456,2,2,C|144:224,1,160
256,336,144610,1,4
366,160,145302,2,0,C|418:181|418:235|359:249,1,165
256,192,146456,1,0
256,192,146687,1,0
208,192,146918,1,0
160,192,147149,1,0
112,192,147379,1,0
112,192,147610,1,4
32,272,148072,6,4,C|32:144,1,110
128,80,148995,2,4,C|240:80,1,110
224,208,149918,2,4,C|320:304,1,110
432,288,150841,2,4,C|432:176,1,110
320,112,151764,2,4,C|192:112,1,110
208,224,152687,2,2,C|208:144,3,55
192,32,154071,1,2
256,32,154302,1,2
256,192,154994,5,4
336,96,155456,5,0
336,144,155687,1,0
336,192,155917,1,4
128,144,156610,1,0
128,144,156841,1,4
48,96,157302,1,0
48,144,157533,1,0
48,192,157764,1,4
256,144,158456,1,0
256,144,158687,1,4
208,240,159148,1,0
256,240,159379,1,0
304,240,159610,1,4
432,240,160071,6,2,C|432:176,1,55
432,112,160533,1,2
359,112,160763,2,2,C|151:112,1,165
128,112,161687,1,4
128,176,161917,6,2,C|256:176,1,110
304,176,162610,1,4
304,240,162840,2,2,C|160:240,1,110
128,240,163533,1,4
128,304,163763,2,2,C|256:304,1,110
304,304,164456,1,4
304,240,164686,2,2,C|192:240,1,110
128,240,165379,1,4
128,176,165610,2,2,C|256:176,1,110
304,176,166302,1,4
256,192,166533,12,0,177609
