osu file format v5

[General]
AudioFilename: 04 Long Dream.mp3
AudioLeadIn: 17000
PreviewTime: -1
Countdown: 1
SampleSet: Normal
EditorBookmarks: 7784,66859,77936,114858,133319,170241,177625

[Metadata]
Title:Long Dream
Artist:Makiko Noda
Creator:awp
Version:Crush The Noise

[Difficulty]
HPDrainRate:7
CircleSize:6
OverallDifficulty:7
SliderMultiplier:1.9
SliderTickRate:2

[Events]
//Background and Video events
//Break Periods
2,67059,76496
2,115058,131879
//Storyboard Layer 0 (Background)
//Storyboard Layer 1 (Failing)
//Storyboard Layer 2 (Passing)
//Storyboard Layer 3 (Foreground)
//Storyboard Sound Samples
//Background Colour Transformations
3,100,163,162,255
3,100,163,162,255
3,100,163,162,255
3,100,163,162,255
3,100,163,162,255
3,100,163,162,255

[TimingPoints]
384,461.525168200001,4,1,0,100
98217,1846.15384615385,4,1,0,100
100986,461.525168200001,4,1,0,100

[HitObjects]
256,192,7768,1,0
256,192,7999,1,0
320,192,8229,1,0
320,192,8460,1,0
384,192,8691,1,0
384,128,8922,1,4
384,80,9037,1,4
384,128,9152,1,4
320,128,9383,1,4
256,128,9614,6,0,B|160:128,3,95
112,128,10537,1,0
112,192,10768,2,4,B|112:240,2,47.5
112,128,11229,1,4
176,128,11460,5,0
208,176,11691,1,0
272,176,11922,1,0
304,224,12152,1,0
368,224,12383,1,0
336,288,12614,1,4
368,288,12729,1,4
400,288,12845,1,4
368,352,13075,1,4
304,352,13306,6,0,B|208:352,1,95
160,352,13768,2,0,B|160:256,1,95
240,288,14229,2,0,B|240:192,1,95
240,192,14575,2,2,B|192:192,1,47.5
128,192,14922,1,2
128,128,15152,6,0,C|128:32,2,95
208,176,15845,1,0
160,176,16075,1,0
112,176,16306,1,4
112,208,16421,1,4
112,176,16537,1,4
48,176,16768,1,4
48,240,16998,5,0
48,240,17229,1,0
112,240,17460,1,0
112,240,17691,1,0
176,240,17921,1,0
240,240,18152,1,2
240,272,18268,1,2
240,304,18383,1,2
304,272,18614,1,4
240,224,18845,5,0
192,256,19076,1,0
240,288,19307,1,0
288,256,19537,1,0
345,256,19768,1,0
384,224,19998,1,4
384,256,20114,1,4
384,288,20229,2,4,B|448:288|464:240,2,95
384,352,20921,5,0
320,352,21152,1,0
320,288,21383,1,0
256,288,21614,5,2
224,320,21729,1,2
256,288,21844,1,2
192,288,22075,5,2
224,320,22191,1,2
192,288,22306,1,2
160,192,22537,6,2,B|352:192,1,190
416,192,23229,5,0
480,192,23460,6,2,B|492:72|384:48,1,190
320,48,24152,5,0
256,48,24383,6,2,B|143:48|193:112|64:112,1,190
80,176,25075,1,0
192,176,25537,1,4
192,128,25767,1,4
256,144,25998,1,4
256,144,26114,1,4
256,144,26229,6,2,B|256:336,1,190
320,336,26921,5,4
320,272,27152,6,2,B|320:80,1,190
384,80,27844,5,4
384,144,28075,6,2,B|384:336,1,190
448,336,28767,5,4
448,272,28998,6,0,B|448:80,2,190
384,272,30152,1,0
320,272,30383,1,0
320,304,30498,1,0
320,272,30613,1,0
256,272,30844,5,0
192,272,31075,1,0
128,272,31306,1,0
96,272,31421,1,0
128,272,31536,1,0
128,208,31767,5,0
192,208,31998,1,0
256,208,32229,1,0
288,208,32344,1,0
256,208,32459,1,0
272,144,32690,5,0
336,144,32921,1,0
400,144,33152,1,2
432,144,33267,1,2
400,144,33383,1,2
400,80,33613,6,0,B|304:80,1,95
240,80,34075,2,0,B|192:80,1,47.5
192,80,34306,1,0
256,192,34536,12,0,34998
256,192,35459,1,0
256,192,35575,1,0
256,192,35690,1,0
256,192,35806,12,0,36382
256,304,36844,1,2
256,272,36959,1,2
256,240,37075,1,2
256,192,37306,5,0
256,192,37536,5,0
256,192,37767,5,4
256,192,37998,5,4
208,144,38229,5,0
256,96,38459,1,0
304,144,38690,1,4
304,144,38805,1,4
304,144,38921,1,4
304,208,39152,5,0
256,256,39382,1,0
208,208,39613,1,4
208,208,39729,1,4
208,208,39844,1,4
184,273,40075,6,0,C|272:336,1,95
336,320,40536,1,2
368,352,40652,1,2
400,320,40767,1,2
400,256,40998,1,0
336,224,41228,1,0
256,192,41459,2,2,B|128:192|128:144|192:96,1,190
256,80,42152,2,2,B|368:80|432:192,1,190
416,240,42844,1,0
416,240,42959,1,0
416,240,43075,2,0,B|320:240,1,95
321,240,43421,1,0
321,240,43536,2,0,B|224:240,1,95
226,240,43882,1,0
226,240,43998,2,0,B|128:240,1,95
131,240,44344,1,0
131,240,44459,1,4
131,240,44575,1,4
131,240,44690,1,4
256,192,44805,12,0,45151
176,80,45613,2,2,B|301:80|301:80|302:175|176:176,1,285
256,192,46421,12,0,46998
176,128,47459,6,2,B|234:143|300:97,1,95
224,144,47921,2,2,B|224:192|208:240,1,95
256,192,48267,12,0,48844
176,128,49305,6,2,B|176:208|128:256,1,95
240,128,49997,2,2,B|224:224|224:224|264:249|336:192,1,190
336,144,50690,5,2
336,80,50921,1,2
400,112,51151,1,2
416,144,51267,1,2
400,112,51382,1,2
336,112,51613,5,4
304,112,51728,1,4
272,112,51844,1,4
304,112,51959,1,4
336,112,52074,1,4
256,192,52190,12,0,52536
112,112,52997,5,0
112,176,53228,1,0
112,176,53344,1,0
112,176,53459,1,0
112,240,53690,1,0
112,240,53805,1,0
112,240,53920,1,0
112,304,54151,1,4
112,304,54267,1,4
112,304,54382,1,4
240,304,54843,5,0
240,240,55074,1,0
272,240,55190,1,0
240,240,55305,1,0
240,176,55536,1,0
208,176,55651,1,0
240,176,55767,1,0
240,112,55997,1,4
272,112,56113,1,4
240,112,56228,1,4
352,48,56690,5,0
352,112,56920,1,0
398,136,57036,1,0
352,160,57151,1,0
352,224,57382,1,0
304,245,57497,1,0
352,272,57613,1,0
320,336,57843,1,0
352,368,57959,1,0
384,336,58074,1,0
448,336,58305,1,4
448,288,58421,1,4
448,240,58536,1,4
448,192,58652,1,4
448,144,58767,1,4
448,96,58882,1,4
448,48,58998,2,4,B|323:48|288:144,1,190
256,192,59920,5,4
128,192,60382,2,0,B|128:96,1,95
64,96,60843,2,0,B|32:192,1,95
32,256,61305,2,2,B|112:320,1,95
128,336,61651,1,2
160,320,61766,2,2,B|224:224,1,95
272,240,62228,6,0,B|272:128,1,95
272,80,62689,2,0,B|352:144,1,95
368,208,63151,2,2,B|368:304,1,95
384,320,63497,1,2
416,304,63612,2,2,B|464:208,1,95
464,144,64074,2,0,B|464:32,1,95
400,48,64535,2,0,B|288:48,1,95
256,192,64882,12,0,66843
304,64,77920,5,0
368,96,78150,1,0
304,128,78381,1,0
240,96,78612,2,4,C|176:96,1,47.5
80,96,79074,1,0
80,224,79535,1,0
144,224,79766,5,0
96,272,79997,1,0
144,304,80227,1,0
208,272,80458,2,4,B|288:272,1,47.5
352,272,80920,1,0
352,144,81381,1,0
352,80,81612,6,0,B|256:80,2,95
416,80,82304,2,4,B|416:160,1,47.5
416,224,82766,1,0
288,224,83227,1,0
224,224,83458,1,0
200,247,83573,1,0
176,224,83689,1,0
64,144,84150,6,2,B|152:74|272:160,2,190
64,208,85304,5,0
64,208,85420,1,0
64,208,85535,1,0
160,304,85996,1,0
288,304,86458,1,4
352,304,86689,1,4
416,304,86919,1,4
416,240,87150,5,0
416,240,87266,1,0
416,240,87381,1,0
416,112,87843,2,0,B|224:112,1,190
160,112,88535,2,0,B|64:112,1,95
96,48,88996,5,0
128,48,89112,1,0
160,48,89227,1,0
256,192,89689,1,0
208,320,90150,6,0,B|304:320,2,95
208,256,90842,5,4
240,256,90958,1,4
272,256,91073,1,4
400,256,91535,1,0
384,128,91996,1,2
352,144,92112,1,2
320,128,92227,1,2
288,112,92342,1,2
256,128,92458,1,2
256,192,92689,5,2
256,192,92804,12,4,93612
192,192,94073,5,2
256,160,94304,1,2
320,192,94535,1,2
256,192,94650,12,4,95458
256,224,95919,5,2
256,160,96150,1,2
256,192,96381,1,2
256,192,96496,12,0,98227
160,144,99140,6,0,B|257:92|347:151,1,190
400,160,101216,5,0
400,272,101678,2,4,B|304:320|208:272,1,190
176,272,102255,1,4
192,240,102370,1,4
64,192,102832,6,0,B|64:80,1,95
192,48,103524,2,4,B|304:48|352:144,1,190
368,160,104101,1,4
352,192,104216,1,4
256,288,104678,5,0
256,224,104908,1,2
256,192,105024,1,2
256,160,105139,1,2
240,160,105370,6,2,B|177:42|132:51|135:146|135:146|64:144|16:160|0:208|134:220|134:220|32:288|48:336|152:324|224:272,1,665
192,208,107447,2,4,B|304:192|400:272,1,190
416,128,108370,5,0
352,128,108601,1,0
288,128,108831,1,0
288,128,108947,1,0
288,128,109062,1,0
224,128,109293,6,0,B|128:128,1,95
64,128,109754,1,0
64,128,109870,1,0
64,128,109985,1,0
64,192,110216,6,0,B|112:240|160:176,1,95
208,192,110678,2,0,B|256:192,1,47.5
255,192,110908,2,0,B|368:192,1,95
416,192,111370,1,0
416,256,111601,1,0
416,288,111716,1,0
416,320,111831,1,0
352,320,112062,5,0
288,320,112293,1,0
160,320,112754,1,0
96,320,112985,1,0
96,320,113101,1,0
96,320,113216,2,4,B|96:224,1,95
96,225,113562,1,0
96,225,113677,2,4,B|96:112,1,95
96,130,114024,1,0
96,130,114139,2,4,B|96:64|176:48,1,95
146,56,114485,1,4
146,56,114600,1,4
146,56,114716,1,4
146,56,114831,1,4
128,64,133293,5,0
192,64,133523,1,0
192,64,133638,1,0
192,64,133754,1,0
256,64,133985,1,0
320,64,134216,1,0
384,64,134447,2,2,B|384:144,2,47.5
448,64,134908,1,2
448,128,135138,6,0,B|336:128,1,95
353,128,135485,2,0,B|304:128,1,47.5
240,128,135831,2,0,B|144:128,1,95
80,128,136292,2,2,B|80:176,2,47.5
80,175,136754,1,2
80,240,136984,5,0
144,240,137215,1,0
208,240,137446,1,4
272,240,137677,1,4
336,240,137908,1,0
400,240,138138,1,0
464,240,138369,1,4
464,240,138484,1,4
464,240,138600,1,4
464,176,138831,5,0
464,32,139292,5,0
320,32,139754,5,4
320,176,140215,5,4
448,112,140677,6,0,B|256:112,1,190
128,64,141600,5,0
80,112,141830,1,0
176,112,142061,1,2
128,160,142292,1,2
128,224,142523,1,0
176,272,142754,1,0
80,272,142984,1,2
128,320,143215,1,2
176,272,143446,1,0
128,272,143677,6,0,B|28:191|128:112,1,190
256,96,144600,1,0
448,96,145292,5,0
448,176,145523,1,0
448,352,145984,1,0
368,352,146215,1,0
368,272,146446,1,0
368,192,146676,1,0
368,112,146907,1,0
368,32,147138,1,0
288,32,147369,1,0
208,32,147600,1,4
80,144,148061,5,0
112,144,148176,1,0
80,144,148292,1,0
160,144,148523,1,4
240,144,148753,1,4
320,144,148984,1,0
352,144,149099,1,0
320,144,149215,1,0
400,144,149446,1,4
480,144,149676,1,4
432,64,149907,6,0,B|384:64,2,47.5
432,144,150369,2,4,B|432:240,1,95
352,240,150830,2,0,B|352:192,2,47.5
352,160,151292,1,4
352,240,151523,1,4
256,192,151753,5,0
32,192,152215,5,4
144,64,152676,5,0
256,192,153138,5,4
368,64,153599,5,0
480,192,154061,5,4
368,320,154522,5,4
256,192,154984,5,4
256,192,155099,12,4,155445
256,192,155561,12,4,155907
224,160,156369,5,0
288,160,156599,1,0
288,224,156830,1,0
224,224,157061,1,0
256,96,157522,5,2
256,96,157638,1,2
256,96,157753,1,2
224,224,158215,5,0
288,224,158445,1,0
288,160,158676,1,0
224,160,158907,1,0
256,288,159368,5,2
256,288,159484,1,2
256,288,159599,1,2
288,160,160061,5,0
288,224,160291,1,0
224,224,160522,1,0
224,160,160753,1,0
256,192,160984,12,0,161676
208,64,162830,5,2
208,64,163061,1,4
352,64,163522,5,0
400,112,163753,1,0
352,160,163984,1,0
304,208,164214,1,0
352,256,164445,1,0
352,336,164676,5,2
352,336,164907,1,4
192,336,165368,5,0
112,336,165599,1,0
112,256,165830,1,0
192,256,166061,1,0
192,176,166291,1,0
112,176,166522,5,2
112,176,166753,1,4
151,29,167214,6,0,B|256:29,1,95
256,96,167676,2,0,B|336:176,1,95
400,160,168137,2,0,B|400:64,2,95
400,304,169060,5,0
336,256,169291,1,0
288,304,169522,1,0
224,256,169753,1,0
176,192,169984,1,0
256,192,170214,5,0
256,192,170330,12,0,177599
