osu file format v5

[General]
AudioFilename: Maki Otsuki - RUN! RUN! RUN!.mp3
AudioLeadIn: 0
PreviewTime: -1
Countdown: 1
SampleSet: Normal
EditorBookmarks: 10639,32829,54402,65805,68579,87686,100784,122358,147937,179835,210345

[Metadata]
Title:RUN! RUN! RUN!
Artist:Maki Otsuki
Creator:MaxwellDemon
Version:Normal

[Difficulty]
HPDrainRate:3
CircleSize:5
OverallDifficulty:6
SliderMultiplier:1.4
SliderTickRate:1

[Events]
//Background and Video events
0,0,"luffyzoro800dn7.png"
//Break Periods
2,30255,34094
2,65044,66261
2,86345,100813
2,121776,122992
2,143052,147349
2,156637,160011
//Storyboard Layer 0 (Background)
//Storyboard Layer 1 (Failing)
//Storyboard Layer 2 (Passing)
//Storyboard Layer 3 (Foreground)
//Storyboard Sound Samples
//Background Colour Transformations
3,100,163,162,255

[TimingPoints]
733,616.649537512847,4,1,0,100

[Colours]
Combo1 : 255,83,0
Combo2 : 255,191,0
Combo3 : 56,71,254
Combo4 : 189,4,4

[HitObjects]
136,136,10599,1,0
208,80,11216,1,0
264,104,11678,1,0
328,144,12141,1,0
360,176,12449,1,0
360,176,12603,1,0
344,240,13065,6,0,B|392:264|344:288,1,70
296,288,13682,2,0,B|224:288,1,70
176,288,14299,1,0
136,256,14607,1,6
96,136,15532,5,0
144,136,15840,1,0
192,136,16149,1,0
264,136,16611,1,0
336,136,17074,1,0
416,144,17536,1,0
440,216,17999,5,0
408,248,18307,1,0
360,256,18615,1,0
312,256,18924,2,4,B|272:296|158:305|104:240,1,210
104,152,20465,5,0
200,152,21082,1,0
240,128,21390,2,0,B|328:128,1,70
352,104,22007,1,0
408,152,22469,1,0
368,216,22932,5,0
344,256,23240,1,0
296,272,23549,1,0
248,272,23857,1,0
208,240,24165,1,0
184,192,24474,2,0,B|131:172|200:120,1,70
296,160,25398,5,0
344,176,25707,1,0
392,168,26015,1,0
400,120,26323,1,0
328,56,26940,5,0
256,56,27403,1,0
192,88,27865,2,0,B|84:86|136:200,1,140
144,224,28790,1,0
176,256,29098,2,0,B|259:350|392:272,1,210
392,168,35265,5,0
352,248,35882,1,0
352,248,36036,1,0
288,280,36498,1,0
224,312,36961,1,4
104,248,37731,5,0
112,200,38040,1,0
136,160,38348,1,0
208,104,38965,1,0
256,88,39273,1,2
256,88,39427,1,4
296,192,40198,5,0
272,232,40506,1,0
208,272,40969,1,0
136,264,41431,1,0
88,208,41894,1,0
120,144,42356,5,0
152,112,42665,1,0
216,72,43127,1,0
288,96,43590,1,0
328,120,43898,2,4,B|352:200|248:248,1,140
312,320,45131,5,0
352,296,45440,1,0
384,264,45748,1,0
384,264,45902,1,0
384,184,46365,2,2,B|384:56,1,105
256,144,47598,5,0
256,192,47906,1,0
296,216,48215,2,2,B|280:256|224:296|136:288|80:224,1,245
152,128,50064,5,0
200,112,50373,1,0
248,104,50681,2,0,B|421:42|368:272,1,280
360,312,52223,1,0
312,328,52531,1,0
264,328,52839,2,0,B|176:328,1,70
176,280,53456,2,2,B|208:200|304:224,1,140
368,168,54689,5,0
320,168,54998,2,0,B|176:168,1,140
136,176,55923,1,0
96,192,56231,1,4
160,64,57156,5,0
200,80,57464,6,0,B|250:112|184:144,1,70
200,136,57927,6,0,B|136:176,1,70
144,176,58389,6,0,B|200:232,1,70
224,256,58852,6,0,B|288:256|320:216,1,105
312,176,59623,6,6,B|392:119|512:176,1,175
384,256,61164,5,0
352,288,61472,2,0,B|312:328|264:336,1,70
248,320,62089,1,0
256,192,62397,12,4,64864
192,240,67331,5,0
232,224,67639,1,0
280,208,67947,2,0,B|326:132|264:104,1,105
208,88,68872,1,2
160,88,69181,2,0,B|120:128|160:168,1,70
168,192,69797,1,0
192,232,70106,2,4,B|287:262|304:96|448:152,1,280
176,112,72264,5,0
144,144,72572,1,0
176,176,72880,1,0
176,248,73343,1,2
224,304,73805,1,0
296,296,74268,1,0
368,288,74730,2,4,B|381:74|128:128,1,350
288,232,77197,5,0
240,224,77505,1,0
216,184,77814,1,0
240,112,78276,1,2
168,120,78739,1,0
120,120,79047,1,0
120,120,79201,1,0
120,192,79664,2,0,B|224:176|304:216|304:256,1,210
304,304,80897,2,4,B|344:272|456:264,1,140
384,160,82130,5,0
344,136,82439,1,0
296,144,82747,2,0,B|224:156|296:224,1,105
304,288,83672,2,0,B|248:320|208:256,1,105
176,200,84597,1,2
200,160,84905,1,4
240,136,85213,2,0,B|390:91|352:256|344:264,1,210
112,256,101863,5,0
128,160,102480,1,0
128,160,102634,1,0
200,144,103096,2,0,B|296:216,1,105
400,136,104330,5,0
392,184,104638,1,0
352,216,104946,2,0,B|297:182|280:168,1,70
248,152,105563,1,0
184,184,106025,1,6
136,288,106796,5,0
104,248,107105,1,0
120,200,107413,2,0,B|192:200,1,70
232,192,108030,1,0
232,192,108492,1,0
304,184,108954,1,0
328,224,109263,2,2,B|376:248|424:208|440:144|376:56|304:40,1,280
216,144,111421,5,0
168,136,111729,1,0
168,208,112192,2,0,B|112:216|56:168,1,105
72,224,112963,1,4
120,88,113888,1,0
168,96,114196,1,0
208,112,114504,2,0,B|236:195|136:248,1,140
184,272,115429,1,0
112,272,115892,2,0,B|-15:207|192:40,1,280
280,96,117896,5,0
312,128,118204,2,0,B|328:200|208:224,1,140
256,192,119129,12,4,121596
392,240,124062,5,0
344,240,124371,1,0
296,240,124679,2,0,B|287:161|368:136,1,105
264,136,125604,1,2
216,136,125912,2,0,B|160:128|136:136,1,70
136,176,126529,1,0
144,224,126837,2,4,B|144:304|280:336|392:208,1,280
344,88,128996,5,0
296,104,129304,1,0
248,120,129612,1,0
184,144,130075,1,2
120,176,130537,1,0
168,232,131000,1,0
128,296,131462,2,4,B|308:356|472:256,1,350
360,168,133929,5,0
328,200,134237,1,0
288,184,134545,1,0
248,120,135008,1,2
176,112,135470,1,0
128,128,135779,1,0
128,128,135933,1,0
56,120,136395,2,0,B|40:224|80:304|128:320,1,210
152,336,137629,2,4,B|192:373|288:272,1,140
240,200,138862,5,0
272,160,139170,1,0
320,168,139479,2,0,B|368:192|328:240,1,70
312,264,140095,1,0
264,280,140404,2,0,B|208:312|168:248,1,105
136,192,141329,1,2
136,192,141637,1,4
136,144,141945,2,0,B|152:16|256:32|312:72,1,210
104,136,148420,5,0
152,136,148728,2,2,B|272:136,1,105
312,176,149653,1,0
360,176,149962,1,0
456,280,150887,1,0
400,280,151195,2,4,B|314:349|216:328|81:313|112:184|400:72,1,560
96,200,154895,2,6,B|160:112|272:80|384:240,1,350
72,312,161061,5,0
112,296,161370,1,0
152,272,161678,2,0,B|193:226|128:176,1,105
88,136,162603,1,6
56,168,162911,2,0,B|48:224|56:248,1,70
80,272,163528,1,0
104,232,163836,2,4,B|158:290|233:224|320:256,1,210
305,251,164915,1,6
305,251,165070,1,6
288,104,165995,5,0
240,104,166303,1,0
192,104,166611,1,6
192,104,166765,1,6
144,112,167074,1,2
80,144,167536,1,0
96,184,167845,1,0
112,232,168153,1,0
112,280,168461,2,4,B|326:293|408:96,1,350
368,256,170928,5,0
320,248,171236,1,0
280,216,171544,1,0
320,160,172007,1,2
320,88,172469,1,0
280,64,172778,1,0
280,64,172932,1,0
208,80,173394,2,0,B|192:184|232:264|280:280,1,210
304,296,174628,2,4,B|369:343|424:264,1,140
352,200,175861,5,0
312,176,176169,1,0
264,192,176478,2,0,B|216:216|256:288,1,105
192,328,177403,2,0,B|136:360|96:296,1,105
120,232,178328,1,2
152,192,178636,1,4
192,160,178944,2,0,B|312:192|296:296|256:352,1,210
416,72,180794,5,0
384,104,181102,1,0
344,120,181411,2,0,B|288:144|224:168,1,105
168,176,182336,1,2
120,184,182644,2,4,B|112:240|120:264,1,70
160,280,183261,1,0
200,296,183569,2,4,B|279:219|312:160|184:48,1,280
64,88,185727,5,0
72,136,186036,1,0
80,184,186344,1,0
136,224,186806,1,2
208,224,187269,1,6
232,296,187731,1,6
184,344,188194,2,4,B|469:331|368:128,1,350
272,240,190661,5,0
224,232,190969,1,0
192,192,191277,1,0
144,136,191740,1,2
192,88,192202,1,0
240,80,192511,1,6
240,80,192665,1,6
312,88,193127,2,4,B|328:192|288:272|240:288,1,210
216,256,194360,2,6,B|115:212|184:152,1,140
208,64,195594,5,0
248,80,195902,1,0
288,104,196210,2,0,B|354:122|296:192,1,105
264,240,197135,2,0,B|208:272|168:208,1,105
256,192,198060,12,4,200527
