osu file format v5

[General]
AudioFilename: Maki Otsuki - RUN! RUN! RUN!.mp3
AudioLeadIn: 0
PreviewTime: -1
Countdown: 1
SampleSet: Normal
EditorBookmarks: 10639,32829,54402,65805,68579,87686,100784,122358,147937,179835,210345

[Metadata]
Title:RUN! RUN! RUN!
Artist:Maki Otsuki
Creator:MaxwellDemon
Version:Easy

[Difficulty]
HPDrainRate:0
CircleSize:3
OverallDifficulty:5
SliderMultiplier:1.4
SliderTickRate:1

[Events]
//Background and Video events
0,0,"luffyzoro800dn7.png"
//Break Periods
2,30255,34094
2,65044,66111
2,86345,100813
2,121776,122842
2,143052,147349
2,156637,159861
//Storyboard Layer 0 (Background)
//Storyboard Layer 1 (Failing)
//Storyboard Layer 2 (Passing)
//Storyboard Layer 3 (Foreground)
//Storyboard Sound Samples
//Background Colour Transformations
3,100,163,162,255

[TimingPoints]
733,616.649537512847,4,1,0,100

[Colours]
Combo1 : 255,83,0
Combo2 : 255,191,0
Combo3 : 56,71,254
Combo4 : 189,4,4

[HitObjects]
80,72,10599,1,0
184,72,11216,1,0
256,72,11678,1,0
328,72,12141,5,0
400,72,12603,1,0
400,144,13065,6,0,B|416:200|360:256|213:249|131:237|152:112,1,350
272,72,15532,5,0
352,128,16149,1,0
352,200,16611,1,0
312,264,17074,5,0
240,288,17536,1,0
160,280,17999,5,0
88,208,18615,1,0
72,136,19078,2,4,B|112:96|216:112|248:136,1,175
304,208,20465,5,0
376,280,21082,2,0,B|328:320|232:352|120:328|112:272,1,280
80,192,22932,5,0
128,104,23549,1,0
192,72,24011,1,0
240,72,24319,2,0,B|291:12|320:112,1,105
360,184,25398,5,0
320,272,26015,1,0
256,304,26478,1,0
184,304,26940,5,0
184,232,27403,1,0
184,160,27865,2,0,B|292:162|240:48,1,140
312,48,28944,2,0,B|418:162|320:296,1,245
440,48,35265,5,0
440,152,35882,1,0
384,240,36498,5,0
312,272,36961,1,4
192,320,37731,5,0
104,264,38348,1,0
64,168,38965,1,0
88,96,39427,1,2
184,56,40198,5,0
224,80,40506,1,0
280,128,40969,5,0
320,192,41431,1,0
352,256,41894,1,0
400,200,42356,5,0
416,152,42665,1,0
392,80,43127,5,0
328,40,43590,1,0
280,48,43898,2,4,B|200:24|152:128,1,140
112,192,45131,6,0,B|144:304|248:320|336:312|432:224,1,385
360,120,47598,6,0,B|296:48|199:-2|117:116|176:280,1,385
280,320,50064,5,0
192,264,50681,2,0,B|130:91|360:128,1,280
400,136,52223,1,0
416,184,52531,5,0
416,232,52839,2,0,B|408:312|360:360|288:352|232:360|192:328,1,280
136,256,54689,5,0
136,208,54998,2,0,B|136:56,1,140
184,64,55923,1,0
232,64,56231,1,4
256,192,57156,12,0,59931
392,168,61164,5,0
376,216,61472,2,0,B|336:256|288:264,1,70
272,272,62089,1,0
256,192,62397,12,4,64864
112,72,67331,5,0
192,136,67947,2,0,B|273:202|312:88,1,140
336,72,68872,6,0,B|384:102|416:144,1,105
384,264,70106,2,4,B|289:294|175:265|128:184,1,280
120,288,72264,5,0
160,192,72880,1,0
232,208,73343,1,2
240,280,73805,5,0
304,320,74268,1,0
344,256,74730,2,4,B|357:42|104:96,1,350
128,240,77197,5,0
216,288,77814,1,0
272,240,78276,1,2
256,160,78739,5,0
328,184,79201,1,0
360,120,79664,2,0,B|304:32|192:24|88:40|40:104|80:208,1,420
176,200,82130,5,0
224,200,82439,2,0,B|290:273|192:336,1,140
120,280,83672,2,0,B|52:310|40:240,1,105
56,168,84597,5,2
80,128,84905,1,4
120,96,85213,2,0,B|270:51|232:216|224:224,1,210
368,248,101863,5,0
336,152,102480,1,0
248,104,103096,2,0,B|144:48,1,105
88,160,104330,5,0
168,224,104946,2,0,B|223:258|240:272,1,70
264,288,105563,1,0
336,288,106025,1,6
448,232,106796,5,0
400,144,107413,2,0,B|400:72,1,70
352,72,108030,1,0
280,72,108492,5,0
208,80,108954,1,0
168,112,109263,2,2,B|120:88|72:128|56:192|120:280|192:296,1,280
104,160,111421,6,0,B|144:56|256:8|352:64|424:96,1,350
280,168,113888,1,0
376,192,114504,2,0,B|404:275|304:328,1,140
280,320,115429,1,0
208,296,115892,1,0
152,248,116354,2,0,B|116:137|240:80,1,210
392,56,117896,5,0
416,96,118204,2,0,B|432:168|312:192,1,140
256,192,119129,12,4,121596
456,208,124062,5,0
352,208,124679,2,0,B|418:127|304:88,1,140
272,88,125604,2,0,B|232:48|160:80,1,105
64,72,126837,2,4,B|34:167|200:184|144:328,1,280
272,232,128996,5,0
336,160,129612,1,0
344,88,130075,1,2
288,40,130537,1,0
216,48,131000,1,0
152,80,131462,2,4,B|139:294|392:240,1,350
344,96,133929,5,0
248,64,134545,1,0
168,64,135008,1,2
104,104,135470,1,0
80,176,135933,1,0
88,248,136395,2,0,B|144:336|256:344|360:328|408:264|416:160,1,420
384,88,138862,5,0
336,88,139170,2,0,B|263:22|200:120,1,140
200,200,140404,2,0,B|144:232|104:168,1,105
72,112,141329,1,2
72,112,141637,1,4
112,88,141945,2,0,B|262:43|224:208|216:216,1,210
400,72,148420,5,0
352,72,148728,2,2,B|232:72,1,105
168,72,149653,1,0
120,72,149962,1,0
64,208,150887,5,0
112,224,151195,2,4,B|198:293|296:272|431:257|400:128|96:56,1,560
112,256,154895,6,6,B|176:344|288:376|416:248,1,350
392,248,161061,5,0
352,216,161370,1,0
312,184,161678,2,0,B|378:103|304:72,1,105
256,72,162603,6,0,B|194:78|168:152,1,105
144,256,163836,2,4,B|239:286|343:239|400:176,1,280
280,72,165995,5,0
232,88,166303,1,0
184,104,166611,1,0
112,128,167074,5,2
168,176,167536,1,0
208,208,167845,1,0
296,248,168461,2,4,B|309:34|56:88,1,350
192,152,170928,5,0
224,120,171236,1,0
240,168,171544,1,0
208,240,172007,5,2
144,280,172469,1,0
96,272,172778,1,0
88,168,173394,2,0,B|144:80|256:72|360:88|408:152|416:256,1,420
352,304,175861,5,0
304,304,176169,2,0,B|231:370|168:272,1,140
128,208,177403,2,0,B|96:152|160:112,1,105
200,64,178328,5,2
248,48,178636,1,4
296,48,178944,2,0,B|446:3|408:168|400:176,1,210
328,296,180794,5,0
280,320,181102,1,0
280,272,181411,2,0,B|346:191|232:152,1,140
208,144,182336,5,0
160,152,182644,2,0,B|120:192|160:232,1,70
112,256,183261,1,0
128,304,183569,2,4,B|223:334|240:168|384:224,1,280
416,72,185727,5,0
312,72,186344,1,0
232,72,186806,1,2
232,144,187269,5,0
208,216,187731,1,0
136,216,188194,2,4,B|123:2|376:56,1,350
416,128,190661,5,0
368,128,190969,1,0
320,128,191277,1,0
240,128,191740,5,2
168,128,192202,1,0
120,184,192665,1,0
112,256,193127,2,0,B|168:344|280:352|384:336|432:272|440:168,1,420
416,96,195594,5,0
368,88,195902,2,0,B|295:22|232:120,1,140
200,104,196827,1,0
152,112,197135,6,0,B|120:168|184:208,1,105
176,200,198060,1,2
216,224,198369,1,4
264,216,198677,2,0,B|414:171|376:336|368:344,1,210
