osu file format v13

[General]
AudioFilename: ONE PIECE memories 02.mp3
AudioLeadIn: 0
PreviewTime: 85800
Countdown: 0
SampleSet: Soft
StackLeniency: 0.7
Mode: 3
LetterboxInBreaks: 0
SpecialStyle: 0
WidescreenStoryboard: 1

[Editor]
DistanceSpacing: 0.5
BeatDivisor: 4
GridSize: 4
TimelineZoom: 2.06

[Metadata]
Title:memories
TitleUnicode:memories
Artist:Maki Ootsuki
ArtistUnicode:大槻真希
Creator:LightAN21
Version:4K Hard
Source:One Piece
Tags:Ending
BeatmapID:472023
BeatmapSetID:193904

[Difficulty]
HPDrainRate:7
CircleSize:4
OverallDifficulty:5
ApproachRate:5
SliderMultiplier:1.4
SliderTickRate:1

[Events]
//Background and Video events
0,0,"One_Piece_Memories_2010_by_Giamini.jpg",0,0
//Break Periods
//Storyboard Layer 0 (Background)
//Storyboard Layer 1 (Fail)
//Storyboard Layer 2 (Pass)
//Storyboard Layer 3 (Foreground)
//Storyboard Sound Samples
//Background Colour Transformations
3,100,163,162,255

[TimingPoints]
0,447.761194029851,4,2,1,50,1,0
85970,-100,4,2,1,50,0,1
114626,-100,4,2,1,50,0,0
175522,-100,4,2,1,50,0,1
227462,-100,4,2,1,50,0,0

[HitObjects]
448,192,7164,128,0,7611:0:0:0:0:
320,192,7611,128,0,8059:0:0:0:0:
192,192,8059,128,0,8507:0:0:0:0:
64,192,8507,1,0,0:0:0:0:
320,192,8507,128,0,8955:0:0:0:0:
448,192,8955,128,0,9402:0:0:0:0:
320,192,9402,128,0,9626:0:0:0:0:
64,192,9626,128,0,10074:0:0:0:0:
192,192,10074,128,0,10298:0:0:0:0:
64,192,10298,1,0,0:0:0:0:
448,192,10298,128,0,10746:0:0:0:0:
192,192,10746,128,0,11194:0:0:0:0:
320,192,11194,128,0,11641:0:0:0:0:
448,192,11641,128,0,12089:0:0:0:0:
64,192,12089,1,0,0:0:0:0:
320,192,12089,128,0,12537:0:0:0:0:
192,192,12537,128,0,12985:0:0:0:0:
64,192,12985,128,0,13208:0:0:0:0:
448,192,13208,128,0,13656:0:0:0:0:
320,192,13656,128,0,13880:0:0:0:0:
448,192,13880,1,0,0:0:0:0:
192,192,13880,128,0,14328:0:0:0:0:
64,192,14328,128,0,14776:0:0:0:0:
192,192,14776,128,0,15223:0:0:0:0:
448,192,15223,128,0,15671:0:0:0:0:
192,192,15671,1,0,0:0:0:0:
320,192,15671,128,0,16119:0:0:0:0:
64,192,16119,128,0,16567:0:0:0:0:
192,192,16567,128,0,16791:0:0:0:0:
448,192,16791,128,0,17238:0:0:0:0:
320,192,17238,128,0,17462:0:0:0:0:
448,192,17462,1,0,0:0:0:0:
192,192,17462,128,0,17910:0:0:0:0:
64,192,17910,128,0,18358:0:0:0:0:
320,192,18358,128,0,18805:0:0:0:0:
448,192,18805,128,0,19253:0:0:0:0:
192,192,19253,128,0,19701:0:0:0:0:
320,192,19253,1,0,0:0:0:0:
64,192,19701,128,0,20149:0:0:0:0:
320,192,20149,128,0,20373:0:0:0:0:
448,192,20373,128,0,20820:0:0:0:0:
192,192,20820,128,0,21044:0:0:0:0:
64,192,21044,128,0,21492:0:0:0:0:
448,192,21044,1,0,0:0:0:0:
320,192,21268,128,0,21492:0:0:0:0:
192,192,21492,128,0,21940:0:0:0:0:
448,192,21492,1,0,0:0:0:0:
320,192,21940,128,0,22388:0:0:0:0:
64,192,21940,1,0,0:0:0:0:
448,192,22388,128,0,22835:0:0:0:0:
64,192,22388,1,0,0:0:0:0:
320,192,22835,1,0,0:0:0:0:
192,192,22835,128,0,23283:0:0:0:0:
64,192,22835,1,0,0:0:0:0:
448,192,23283,1,0,0:0:0:0:
64,192,23283,128,0,23731:0:0:0:0:
448,192,23731,1,0,0:0:0:0:
192,192,23731,128,0,23955:0:0:0:0:
320,192,23955,128,0,24402:0:0:0:0:
448,192,24179,1,0,0:0:0:0:
192,192,24402,128,0,24626:0:0:0:0:
448,192,24626,1,0,0:0:0:0:
320,192,24626,1,0,0:0:0:0:
64,192,24626,128,0,25074:0:0:0:0:
320,192,25074,1,0,0:0:0:0:
448,192,25074,128,0,25522:0:0:0:0:
192,192,25522,128,0,25970:0:0:0:0:
320,192,25522,1,0,0:0:0:0:
64,192,25970,128,0,26417:0:0:0:0:
320,192,25970,1,0,0:0:0:0:
448,192,26417,1,0,0:0:0:0:
192,192,26417,128,0,26865:0:0:0:0:
320,192,26417,1,0,0:0:0:0:
320,192,26865,128,0,27313:0:0:0:0:
64,192,26865,1,0,0:0:0:0:
192,192,27313,128,0,27537:0:0:0:0:
448,192,27313,1,0,0:0:0:0:
64,192,27537,128,0,27985:0:0:0:0:
448,192,27761,1,0,0:0:0:0:
192,192,27985,128,0,28208:0:0:0:0:
64,192,28208,1,0,0:0:0:0:
320,192,28208,128,0,28656:0:0:0:0:
448,192,28208,1,0,0:0:0:0:
192,192,28656,128,0,29104:0:0:0:0:
64,192,28656,1,0,0:0:0:0:
320,192,29104,128,0,29328:0:0:0:0:
192,192,29328,128,0,30000:0:0:0:0:
64,192,29328,1,0,0:0:0:0:
64,192,29552,1,0,0:0:0:0:
320,192,30000,1,0,0:0:0:0:
448,192,30447,128,0,30671:0:0:0:0:
192,192,30447,1,0,0:0:0:0:
320,192,30671,128,0,30895:0:0:0:0:
64,192,30895,128,0,31119:0:0:0:0:
320,192,31119,128,0,31791:0:0:0:0:
192,192,31119,1,0,0:0:0:0:
192,192,31343,1,0,0:0:0:0:
448,192,31791,1,0,0:0:0:0:
320,192,32238,128,0,32686:0:0:0:0:
64,192,32238,1,0,0:0:0:0:
448,192,32686,128,0,33134:0:0:0:0:
64,192,32910,1,0,0:0:0:0:
320,192,33134,128,0,33358:0:0:0:0:
64,192,33134,1,0,0:0:0:0:
192,192,33358,128,0,33582:0:0:0:0:
64,192,33582,128,0,33805:0:0:0:0:
448,192,33582,1,0,0:0:0:0:
192,192,33805,128,0,34253:0:0:0:0:
320,192,34029,128,0,34253:0:0:0:0:
64,192,34253,128,0,35373:0:0:0:0:
448,192,34253,128,0,34365:0:0:0:0:
320,192,34701,1,0,0:0:0:0:
320,192,34925,1,0,0:0:0:0:
192,192,35373,1,0,0:0:0:0:
320,192,35820,128,0,36044:0:0:0:0:
448,192,35820,1,0,0:0:0:0:
192,192,36044,128,0,36268:0:0:0:0:
320,192,36268,128,0,36492:0:0:0:0:
192,192,36492,128,0,37164:0:0:0:0:
448,192,36492,1,0,0:0:0:0:
448,192,36716,1,0,0:0:0:0:
64,192,37164,1,0,0:0:0:0:
64,192,37611,128,0,37947:0:0:0:0:
192,192,37611,1,0,0:0:0:0:
320,192,37947,128,0,38283:0:0:0:0:
192,192,38283,1,0,0:0:0:0:
448,192,38283,128,0,38955:0:0:0:0:
192,192,38507,1,0,0:0:0:0:
320,192,38955,1,0,0:0:0:0:
64,192,39402,1,0,0:0:0:0:
192,192,39850,128,0,40074:0:0:0:0:
320,192,40074,128,0,40298:0:0:0:0:
448,192,40074,1,0,0:0:0:0:
192,192,40298,128,0,40522:0:0:0:0:
448,192,40298,1,0,0:0:0:0:
64,192,40522,128,0,40970:0:0:0:0:
320,192,40746,1,0,0:0:0:0:
448,192,40970,128,0,41417:0:0:0:0:
192,192,40970,128,0,41417:0:0:0:0:
320,192,41417,128,0,42537:0:0:0:0:
64,192,41417,128,0,41641:0:0:0:0:
192,192,41865,1,0,0:0:0:0:
64,192,41865,128,0,42985:0:0:0:0:
192,192,42089,1,0,0:0:0:0:
448,192,42537,1,0,0:0:0:0:
448,192,42985,1,0,0:0:0:0:
320,192,42985,128,0,43208:0:0:0:0:
192,192,43208,128,0,43432:0:0:0:0:
320,192,43432,128,0,43656:0:0:0:0:
64,192,43432,1,0,0:0:0:0:
192,192,43656,128,0,44328:0:0:0:0:
448,192,43656,1,0,0:0:0:0:
448,192,43880,1,0,0:0:0:0:
320,192,44328,1,0,0:0:0:0:
448,192,44776,128,0,45000:0:0:0:0:
192,192,44776,1,0,0:0:0:0:
320,192,45000,128,0,45223:0:0:0:0:
64,192,45223,1,0,0:0:0:0:
448,192,45223,128,0,45447:0:0:0:0:
192,192,45447,1,0,0:0:0:0:
320,192,45447,128,0,46119:0:0:0:0:
192,192,45671,1,0,0:0:0:0:
64,192,46119,1,0,0:0:0:0:
192,192,46567,128,0,47014:0:0:0:0:
448,192,46567,1,0,0:0:0:0:
320,192,47014,1,0,0:0:0:0:
64,192,47014,128,0,47462:0:0:0:0:
448,192,47238,1,0,0:0:0:0:
192,192,47462,128,0,47686:0:0:0:0:
448,192,47462,1,0,0:0:0:0:
320,192,47686,128,0,47910:0:0:0:0:
448,192,47910,128,0,48134:0:0:0:0:
64,192,47910,1,0,0:0:0:0:
320,192,48134,128,0,48582:0:0:0:0:
192,192,48358,128,0,48582:0:0:0:0:
448,192,48582,128,0,49701:0:0:0:0:
64,192,48582,128,0,48805:0:0:0:0:
192,192,49029,1,0,0:0:0:0:
192,192,49253,1,0,0:0:0:0:
64,192,49701,1,0,0:0:0:0:
192,192,50149,128,0,50373:0:0:0:0:
448,192,50149,1,0,0:0:0:0:
320,192,50373,128,0,50597:0:0:0:0:
192,192,50597,128,0,50820:0:0:0:0:
64,192,50597,1,0,0:0:0:0:
448,192,50820,1,0,0:0:0:0:
320,192,50820,128,0,51492:0:0:0:0:
448,192,51044,1,0,0:0:0:0:
192,192,51492,1,0,0:0:0:0:
64,192,51716,128,0,51940:0:0:0:0:
448,192,51940,128,0,52388:0:0:0:0:
320,192,51940,1,0,0:0:0:0:
320,192,52388,128,0,52611:0:0:0:0:
64,192,52388,1,0,0:0:0:0:
192,192,52611,128,0,53283:0:0:0:0:
448,192,52611,1,0,0:0:0:0:
448,192,52835,1,0,0:0:0:0:
320,192,53283,1,0,0:0:0:0:
192,192,53731,1,0,0:0:0:0:
64,192,53731,128,0,54179:0:0:0:0:
448,192,54179,128,0,54626:0:0:0:0:
320,192,54179,1,0,0:0:0:0:
64,192,54402,1,0,0:0:0:0:
64,192,54626,1,0,0:0:0:0:
320,192,54626,128,0,54850:0:0:0:0:
192,192,54850,128,0,55074:0:0:0:0:
448,192,55074,1,0,0:0:0:0:
64,192,55074,128,0,55298:0:0:0:0:
192,192,55298,128,0,56865:0:0:0:0:
64,192,55522,128,0,56865:0:0:0:0:
448,192,55522,128,0,56865:0:0:0:0:
320,192,55522,1,0,0:0:0:0:
320,192,56194,1,0,0:0:0:0:
320,192,56417,1,0,0:0:0:0:
320,192,56865,128,0,57313:0:0:0:0:
64,192,57313,1,0,0:0:0:0:
320,192,57761,1,0,0:0:0:0:
448,192,57761,128,0,58656:0:0:0:0:
192,192,57985,1,0,0:0:0:0:
192,192,58208,1,0,0:0:0:0:
64,192,58656,1,0,0:0:0:0:
320,192,58656,128,0,59104:0:0:0:0:
448,192,59104,128,0,59776:0:0:0:0:
192,192,59104,1,0,0:0:0:0:
192,192,59552,1,0,0:0:0:0:
320,192,59776,128,0,60447:0:0:0:0:
64,192,59776,1,0,0:0:0:0:
192,192,60000,128,0,60223:0:0:0:0:
448,192,60000,1,0,0:0:0:0:
64,192,60223,128,0,60671:0:0:0:0:
448,192,60447,1,0,0:0:0:0:
192,192,60671,128,0,60895:0:0:0:0:
64,192,60895,128,0,62686:0:0:0:0:
320,192,60895,1,0,0:0:0:0:
320,192,61343,128,0,62238:0:0:0:0:
448,192,61343,1,0,0:0:0:0:
192,192,61567,1,0,0:0:0:0:
192,192,61791,1,0,0:0:0:0:
192,192,62238,128,0,62686:0:0:0:0:
448,192,62238,1,0,0:0:0:0:
320,192,62686,128,0,63134:0:0:0:0:
448,192,62686,1,0,0:0:0:0:
64,192,63134,1,0,0:0:0:0:
448,192,63134,128,0,63358:0:0:0:0:
320,192,63358,1,0,0:0:0:0:
192,192,63358,128,0,64029:0:0:0:0:
64,192,63582,1,0,0:0:0:0:
64,192,63805,1,0,0:0:0:0:
448,192,64029,1,0,0:0:0:0:
192,192,64477,1,0,0:0:0:0:
320,192,64925,128,0,65373:0:0:0:0:
64,192,64925,1,0,0:0:0:0:
448,192,65149,1,0,0:0:0:0:
192,192,65373,128,0,65597:0:0:0:0:
448,192,65373,1,0,0:0:0:0:
320,192,65597,128,0,66044:0:0:0:0:
192,192,65820,1,0,0:0:0:0:
192,192,65932,1,0,0:0:0:0:
448,192,66044,128,0,66492:0:0:0:0:
64,192,66044,1,0,0:0:0:0:
64,192,66492,1,0,0:0:0:0:
320,192,66492,128,0,66716:0:0:0:0:
192,192,66716,128,0,66940:0:0:0:0:
448,192,66716,1,0,0:0:0:0:
320,192,66940,128,0,67164:0:0:0:0:
64,192,66940,1,0,0:0:0:0:
192,192,67164,1,0,0:0:0:0:
64,192,67164,128,0,67611:0:0:0:0:
448,192,67611,1,0,0:0:0:0:
320,192,67611,128,0,68059:0:0:0:0:
192,192,68059,128,0,68731:0:0:0:0:
64,192,68059,1,0,0:0:0:0:
448,192,68507,1,0,0:0:0:0:
64,192,68731,128,0,69850:0:0:0:0:
320,192,68731,1,0,0:0:0:0:
192,192,68955,1,0,0:0:0:0:
320,192,69402,1,0,0:0:0:0:
192,192,69850,128,0,70298:0:0:0:0:
448,192,69850,1,0,0:0:0:0:
320,192,69850,1,0,0:0:0:0:
64,192,70298,128,0,70746:0:0:0:0:
448,192,70298,1,0,0:0:0:0:
320,192,70298,1,0,0:0:0:0:
192,192,70522,1,0,0:0:0:0:
192,192,70746,1,0,0:0:0:0:
320,192,70746,128,0,71194:0:0:0:0:
64,192,70970,1,0,0:0:0:0:
192,192,71194,1,0,0:0:0:0:
448,192,71194,128,0,71641:0:0:0:0:
320,192,71641,1,0,0:0:0:0:
64,192,71641,128,0,72985:0:0:0:0:
448,192,72089,128,0,72985:0:0:0:0:
192,192,72089,1,0,0:0:0:0:
320,192,72313,1,0,0:0:0:0:
320,192,72537,1,0,0:0:0:0:
320,192,72985,128,0,73432:0:0:0:0:
192,192,72985,1,0,0:0:0:0:
448,192,73432,128,0,74104:0:0:0:0:
64,192,73432,1,0,0:0:0:0:
192,192,73880,1,0,0:0:0:0:
320,192,74104,128,0,74776:0:0:0:0:
64,192,74104,1,0,0:0:0:0:
192,192,74328,128,0,74552:0:0:0:0:
448,192,74328,1,0,0:0:0:0:
64,192,74552,128,0,75000:0:0:0:0:
448,192,74776,1,0,0:0:0:0:
192,192,75000,128,0,75223:0:0:0:0:
448,192,75223,128,0,76567:0:0:0:0:
320,192,75223,1,0,0:0:0:0:
192,192,75671,128,0,76567:0:0:0:0:
64,192,75671,1,0,0:0:0:0:
320,192,75895,1,0,0:0:0:0:
320,192,76119,1,0,0:0:0:0:
64,192,76567,1,0,0:0:0:0:
320,192,76567,128,0,77014:0:0:0:0:
192,192,77014,128,0,77462:0:0:0:0:
64,192,77014,1,0,0:0:0:0:
64,192,77462,128,0,77686:0:0:0:0:
448,192,77462,1,0,0:0:0:0:
320,192,77686,128,0,78358:0:0:0:0:
192,192,77686,1,0,0:0:0:0:
64,192,77910,1,0,0:0:0:0:
64,192,78134,1,0,0:0:0:0:
448,192,78358,1,0,0:0:0:0:
192,192,78358,1,0,0:0:0:0:
192,192,78582,1,0,0:0:0:0:
320,192,78805,1,0,0:0:0:0:
64,192,78805,1,0,0:0:0:0:
64,192,79253,1,0,0:0:0:0:
320,192,79253,128,0,79701:0:0:0:0:
192,192,79477,1,0,0:0:0:0:
192,192,79701,1,0,0:0:0:0:
448,192,79701,128,0,79925:0:0:0:0:
320,192,79925,128,0,80373:0:0:0:0:
64,192,80149,1,0,0:0:0:0:
192,192,80373,128,0,80820:0:0:0:0:
320,192,80597,1,0,0:0:0:0:
64,192,80820,128,0,81044:0:0:0:0:
448,192,81044,1,0,0:0:0:0:
320,192,81044,128,0,81268:0:0:0:0:
192,192,81268,128,0,81492:0:0:0:0:
64,192,81268,1,0,0:0:0:0:
320,192,81492,128,0,81940:0:0:0:0:
448,192,81492,1,0,0:0:0:0:
192,192,81940,1,0,0:0:0:0:
448,192,81940,128,0,82388:0:0:0:0:
192,192,82388,128,0,83059:0:0:0:0:
64,192,82388,1,0,0:0:0:0:
448,192,82835,1,0,0:0:0:0:
320,192,83059,128,0,85522:0:0:0:0:
64,192,83059,1,0,0:0:0:0:
64,192,83283,1,0,0:0:0:0:
448,192,83731,1,0,0:0:0:0:
192,192,83731,1,0,0:0:0:0:
192,192,84179,128,0,85970:0:0:0:0:
64,192,84179,1,0,0:0:0:0:
448,192,84626,1,0,0:0:0:0:
64,192,84850,1,0,0:0:0:0:
448,192,85074,1,0,0:0:0:0:
64,192,85298,1,0,0:0:0:0:
448,192,85522,1,0,0:0:0:0:
320,192,85634,1,0,0:0:0:0:
64,192,85746,1,0,0:0:0:0:
448,192,85970,128,0,87313:0:0:0:0:
320,192,85970,1,0,0:0:0:0:
320,192,86417,1,0,0:0:0:0:
192,192,86641,1,0,0:0:0:0:
64,192,86865,1,0,0:0:0:0:
64,192,87313,128,0,87537:0:0:0:0:
320,192,87313,1,0,0:0:0:0:
192,192,87537,128,0,87761:0:0:0:0:
320,192,87761,128,0,88208:0:0:0:0:
64,192,87761,1,0,0:0:0:0:
64,192,88208,128,0,88432:0:0:0:0:
192,192,88208,1,0,0:0:0:0:
192,192,88432,128,0,88656:0:0:0:0:
320,192,88432,1,0,0:0:0:0:
320,192,88656,128,0,89104:0:0:0:0:
448,192,88656,1,0,0:0:0:0:
192,192,89104,128,0,89328:0:0:0:0:
64,192,89104,1,0,0:0:0:0:
320,192,89328,128,0,90000:0:0:0:0:
192,192,89552,1,0,0:0:0:0:
448,192,90000,128,0,90223:0:0:0:0:
64,192,90000,1,0,0:0:0:0:
192,192,90223,128,0,90895:0:0:0:0:
320,192,90223,1,0,0:0:0:0:
320,192,90447,1,0,0:0:0:0:
64,192,90895,128,0,91119:0:0:0:0:
448,192,90895,1,0,0:0:0:0:
192,192,91119,128,0,92686:0:0:0:0:
320,192,91343,1,0,0:0:0:0:
64,192,91791,1,0,0:0:0:0:
320,192,92014,1,0,0:0:0:0:
448,192,92238,1,0,0:0:0:0:
64,192,92686,1,0,0:0:0:0:
320,192,92686,1,0,0:0:0:0:
320,192,93134,128,0,94477:0:0:0:0:
192,192,93134,1,0,0:0:0:0:
448,192,93582,1,0,0:0:0:0:
192,192,93805,1,0,0:0:0:0:
64,192,94029,1,0,0:0:0:0:
192,192,94477,128,0,94701:0:0:0:0:
448,192,94477,1,0,0:0:0:0:
320,192,94701,128,0,94925:0:0:0:0:
448,192,94925,128,0,95373:0:0:0:0:
64,192,94925,1,0,0:0:0:0:
64,192,95373,128,0,95597:0:0:0:0:
192,192,95373,1,0,0:0:0:0:
192,192,95597,128,0,95820:0:0:0:0:
320,192,95597,1,0,0:0:0:0:
320,192,95820,128,0,96044:0:0:0:0:
448,192,95820,1,0,0:0:0:0:
192,192,96268,1,0,0:0:0:0:
64,192,96268,1,0,0:0:0:0:
192,192,96492,1,0,0:0:0:0:
192,192,96716,128,0,97164:0:0:0:0:
320,192,96716,1,0,0:0:0:0:
448,192,97164,128,0,97388:0:0:0:0:
64,192,97164,1,0,0:0:0:0:
320,192,97388,128,0,98059:0:0:0:0:
192,192,97388,1,0,0:0:0:0:
192,192,97611,1,0,0:0:0:0:
64,192,98059,128,0,98283:0:0:0:0:
448,192,98059,1,0,0:0:0:0:
192,192,98283,128,0,99850:0:0:0:0:
320,192,98507,1,0,0:0:0:0:
64,192,98955,1,0,0:0:0:0:
320,192,99179,1,0,0:0:0:0:
448,192,99402,1,0,0:0:0:0:
448,192,99626,1,0,0:0:0:0:
320,192,99626,1,0,0:0:0:0:
320,192,99850,1,0,0:0:0:0:
64,192,99850,1,0,0:0:0:0:
64,192,100298,128,0,100746:0:0:0:0:
448,192,100298,1,0,0:0:0:0:
192,192,100298,1,0,0:0:0:0:
192,192,100746,128,0,101194:0:0:0:0:
320,192,100746,1,0,0:0:0:0:
64,192,100970,1,0,0:0:0:0:
320,192,101194,128,0,101641:0:0:0:0:
64,192,101194,1,0,0:0:0:0:
448,192,101641,128,0,102089:0:0:0:0:
192,192,101641,1,0,0:0:0:0:
320,192,102089,128,0,102985:0:0:0:0:
64,192,102089,1,0,0:0:0:0:
448,192,102537,1,0,0:0:0:0:
192,192,102761,1,0,0:0:0:0:
64,192,102985,128,0,103432:0:0:0:0:
192,192,102985,1,0,0:0:0:0:
320,192,103432,1,0,0:0:0:0:
448,192,103880,128,0,104328:0:0:0:0:
192,192,103880,1,0,0:0:0:0:
320,192,104328,128,0,104776:0:0:0:0:
64,192,104328,1,0,0:0:0:0:
448,192,104552,1,0,0:0:0:0:
192,192,104776,128,0,105223:0:0:0:0:
448,192,104776,1,0,0:0:0:0:
448,192,105223,128,0,105447:0:0:0:0:
64,192,105223,1,0,0:0:0:0:
320,192,105447,128,0,107014:0:0:0:0:
192,192,105671,1,0,0:0:0:0:
448,192,106119,1,0,0:0:0:0:
64,192,106343,1,0,0:0:0:0:
64,192,106567,1,0,0:0:0:0:
448,192,107014,1,0,0:0:0:0:
320,192,107462,128,0,107910:0:0:0:0:
64,192,107462,1,0,0:0:0:0:
448,192,107910,128,0,108358:0:0:0:0:
192,192,107910,1,0,0:0:0:0:
64,192,108134,1,0,0:0:0:0:
320,192,108358,128,0,108805:0:0:0:0:
64,192,108358,1,0,0:0:0:0:
448,192,108805,128,0,109253:0:0:0:0:
192,192,108805,1,0,0:0:0:0:
320,192,109253,128,0,110149:0:0:0:0:
64,192,109253,1,0,0:0:0:0:
192,192,109701,1,0,0:0:0:0:
448,192,109925,1,0,0:0:0:0:
192,192,110149,128,0,111044:0:0:0:0:
64,192,110149,1,0,0:0:0:0:
320,192,110373,1,0,0:0:0:0:
320,192,110597,1,0,0:0:0:0:
448,192,110597,1,0,0:0:0:0:
64,192,110597,1,0,0:0:0:0:
64,192,111044,128,0,113507:0:0:0:0:
448,192,111044,128,0,111492:0:0:0:0:
320,192,111492,128,0,111940:0:0:0:0:
192,192,111492,1,0,0:0:0:0:
192,192,111940,128,0,112388:0:0:0:0:
320,192,112388,128,0,112835:0:0:0:0:
448,192,112388,1,0,0:0:0:0:
448,192,112835,128,0,113283:0:0:0:0:
320,192,113283,128,0,113507:0:0:0:0:
192,192,113283,1,0,0:0:0:0:
448,192,113507,128,0,113955:0:0:0:0:
320,192,113955,128,0,114179:0:0:0:0:
192,192,114179,128,0,114402:0:0:0:0:
64,192,114179,128,0,114626:0:0:0:0:
448,192,114179,1,0,0:0:0:0:
320,192,114402,128,0,114626:0:0:0:0:
192,192,114626,128,0,114850:0:0:0:0:
448,192,114626,128,0,115074:0:0:0:0:
192,192,115074,128,0,115522:0:0:0:0:
64,192,115074,1,0,0:0:0:0:
320,192,115522,128,0,115970:0:0:0:0:
192,192,115970,128,0,116417:0:0:0:0:
448,192,115970,1,0,0:0:0:0:
64,192,116417,128,0,116865:0:0:0:0:
448,192,116641,1,0,0:0:0:0:
192,192,116865,128,0,117089:0:0:0:0:
320,192,116865,1,0,0:0:0:0:
448,192,117089,128,0,117537:0:0:0:0:
64,192,117089,1,0,0:0:0:0:
192,192,117537,128,0,117761:0:0:0:0:
320,192,117537,1,0,0:0:0:0:
64,192,117761,128,0,118208:0:0:0:0:
448,192,117761,1,0,0:0:0:0:
320,192,118208,128,0,118656:0:0:0:0:
448,192,118656,128,0,118880:0:0:0:0:
64,192,118656,1,0,0:0:0:0:
192,192,118880,128,0,119552:0:0:0:0:
64,192,119104,1,0,0:0:0:0:
320,192,119552,1,0,0:0:0:0:
448,192,120000,1,0,0:0:0:0:
192,192,120000,128,0,120223:0:0:0:0:
64,192,120223,128,0,120447:0:0:0:0:
192,192,120447,128,0,120671:0:0:0:0:
448,192,120447,1,0,0:0:0:0:
64,192,120671,128,0,121343:0:0:0:0:
448,192,120895,1,0,0:0:0:0:
192,192,121343,1,0,0:0:0:0:
448,192,121343,1,0,0:0:0:0:
192,192,121791,128,0,122238:0:0:0:0:
320,192,121791,1,0,0:0:0:0:
64,192,122238,128,0,122686:0:0:0:0:
320,192,122238,1,0,0:0:0:0:
192,192,122686,128,0,122910:0:0:0:0:
448,192,122686,1,0,0:0:0:0:
320,192,122910,128,0,123134:0:0:0:0:
448,192,123134,128,0,123358:0:0:0:0:
64,192,123134,1,0,0:0:0:0:
320,192,123358,128,0,123805:0:0:0:0:
64,192,123582,128,0,123805:0:0:0:0:
448,192,123805,128,0,124925:0:0:0:0:
192,192,123805,128,0,124029:0:0:0:0:
320,192,124029,1,0,0:0:0:0:
64,192,124253,1,0,0:0:0:0:
192,192,124477,128,0,125373:0:0:0:0:
320,192,124477,1,0,0:0:0:0:
320,192,124925,1,0,0:0:0:0:
64,192,124925,1,0,0:0:0:0:
448,192,125373,1,0,0:0:0:0:
320,192,125373,1,0,0:0:0:0:
64,192,125373,1,0,0:0:0:0:
448,192,125597,1,0,0:0:0:0:
320,192,125820,128,0,126044:0:0:0:0:
192,192,125820,1,0,0:0:0:0:
448,192,126044,128,0,126716:0:0:0:0:
192,192,126268,1,0,0:0:0:0:
64,192,126716,1,0,0:0:0:0:
192,192,126716,1,0,0:0:0:0:
64,192,127164,128,0,127500:0:0:0:0:
320,192,127164,1,0,0:0:0:0:
192,192,127500,128,0,127835:0:0:0:0:
320,192,127611,1,0,0:0:0:0:
448,192,127835,128,0,128507:0:0:0:0:
320,192,128059,1,0,0:0:0:0:
64,192,128507,1,0,0:0:0:0:
320,192,128507,1,0,0:0:0:0:
192,192,128955,1,0,0:0:0:0:
320,192,129402,128,0,129626:0:0:0:0:
448,192,129402,1,0,0:0:0:0:
64,192,129626,128,0,129850:0:0:0:0:
192,192,129850,128,0,130074:0:0:0:0:
320,192,129850,1,0,0:0:0:0:
448,192,130074,128,0,130522:0:0:0:0:
192,192,130298,1,0,0:0:0:0:
64,192,130298,1,0,0:0:0:0:
320,192,130522,128,0,130970:0:0:0:0:
448,192,130746,1,0,0:0:0:0:
192,192,130970,128,0,131865:0:0:0:0:
64,192,131194,1,0,0:0:0:0:
320,192,131417,1,0,0:0:0:0:
448,192,131641,1,0,0:0:0:0:
320,192,131865,1,0,0:0:0:0:
64,192,132089,1,0,0:0:0:0:
192,192,132313,1,0,0:0:0:0:
320,192,132537,128,0,132985:0:0:0:0:
448,192,132537,128,0,132761:0:0:0:0:
64,192,132985,128,0,133208:0:0:0:0:
448,192,132985,128,0,133208:0:0:0:0:
192,192,133208,128,0,133880:0:0:0:0:
320,192,133432,128,0,133656:0:0:0:0:
320,192,133880,128,0,134104:0:0:0:0:
448,192,133880,1,0,0:0:0:0:
64,192,133880,1,0,0:0:0:0:
448,192,134328,128,0,134552:0:0:0:0:
64,192,134328,128,0,134552:0:0:0:0:
192,192,134552,128,0,134776:0:0:0:0:
320,192,134776,128,0,135000:0:0:0:0:
448,192,134776,128,0,135000:0:0:0:0:
64,192,135000,128,0,135671:0:0:0:0:
192,192,135000,1,0,0:0:0:0:
320,192,135223,128,0,135447:0:0:0:0:
192,192,135223,1,0,0:0:0:0:
320,192,135671,128,0,135895:0:0:0:0:
448,192,135671,1,0,0:0:0:0:
192,192,135671,1,0,0:0:0:0:
192,192,136119,128,0,136567:0:0:0:0:
448,192,136119,128,0,136343:0:0:0:0:
320,192,136119,1,0,0:0:0:0:
320,192,136567,128,0,137014:0:0:0:0:
448,192,136567,128,0,136791:0:0:0:0:
64,192,136791,1,0,0:0:0:0:
448,192,137014,128,0,137238:0:0:0:0:
192,192,137014,128,0,137238:0:0:0:0:
64,192,137014,1,0,0:0:0:0:
320,192,137238,128,0,137462:0:0:0:0:
192,192,137462,128,0,137686:0:0:0:0:
64,192,137462,1,0,0:0:0:0:
448,192,137686,128,0,138134:0:0:0:0:
320,192,137686,128,0,137910:0:0:0:0:
64,192,137910,128,0,138134:0:0:0:0:
320,192,138134,128,0,139253:0:0:0:0:
192,192,138134,128,0,138358:0:0:0:0:
64,192,138358,1,0,0:0:0:0:
192,192,138582,1,0,0:0:0:0:
448,192,138805,128,0,139701:0:0:0:0:
64,192,138805,1,0,0:0:0:0:
192,192,138805,1,0,0:0:0:0:
192,192,139253,1,0,0:0:0:0:
64,192,139253,1,0,0:0:0:0:
192,192,139701,128,0,139925:0:0:0:0:
320,192,139701,128,0,139925:0:0:0:0:
64,192,139925,128,0,140149:0:0:0:0:
192,192,140149,128,0,140373:0:0:0:0:
448,192,140149,128,0,140373:0:0:0:0:
320,192,140373,128,0,141044:0:0:0:0:
64,192,140373,1,0,0:0:0:0:
64,192,140597,128,0,140820:0:0:0:0:
448,192,141044,128,0,141268:0:0:0:0:
192,192,141044,1,0,0:0:0:0:
64,192,141044,1,0,0:0:0:0:
320,192,141268,128,0,141492:0:0:0:0:
192,192,141492,128,0,141940:0:0:0:0:
448,192,141492,128,0,141716:0:0:0:0:
64,192,141940,128,0,142164:0:0:0:0:
320,192,141940,128,0,142164:0:0:0:0:
448,192,142164,128,0,142835:0:0:0:0:
192,192,142164,1,0,0:0:0:0:
64,192,142388,128,0,142611:0:0:0:0:
192,192,142388,1,0,0:0:0:0:
64,192,142835,128,0,143059:0:0:0:0:
192,192,142835,1,0,0:0:0:0:
320,192,142835,1,0,0:0:0:0:
192,192,143283,128,0,143731:0:0:0:0:
64,192,143283,128,0,143507:0:0:0:0:
448,192,143731,128,0,144179:0:0:0:0:
64,192,143731,128,0,143955:0:0:0:0:
320,192,143955,1,0,0:0:0:0:
320,192,144179,128,0,144402:0:0:0:0:
64,192,144179,128,0,144402:0:0:0:0:
192,192,144402,128,0,144626:0:0:0:0:
64,192,144626,128,0,144850:0:0:0:0:
320,192,144626,128,0,144850:0:0:0:0:
448,192,144626,1,0,0:0:0:0:
448,192,144850,128,0,145970:0:0:0:0:
192,192,144850,1,0,0:0:0:0:
64,192,145298,1,0,0:0:0:0:
320,192,145522,1,0,0:0:0:0:
64,192,145746,5,0,0:0:0:0:
192,192,145858,1,0,0:0:0:0:
320,192,145970,1,0,0:0:0:0:
192,192,146194,128,0,146865:0:0:0:0:
448,192,146865,1,0,0:0:0:0:
64,192,146865,1,0,0:0:0:0:
192,192,147313,128,0,148208:0:0:0:0:
320,192,147313,1,0,0:0:0:0:
448,192,147537,1,0,0:0:0:0:
448,192,147761,1,0,0:0:0:0:
64,192,148208,128,0,148656:0:0:0:0:
320,192,148208,1,0,0:0:0:0:
192,192,148656,128,0,149328:0:0:0:0:
448,192,148656,1,0,0:0:0:0:
320,192,149104,1,0,0:0:0:0:
64,192,149328,128,0,149776:0:0:0:0:
448,192,149328,1,0,0:0:0:0:
320,192,149552,128,0,149776:0:0:0:0:
192,192,149552,1,0,0:0:0:0:
448,192,149776,128,0,150223:0:0:0:0:
64,192,150000,1,0,0:0:0:0:
192,192,150223,128,0,150447:0:0:0:0:
448,192,150447,128,0,152238:0:0:0:0:
320,192,150447,1,0,0:0:0:0:
320,192,150895,128,0,151791:0:0:0:0:
64,192,150895,1,0,0:0:0:0:
192,192,151119,1,0,0:0:0:0:
192,192,151343,1,0,0:0:0:0:
192,192,151791,128,0,152238:0:0:0:0:
64,192,151791,1,0,0:0:0:0:
320,192,152238,128,0,152686:0:0:0:0:
64,192,152238,1,0,0:0:0:0:
448,192,152686,128,0,152910:0:0:0:0:
192,192,152686,1,0,0:0:0:0:
64,192,152910,128,0,153582:0:0:0:0:
320,192,152910,1,0,0:0:0:0:
448,192,153134,1,0,0:0:0:0:
448,192,153358,1,0,0:0:0:0:
192,192,153582,1,0,0:0:0:0:
320,192,153582,1,0,0:0:0:0:
64,192,154029,1,0,0:0:0:0:
448,192,154477,128,0,154925:0:0:0:0:
320,192,154477,1,0,0:0:0:0:
192,192,154701,1,0,0:0:0:0:
64,192,154925,128,0,155373:0:0:0:0:
192,192,154925,1,0,0:0:0:0:
320,192,155373,128,0,155597:0:0:0:0:
448,192,155373,1,0,0:0:0:0:
192,192,155485,1,0,0:0:0:0:
448,192,155597,128,0,155932:0:0:0:0:
64,192,155597,1,0,0:0:0:0:
448,192,156044,1,0,0:0:0:0:
192,192,156044,1,0,0:0:0:0:
320,192,156268,1,0,0:0:0:0:
192,192,156268,1,0,0:0:0:0:
320,192,156492,1,0,0:0:0:0:
64,192,156492,1,0,0:0:0:0:
192,192,156716,128,0,157164:0:0:0:0:
448,192,156716,1,0,0:0:0:0:
448,192,157164,128,0,157611:0:0:0:0:
64,192,157164,1,0,0:0:0:0:
320,192,157164,1,0,0:0:0:0:
192,192,157611,128,0,158283:0:0:0:0:
320,192,157611,1,0,0:0:0:0:
448,192,158059,5,0,0:0:0:0:
64,192,158283,128,0,159850:0:0:0:0:
320,192,158283,1,0,0:0:0:0:
192,192,158507,1,0,0:0:0:0:
448,192,158955,1,0,0:0:0:0:
320,192,158955,1,0,0:0:0:0:
448,192,159402,1,0,0:0:0:0:
320,192,159402,128,0,159850:0:0:0:0:
448,192,159850,1,0,0:0:0:0:
192,192,159850,128,0,160298:0:0:0:0:
320,192,160074,1,0,0:0:0:0:
64,192,160298,128,0,160746:0:0:0:0:
320,192,160298,1,0,0:0:0:0:
192,192,160522,1,0,0:0:0:0:
448,192,160746,1,0,0:0:0:0:
320,192,160746,128,0,161194:0:0:0:0:
192,192,161194,128,0,162985:0:0:0:0:
64,192,161194,1,0,0:0:0:0:
448,192,161194,1,0,0:0:0:0:
320,192,161641,128,0,162537:0:0:0:0:
64,192,161641,1,0,0:0:0:0:
448,192,161865,1,0,0:0:0:0:
448,192,162089,1,0,0:0:0:0:
448,192,162537,128,0,162985:0:0:0:0:
64,192,162537,1,0,0:0:0:0:
320,192,162985,128,0,163656:0:0:0:0:
64,192,162985,1,0,0:0:0:0:
192,192,163432,1,0,0:0:0:0:
448,192,163656,128,0,164328:0:0:0:0:
64,192,163656,1,0,0:0:0:0:
192,192,163880,128,0,164104:0:0:0:0:
320,192,163880,1,0,0:0:0:0:
64,192,164104,128,0,164552:0:0:0:0:
192,192,164328,1,0,0:0:0:0:
320,192,164552,128,0,164776:0:0:0:0:
448,192,164776,128,0,166567:0:0:0:0:
64,192,164776,1,0,0:0:0:0:
192,192,165223,128,0,166119:0:0:0:0:
320,192,165223,1,0,0:0:0:0:
64,192,165447,1,0,0:0:0:0:
64,192,165671,1,0,0:0:0:0:
64,192,166119,128,0,166567:0:0:0:0:
320,192,166119,1,0,0:0:0:0:
192,192,166567,128,0,167014:0:0:0:0:
320,192,166567,1,0,0:0:0:0:
320,192,167014,128,0,167238:0:0:0:0:
448,192,167014,1,0,0:0:0:0:
64,192,167238,128,0,167686:0:0:0:0:
192,192,167238,1,0,0:0:0:0:
320,192,167462,1,0,0:0:0:0:
320,192,167686,1,0,0:0:0:0:
64,192,167910,1,0,0:0:0:0:
192,192,167910,1,0,0:0:0:0:
448,192,167910,1,0,0:0:0:0:
448,192,168134,1,0,0:0:0:0:
64,192,168358,1,0,0:0:0:0:
320,192,168805,128,0,169253:0:0:0:0:
192,192,168805,1,0,0:0:0:0:
448,192,169029,1,0,0:0:0:0:
192,192,169253,128,0,169701:0:0:0:0:
448,192,169253,1,0,0:0:0:0:
64,192,169701,128,0,170149:0:0:0:0:
320,192,169701,1,0,0:0:0:0:
320,192,170149,128,0,170373:0:0:0:0:
192,192,170149,1,0,0:0:0:0:
448,192,170373,128,0,170597:0:0:0:0:
320,192,170597,1,0,0:0:0:0:
64,192,170597,1,0,0:0:0:0:
320,192,170820,5,0,0:0:0:0:
448,192,170820,1,0,0:0:0:0:
192,192,171044,128,0,171492:0:0:0:0:
448,192,171044,1,0,0:0:0:0:
64,192,171492,128,0,171940:0:0:0:0:
320,192,171492,1,0,0:0:0:0:
320,192,171940,128,0,172611:0:0:0:0:
192,192,171940,1,0,0:0:0:0:
64,192,172388,1,0,0:0:0:0:
448,192,172388,1,0,0:0:0:0:
192,192,172611,128,0,175074:0:0:0:0:
64,192,172835,1,0,0:0:0:0:
320,192,172835,1,0,0:0:0:0:
448,192,172835,1,0,0:0:0:0:
64,192,173283,1,0,0:0:0:0:
448,192,173283,1,0,0:0:0:0:
320,192,173283,1,0,0:0:0:0:
320,192,173731,128,0,175522:0:0:0:0:
64,192,173731,1,0,0:0:0:0:
448,192,174179,1,0,0:0:0:0:
64,192,174402,1,0,0:0:0:0:
448,192,174626,1,0,0:0:0:0:
448,192,174850,1,0,0:0:0:0:
64,192,174962,1,0,0:0:0:0:
448,192,174962,1,0,0:0:0:0:
448,192,175186,1,0,0:0:0:0:
192,192,175186,1,0,0:0:0:0:
192,192,175298,1,0,0:0:0:0:
64,192,175298,1,0,0:0:0:0:
448,192,175522,128,0,176865:0:0:0:0:
64,192,175522,1,0,0:0:0:0:
320,192,175970,1,0,0:0:0:0:
64,192,175970,1,0,0:0:0:0:
192,192,176194,1,0,0:0:0:0:
192,192,176417,1,0,0:0:0:0:
64,192,176417,1,0,0:0:0:0:
64,192,176865,128,0,177089:0:0:0:0:
320,192,176865,1,0,0:0:0:0:
192,192,176865,1,0,0:0:0:0:
192,192,177089,128,0,177313:0:0:0:0:
320,192,177313,128,0,177761:0:0:0:0:
64,192,177313,1,0,0:0:0:0:
448,192,177313,1,0,0:0:0:0:
192,192,177761,128,0,177985:0:0:0:0:
448,192,177761,1,0,0:0:0:0:
64,192,177761,1,0,0:0:0:0:
320,192,177985,128,0,178208:0:0:0:0:
448,192,177985,1,0,0:0:0:0:
448,192,178208,128,0,178656:0:0:0:0:
64,192,178208,1,0,0:0:0:0:
192,192,178208,1,0,0:0:0:0:
192,192,178656,128,0,178880:0:0:0:0:
320,192,178656,1,0,0:0:0:0:
64,192,178880,128,0,179552:0:0:0:0:
448,192,178880,1,0,0:0:0:0:
192,192,179104,1,0,0:0:0:0:
320,192,179552,128,0,179776:0:0:0:0:
448,192,179552,1,0,0:0:0:0:
192,192,179776,128,0,180447:0:0:0:0:
64,192,179776,1,0,0:0:0:0:
64,192,180000,1,0,0:0:0:0:
64,192,180447,128,0,180671:0:0:0:0:
448,192,180447,1,0,0:0:0:0:
320,192,180447,1,0,0:0:0:0:
192,192,180671,128,0,182238:0:0:0:0:
448,192,180895,1,0,0:0:0:0:
64,192,181343,1,0,0:0:0:0:
320,192,181567,1,0,0:0:0:0:
320,192,181791,1,0,0:0:0:0:
448,192,182238,1,0,0:0:0:0:
64,192,182686,128,0,184029:0:0:0:0:
192,192,182686,1,0,0:0:0:0:
320,192,183134,1,0,0:0:0:0:
448,192,183134,1,0,0:0:0:0:
192,192,183358,1,0,0:0:0:0:
192,192,183582,1,0,0:0:0:0:
192,192,184029,128,0,184253:0:0:0:0:
448,192,184029,1,0,0:0:0:0:
320,192,184029,1,0,0:0:0:0:
320,192,184253,128,0,184477:0:0:0:0:
448,192,184477,128,0,184925:0:0:0:0:
64,192,184477,1,0,0:0:0:0:
192,192,184477,1,0,0:0:0:0:
64,192,184925,128,0,185149:0:0:0:0:
320,192,184925,1,0,0:0:0:0:
192,192,184925,1,0,0:0:0:0:
192,192,185149,128,0,185373:0:0:0:0:
320,192,185149,1,0,0:0:0:0:
448,192,185149,1,0,0:0:0:0:
320,192,185373,128,0,185597:0:0:0:0:
64,192,185373,1,0,0:0:0:0:
448,192,185373,1,0,0:0:0:0:
320,192,185820,1,0,0:0:0:0:
64,192,185820,1,0,0:0:0:0:
192,192,185820,1,0,0:0:0:0:
320,192,186044,1,0,0:0:0:0:
320,192,186268,128,0,186716:0:0:0:0:
448,192,186268,1,0,0:0:0:0:
64,192,186268,1,0,0:0:0:0:
64,192,186716,128,0,186940:0:0:0:0:
448,192,186716,1,0,0:0:0:0:
192,192,186940,128,0,187611:0:0:0:0:
320,192,186940,1,0,0:0:0:0:
448,192,187164,1,0,0:0:0:0:
448,192,187611,128,0,187835:0:0:0:0:
64,192,187611,1,0,0:0:0:0:
320,192,187611,1,0,0:0:0:0:
320,192,187835,128,0,189402:0:0:0:0:
192,192,188059,1,0,0:0:0:0:
64,192,188059,1,0,0:0:0:0:
448,192,188507,1,0,0:0:0:0:
192,192,188507,1,0,0:0:0:0:
192,192,188731,1,0,0:0:0:0:
64,192,188955,1,0,0:0:0:0:
448,192,188955,1,0,0:0:0:0:
192,192,189179,1,0,0:0:0:0:
448,192,189402,1,0,0:0:0:0:
64,192,189402,1,0,0:0:0:0:
320,192,189850,1,0,0:0:0:0:
64,192,189850,128,0,190746:0:0:0:0:
192,192,189850,1,0,0:0:0:0:
192,192,190298,128,0,191194:0:0:0:0:
320,192,190298,1,0,0:0:0:0:
448,192,190522,1,0,0:0:0:0:
320,192,190746,128,0,191641:0:0:0:0:
448,192,190746,1,0,0:0:0:0:
64,192,191194,1,0,0:0:0:0:
448,192,191194,128,0,192089:0:0:0:0:
192,192,191641,128,0,192537:0:0:0:0:
64,192,191641,1,0,0:0:0:0:
320,192,192089,1,0,0:0:0:0:
448,192,192313,1,0,0:0:0:0:
448,192,192537,1,0,0:0:0:0:
64,192,192537,128,0,192985:0:0:0:0:
192,192,192985,1,0,0:0:0:0:
320,192,193432,128,0,193880:0:0:0:0:
64,192,193432,1,0,0:0:0:0:
448,192,193432,1,0,0:0:0:0:
192,192,193880,128,0,194328:0:0:0:0:
448,192,193880,1,0,0:0:0:0:
320,192,194104,1,0,0:0:0:0:
64,192,194328,128,0,194776:0:0:0:0:
320,192,194328,1,0,0:0:0:0:
320,192,194776,128,0,195000:0:0:0:0:
448,192,194776,1,0,0:0:0:0:
192,192,195000,128,0,196567:0:0:0:0:
64,192,195223,1,0,0:0:0:0:
448,192,195671,1,0,0:0:0:0:
320,192,195895,1,0,0:0:0:0:
64,192,196119,1,0,0:0:0:0:
320,192,196567,1,0,0:0:0:0:
448,192,196567,1,0,0:0:0:0:
320,192,197014,128,0,197462:0:0:0:0:
64,192,197014,1,0,0:0:0:0:
448,192,197462,128,0,197910:0:0:0:0:
192,192,197462,1,0,0:0:0:0:
64,192,197686,1,0,0:0:0:0:
320,192,197910,128,0,198358:0:0:0:0:
64,192,197910,1,0,0:0:0:0:
448,192,198358,128,0,198805:0:0:0:0:
64,192,198358,1,0,0:0:0:0:
320,192,198805,128,0,199701:0:0:0:0:
192,192,198805,1,0,0:0:0:0:
64,192,199253,1,0,0:0:0:0:
448,192,199253,1,0,0:0:0:0:
192,192,199477,1,0,0:0:0:0:
192,192,199701,128,0,200597:0:0:0:0:
64,192,199701,1,0,0:0:0:0:
448,192,199701,1,0,0:0:0:0:
64,192,199813,1,0,0:0:0:0:
448,192,199813,1,0,0:0:0:0:
320,192,199925,1,0,0:0:0:0:
320,192,200149,1,0,0:0:0:0:
64,192,200149,1,0,0:0:0:0:
320,192,200261,1,0,0:0:0:0:
64,192,200261,1,0,0:0:0:0:
448,192,200373,1,0,0:0:0:0:
64,192,200597,128,0,202388:0:0:0:0:
320,192,200597,128,0,201940:0:0:0:0:
448,192,201044,1,0,0:0:0:0:
192,192,201268,1,0,0:0:0:0:
192,192,201492,1,0,0:0:0:0:
192,192,201940,128,0,202164:0:0:0:0:
448,192,201940,1,0,0:0:0:0:
320,192,202164,128,0,202388:0:0:0:0:
448,192,202388,128,0,202835:0:0:0:0:
192,192,202388,1,0,0:0:0:0:
320,192,202835,128,0,203059:0:0:0:0:
64,192,202835,1,0,0:0:0:0:
192,192,202835,1,0,0:0:0:0:
192,192,203059,128,0,203283:0:0:0:0:
448,192,203059,1,0,0:0:0:0:
64,192,203059,1,0,0:0:0:0:
448,192,203283,1,0,0:0:0:0:
64,192,203283,128,0,203731:0:0:0:0:
320,192,203283,1,0,0:0:0:0:
192,192,203731,128,0,203955:0:0:0:0:
448,192,203731,1,0,0:0:0:0:
320,192,203955,128,0,204626:0:0:0:0:
192,192,204179,1,0,0:0:0:0:
448,192,204626,128,0,204850:0:0:0:0:
64,192,204626,1,0,0:0:0:0:
192,192,204850,128,0,205522:0:0:0:0:
320,192,204850,1,0,0:0:0:0:
320,192,205074,1,0,0:0:0:0:
64,192,205522,128,0,205746:0:0:0:0:
448,192,205522,1,0,0:0:0:0:
192,192,205746,128,0,207313:0:0:0:0:
320,192,205970,1,0,0:0:0:0:
64,192,205970,1,0,0:0:0:0:
448,192,206417,1,0,0:0:0:0:
64,192,206641,1,0,0:0:0:0:
64,192,206865,1,0,0:0:0:0:
64,192,207313,1,0,0:0:0:0:
448,192,207313,1,0,0:0:0:0:
320,192,207761,128,0,209104:0:0:0:0:
192,192,207761,1,0,0:0:0:0:
64,192,208208,1,0,0:0:0:0:
192,192,208432,1,0,0:0:0:0:
448,192,208432,1,0,0:0:0:0:
192,192,208656,1,0,0:0:0:0:
448,192,208656,1,0,0:0:0:0:
448,192,209104,1,0,0:0:0:0:
64,192,209104,128,0,209328:0:0:0:0:
192,192,209328,128,0,209552:0:0:0:0:
320,192,209552,128,0,210000:0:0:0:0:
64,192,209552,1,0,0:0:0:0:
448,192,209552,1,0,0:0:0:0:
64,192,210000,1,0,0:0:0:0:
448,192,210000,128,0,210223:0:0:0:0:
192,192,210000,1,0,0:0:0:0:
64,192,210223,1,0,0:0:0:0:
192,192,210223,128,0,210447:0:0:0:0:
320,192,210223,1,0,0:0:0:0:
64,192,210447,128,0,210671:0:0:0:0:
320,192,210447,1,0,0:0:0:0:
448,192,210447,1,0,0:0:0:0:
192,192,210895,1,0,0:0:0:0:
320,192,210895,1,0,0:0:0:0:
192,192,211119,1,0,0:0:0:0:
192,192,211343,128,0,211791:0:0:0:0:
448,192,211343,1,0,0:0:0:0:
64,192,211343,1,0,0:0:0:0:
64,192,211791,1,0,0:0:0:0:
448,192,211791,128,0,212014:0:0:0:0:
320,192,212014,128,0,212686:0:0:0:0:
192,192,212014,1,0,0:0:0:0:
192,192,212238,1,0,0:0:0:0:
64,192,212686,128,0,212910:0:0:0:0:
448,192,212686,1,0,0:0:0:0:
192,192,212910,128,0,214477:0:0:0:0:
320,192,213134,1,0,0:0:0:0:
64,192,213582,1,0,0:0:0:0:
320,192,213805,1,0,0:0:0:0:
448,192,214029,1,0,0:0:0:0:
320,192,214253,1,0,0:0:0:0:
448,192,214253,1,0,0:0:0:0:
64,192,214477,1,0,0:0:0:0:
320,192,214477,1,0,0:0:0:0:
448,192,214925,128,0,215820:0:0:0:0:
320,192,214925,1,0,0:0:0:0:
64,192,214925,1,0,0:0:0:0:
320,192,215373,128,0,216268:0:0:0:0:
192,192,215373,1,0,0:0:0:0:
64,192,215597,1,0,0:0:0:0:
192,192,215820,128,0,216716:0:0:0:0:
64,192,215820,1,0,0:0:0:0:
64,192,216268,128,0,217164:0:0:0:0:
448,192,216268,1,0,0:0:0:0:
448,192,216716,1,0,0:0:0:0:
320,192,216716,128,0,217611:0:0:0:0:
192,192,217164,1,0,0:0:0:0:
64,192,217388,1,0,0:0:0:0:
64,192,217611,1,0,0:0:0:0:
448,192,217611,128,0,218059:0:0:0:0:
192,192,218059,1,0,0:0:0:0:
320,192,218059,1,0,0:0:0:0:
64,192,218507,128,0,219402:0:0:0:0:
448,192,218507,1,0,0:0:0:0:
192,192,218955,128,0,220074:0:0:0:0:
320,192,218955,1,0,0:0:0:0:
448,192,219179,1,0,0:0:0:0:
320,192,219402,128,0,219850:0:0:0:0:
448,192,219402,1,0,0:0:0:0:
448,192,219850,128,0,220074:0:0:0:0:
320,192,220074,128,0,221641:0:0:0:0:
64,192,220298,1,0,0:0:0:0:
448,192,220746,1,0,0:0:0:0:
192,192,220970,1,0,0:0:0:0:
192,192,221194,1,0,0:0:0:0:
448,192,221641,1,0,0:0:0:0:
64,192,222089,128,0,222985:0:0:0:0:
320,192,222089,1,0,0:0:0:0:
320,192,222537,128,0,223432:0:0:0:0:
192,192,222537,1,0,0:0:0:0:
448,192,222761,1,0,0:0:0:0:
192,192,222985,128,0,223880:0:0:0:0:
448,192,222985,1,0,0:0:0:0:
64,192,223432,1,0,0:0:0:0:
448,192,223432,128,0,224328:0:0:0:0:
320,192,223880,128,0,224776:0:0:0:0:
64,192,223880,1,0,0:0:0:0:
192,192,224328,1,0,0:0:0:0:
64,192,224552,1,0,0:0:0:0:
64,192,224776,1,0,0:0:0:0:
192,192,224776,128,0,225671:0:0:0:0:
448,192,225000,1,0,0:0:0:0:
320,192,225000,1,0,0:0:0:0:
64,192,225000,1,0,0:0:0:0:
320,192,225223,1,0,0:0:0:0:
448,192,225223,1,0,0:0:0:0:
64,192,225223,1,0,0:0:0:0:
64,192,225671,128,0,227910:0:0:0:0:
320,192,225671,1,0,0:0:0:0:
448,192,225671,1,0,0:0:0:0:
448,192,226119,1,0,0:0:0:0:
192,192,226343,1,0,0:0:0:0:
192,192,226567,1,0,0:0:0:0:
320,192,227014,1,0,0:0:0:0:
448,192,227014,1,0,0:0:0:0:
192,192,227462,1,0,0:0:0:0:
448,192,227910,1,0,0:0:0:0:
192,192,227910,1,0,0:0:0:0:
320,192,228134,1,0,0:0:0:0:
192,192,228582,1,0,0:0:0:0:
64,192,228805,1,0,0:0:0:0:
192,192,229253,128,0,229701:0:0:0:0:
448,192,229253,128,0,229589:0:0:0:0:
320,192,229701,128,0,230149:0:0:0:0:
448,192,229701,1,0,0:0:0:0:
448,192,229925,1,0,0:0:0:0:
64,192,230149,128,0,230597:0:0:0:0:
448,192,230149,1,0,0:0:0:0:
448,192,230373,1,0,0:0:0:0:
448,192,230597,128,0,231044:0:0:0:0:
320,192,230597,128,0,230820:0:0:0:0:
192,192,230820,128,0,231044:0:0:0:0:
320,192,231044,128,0,231940:0:0:0:0:
64,192,231044,128,0,231380:0:0:0:0:
64,192,231492,1,0,0:0:0:0:
64,192,231716,1,0,0:0:0:0:
64,192,231940,1,0,0:0:0:0:
192,192,231940,128,0,232388:0:0:0:0:
64,192,232164,1,0,0:0:0:0:
64,192,232388,128,0,232611:0:0:0:0:
192,192,232611,128,0,232835:0:0:0:0:
448,192,232835,128,0,233283:0:0:0:0:
320,192,232835,128,0,233171:0:0:0:0:
192,192,233283,128,0,233731:0:0:0:0:
320,192,233283,1,0,0:0:0:0:
320,192,233507,1,0,0:0:0:0:
64,192,233731,128,0,234179:0:0:0:0:
320,192,233731,1,0,0:0:0:0:
320,192,233955,1,0,0:0:0:0:
448,192,234179,128,0,234402:0:0:0:0:
192,192,234179,128,0,234402:0:0:0:0:
320,192,234402,128,0,235970:0:0:0:0:
64,192,234402,128,0,234626:0:0:0:0:
192,192,234626,128,0,234962:0:0:0:0:
192,192,235074,1,0,0:0:0:0:
192,192,235298,1,0,0:0:0:0:
192,192,235522,1,0,0:0:0:0:
192,192,235746,1,0,0:0:0:0:
192,192,235970,128,0,236194:0:0:0:0:
448,192,236194,128,0,236417:0:0:0:0:
64,192,236417,128,0,236865:0:0:0:0:
320,192,236417,128,0,237089:0:0:0:0:
192,192,236865,128,0,237313:0:0:0:0:
448,192,237089,128,0,237761:0:0:0:0:
64,192,237313,128,0,237761:0:0:0:0:
320,192,237537,128,0,238208:0:0:0:0:
192,192,237761,128,0,238208:0:0:0:0:
448,192,238208,128,0,239104:0:0:0:0:
64,192,238208,128,0,240447:0:0:0:0:
320,192,239104,128,0,240000:0:0:0:0:
192,192,240000,128,0,244029:0:0:0:0:
448,192,240000,128,0,240447:0:0:0:0:
320,192,240447,128,0,240895:0:0:0:0:
64,192,240895,128,0,241343:0:0:0:0:
448,192,241343,1,0,0:0:0:0:
320,192,241343,128,0,241791:0:0:0:0:
64,192,241791,128,0,242910:0:0:0:0:
320,192,242238,128,0,242462:0:0:0:0:
448,192,242462,128,0,242910:0:0:0:0:
320,192,242910,128,0,243134:0:0:0:0:
448,192,243134,128,0,250746:0:0:0:0:
64,192,243134,1,0,0:0:0:0:
320,192,243582,128,0,244477:0:0:0:0:
64,192,244029,128,0,244477:0:0:0:0:
192,192,244477,128,0,244925:0:0:0:0:
320,192,244925,1,0,0:0:0:0:
64,192,244925,128,0,245820:0:0:0:0:
192,192,245373,128,0,246492:0:0:0:0:
320,192,245820,128,0,246044:0:0:0:0:
64,192,246044,128,0,246492:0:0:0:0:
320,192,246492,128,0,246716:0:0:0:0:
192,192,246716,1,0,0:0:0:0:
64,192,246716,1,0,0:0:0:0:
64,192,247164,1,0,0:0:0:0:
192,192,247611,1,0,0:0:0:0:
320,192,248059,1,0,0:0:0:0:
192,192,248507,1,0,0:0:0:0:
64,192,248955,1,0,0:0:0:0:
192,192,249402,1,0,0:0:0:0:
320,192,249626,1,0,0:0:0:0:
192,192,250074,1,0,0:0:0:0:
64,192,250298,1,0,0:0:0:0:
192,192,250746,1,0,0:0:0:0:
320,192,251194,1,0,0:0:0:0:
448,192,251641,1,0,0:0:0:0:
192,192,252089,1,0,0:0:0:0:
64,192,252537,1,0,0:0:0:0:
320,192,252985,1,0,0:0:0:0:
448,192,253208,1,0,0:0:0:0:
192,192,253656,1,0,0:0:0:0:
64,192,253880,1,0,0:0:0:0:
