osu file format v13

[General]
AudioFilename: ONE PIECE memories 02.mp3
AudioLeadIn: 0
PreviewTime: 85800
Countdown: 0
SampleSet: Soft
StackLeniency: 0.7
Mode: 3
LetterboxInBreaks: 0
SpecialStyle: 0
WidescreenStoryboard: 1

[Editor]
DistanceSpacing: 0.5
BeatDivisor: 2
GridSize: 4
TimelineZoom: 1.66

[Metadata]
Title:memories
TitleUnicode:memories
Artist:Maki Ootsuki
ArtistUnicode:大槻真希
Creator:LightAN21
Version:4K Easy
Source:One Piece
Tags:Ending
BeatmapID:470517
BeatmapSetID:193904

[Difficulty]
HPDrainRate:4
CircleSize:4
OverallDifficulty:7
ApproachRate:5
SliderMultiplier:1.4
SliderTickRate:1

[Events]
//Background and Video events
0,0,"One_Piece_Memories_2010_by_Giamini.jpg",0,0
//Break Periods
//Storyboard Layer 0 (Background)
//Storyboard Layer 1 (Fail)
//Storyboard Layer 2 (Pass)
//Storyboard Layer 3 (Foreground)
//Storyboard Sound Samples
//Background Colour Transformations
3,100,163,162,255

[TimingPoints]
0,447.761194029851,4,2,1,50,1,0
85970,-100,4,2,1,50,0,1
114626,-100,4,2,1,50,0,0
175522,-100,4,2,1,50,0,1
227462,-100,4,2,1,50,0,0

[HitObjects]
448,192,8507,5,0,0:0:0:0:
64,192,10298,1,0,0:0:0:0:
320,192,12089,1,0,0:0:0:0:
192,192,13880,1,0,0:0:0:0:
448,192,15671,1,0,0:0:0:0:
64,192,17462,1,0,0:0:0:0:
320,192,19253,1,0,0:0:0:0:
192,192,21044,1,0,0:0:0:0:
448,192,21492,1,0,0:0:0:0:
448,192,21940,1,0,0:0:0:0:
448,192,22388,1,0,0:0:0:0:
192,192,22835,1,0,0:0:0:0:
64,192,23283,1,0,0:0:0:0:
64,192,23731,1,0,0:0:0:0:
64,192,24179,1,0,0:0:0:0:
192,192,24626,1,0,0:0:0:0:
320,192,25074,1,0,0:0:0:0:
320,192,25522,1,0,0:0:0:0:
320,192,25970,1,0,0:0:0:0:
64,192,26417,1,0,0:0:0:0:
192,192,26865,1,0,0:0:0:0:
192,192,27313,1,0,0:0:0:0:
192,192,27761,1,0,0:0:0:0:
448,192,28208,1,0,0:0:0:0:
320,192,28656,128,0,30447:0:0:0:0:
192,192,30447,128,0,32238:0:0:0:0:
64,192,32238,128,0,33134:0:0:0:0:
448,192,33134,128,0,34029:0:0:0:0:
320,192,34029,128,0,35820:0:0:0:0:
64,192,35820,128,0,37611:0:0:0:0:
320,192,37611,128,0,39402:0:0:0:0:
192,192,39402,128,0,40970:0:0:0:0:
448,192,40970,128,0,41417:0:0:0:0:
320,192,41417,1,0,0:0:0:0:
320,192,41865,128,0,42985:0:0:0:0:
448,192,42985,128,0,44776:0:0:0:0:
192,192,44776,128,0,46567:0:0:0:0:
320,192,46567,128,0,47462:0:0:0:0:
192,192,47462,128,0,48358:0:0:0:0:
64,192,48358,128,0,50149:0:0:0:0:
192,192,50149,128,0,51940:0:0:0:0:
320,192,51940,128,0,53731:0:0:0:0:
64,192,53731,128,0,54626:0:0:0:0:
320,192,54626,128,0,55522:0:0:0:0:
192,192,55522,128,0,56865:0:0:0:0:
448,192,55522,128,0,56865:0:0:0:0:
320,192,56865,128,0,57313:0:0:0:0:
448,192,57761,1,0,0:0:0:0:
64,192,58656,1,0,0:0:0:0:
320,192,59552,1,0,0:0:0:0:
192,192,60447,1,0,0:0:0:0:
448,192,61343,1,0,0:0:0:0:
192,192,62238,1,0,0:0:0:0:
448,192,63134,1,0,0:0:0:0:
64,192,63134,1,0,0:0:0:0:
320,192,63358,1,0,0:0:0:0:
64,192,64029,1,0,0:0:0:0:
448,192,64029,1,0,0:0:0:0:
320,192,64925,1,0,0:0:0:0:
192,192,64925,1,0,0:0:0:0:
320,192,65820,1,0,0:0:0:0:
192,192,65932,1,0,0:0:0:0:
64,192,66044,1,0,0:0:0:0:
320,192,66716,1,0,0:0:0:0:
448,192,67611,1,0,0:0:0:0:
64,192,68507,1,0,0:0:0:0:
192,192,69402,1,0,0:0:0:0:
448,192,69850,1,0,0:0:0:0:
448,192,70298,1,0,0:0:0:0:
192,192,71194,1,0,0:0:0:0:
448,192,71194,1,0,0:0:0:0:
64,192,72089,1,0,0:0:0:0:
192,192,72089,1,0,0:0:0:0:
448,192,72985,1,0,0:0:0:0:
320,192,72985,1,0,0:0:0:0:
448,192,73880,1,0,0:0:0:0:
192,192,73880,1,0,0:0:0:0:
320,192,74776,1,0,0:0:0:0:
64,192,74776,1,0,0:0:0:0:
192,192,75671,1,0,0:0:0:0:
320,192,75671,1,0,0:0:0:0:
64,192,76567,1,0,0:0:0:0:
448,192,76567,1,0,0:0:0:0:
320,192,77462,1,0,0:0:0:0:
192,192,77462,1,0,0:0:0:0:
448,192,77686,1,0,0:0:0:0:
64,192,78358,1,0,0:0:0:0:
192,192,78358,1,0,0:0:0:0:
448,192,79253,1,0,0:0:0:0:
448,192,80149,1,0,0:0:0:0:
320,192,80149,1,0,0:0:0:0:
320,192,81044,1,0,0:0:0:0:
192,192,81044,1,0,0:0:0:0:
64,192,81940,1,0,0:0:0:0:
192,192,81940,1,0,0:0:0:0:
64,192,82835,1,0,0:0:0:0:
192,192,83731,1,0,0:0:0:0:
320,192,83731,1,0,0:0:0:0:
448,192,84626,1,0,0:0:0:0:
192,192,84626,1,0,0:0:0:0:
192,192,85074,1,0,0:0:0:0:
320,192,85074,1,0,0:0:0:0:
320,192,85522,1,0,0:0:0:0:
192,192,85634,1,0,0:0:0:0:
64,192,85746,1,0,0:0:0:0:
448,192,85970,128,0,89552:0:0:0:0:
320,192,89552,128,0,92238:0:0:0:0:
192,192,92238,128,0,93134:0:0:0:0:
64,192,93134,128,0,96268:0:0:0:0:
448,192,96268,128,0,96716:0:0:0:0:
320,192,96716,128,0,99402:0:0:0:0:
192,192,99402,128,0,100298:0:0:0:0:
448,192,100298,128,0,102089:0:0:0:0:
64,192,102089,128,0,103880:0:0:0:0:
320,192,103880,128,0,105671:0:0:0:0:
448,192,105671,128,0,107462:0:0:0:0:
320,192,107462,128,0,109253:0:0:0:0:
64,192,109253,128,0,111044:0:0:0:0:
192,192,111044,128,0,114626:0:0:0:0:
448,192,115074,1,0,0:0:0:0:
64,192,115970,1,0,0:0:0:0:
320,192,116641,1,0,0:0:0:0:
448,192,116865,1,0,0:0:0:0:
320,192,117089,1,0,0:0:0:0:
192,192,117537,1,0,0:0:0:0:
64,192,117761,1,0,0:0:0:0:
448,192,119552,5,0,0:0:0:0:
192,192,119552,1,0,0:0:0:0:
320,192,121343,1,0,0:0:0:0:
64,192,121343,1,0,0:0:0:0:
448,192,123134,1,0,0:0:0:0:
320,192,123134,1,0,0:0:0:0:
192,192,124925,1,0,0:0:0:0:
64,192,124925,1,0,0:0:0:0:
64,192,126716,1,0,0:0:0:0:
448,192,126716,1,0,0:0:0:0:
192,192,128507,1,0,0:0:0:0:
320,192,128507,1,0,0:0:0:0:
448,192,130298,1,0,0:0:0:0:
320,192,130298,1,0,0:0:0:0:
64,192,130746,1,0,0:0:0:0:
320,192,131194,1,0,0:0:0:0:
448,192,132089,1,0,0:0:0:0:
192,192,132313,1,0,0:0:0:0:
64,192,133880,1,0,0:0:0:0:
320,192,133880,1,0,0:0:0:0:
448,192,135671,1,0,0:0:0:0:
320,192,135671,1,0,0:0:0:0:
448,192,137462,1,0,0:0:0:0:
192,192,137462,1,0,0:0:0:0:
192,192,139253,1,0,0:0:0:0:
64,192,139253,1,0,0:0:0:0:
448,192,141044,1,0,0:0:0:0:
320,192,141044,1,0,0:0:0:0:
192,192,142835,1,0,0:0:0:0:
64,192,142835,1,0,0:0:0:0:
192,192,144626,1,0,0:0:0:0:
320,192,144626,1,0,0:0:0:0:
64,192,144850,1,0,0:0:0:0:
448,192,144850,1,0,0:0:0:0:
64,192,147313,1,0,0:0:0:0:
192,192,148208,1,0,0:0:0:0:
320,192,149104,1,0,0:0:0:0:
448,192,150000,1,0,0:0:0:0:
448,192,150895,1,0,0:0:0:0:
320,192,151791,1,0,0:0:0:0:
192,192,152686,1,0,0:0:0:0:
448,192,152910,1,0,0:0:0:0:
64,192,153582,1,0,0:0:0:0:
320,192,153582,1,0,0:0:0:0:
192,192,154477,1,0,0:0:0:0:
448,192,155373,1,0,0:0:0:0:
320,192,155485,1,0,0:0:0:0:
192,192,155597,1,0,0:0:0:0:
192,192,156268,1,0,0:0:0:0:
320,192,157164,1,0,0:0:0:0:
448,192,158059,1,0,0:0:0:0:
320,192,158955,1,0,0:0:0:0:
320,192,159402,1,0,0:0:0:0:
320,192,159850,1,0,0:0:0:0:
192,192,160746,1,0,0:0:0:0:
64,192,161194,1,0,0:0:0:0:
320,192,161641,1,0,0:0:0:0:
192,192,162537,1,0,0:0:0:0:
448,192,163432,1,0,0:0:0:0:
64,192,164328,1,0,0:0:0:0:
320,192,165223,1,0,0:0:0:0:
448,192,166119,1,0,0:0:0:0:
64,192,167014,1,0,0:0:0:0:
320,192,167238,1,0,0:0:0:0:
192,192,167910,1,0,0:0:0:0:
448,192,167910,1,0,0:0:0:0:
64,192,168805,1,0,0:0:0:0:
448,192,169701,1,0,0:0:0:0:
320,192,170597,1,0,0:0:0:0:
64,192,171492,1,0,0:0:0:0:
192,192,172388,1,0,0:0:0:0:
320,192,172835,1,0,0:0:0:0:
448,192,173283,1,0,0:0:0:0:
192,192,173731,128,0,175522:0:0:0:0:
320,192,173731,128,0,175522:0:0:0:0:
64,192,175970,1,0,0:0:0:0:
448,192,176865,1,0,0:0:0:0:
192,192,177761,1,0,0:0:0:0:
320,192,178656,1,0,0:0:0:0:
448,192,179552,1,0,0:0:0:0:
320,192,180447,1,0,0:0:0:0:
192,192,181343,1,0,0:0:0:0:
64,192,182238,1,0,0:0:0:0:
320,192,183134,1,0,0:0:0:0:
192,192,184029,1,0,0:0:0:0:
448,192,184925,1,0,0:0:0:0:
64,192,185820,1,0,0:0:0:0:
192,192,186716,1,0,0:0:0:0:
320,192,187611,1,0,0:0:0:0:
448,192,188507,1,0,0:0:0:0:
64,192,188955,1,0,0:0:0:0:
192,192,189179,1,0,0:0:0:0:
320,192,189402,1,0,0:0:0:0:
192,192,190298,1,0,0:0:0:0:
64,192,191194,1,0,0:0:0:0:
448,192,192089,1,0,0:0:0:0:
320,192,192985,1,0,0:0:0:0:
192,192,193880,1,0,0:0:0:0:
64,192,194776,1,0,0:0:0:0:
448,192,195671,1,0,0:0:0:0:
320,192,196567,1,0,0:0:0:0:
192,192,197462,1,0,0:0:0:0:
448,192,198358,1,0,0:0:0:0:
192,192,199253,1,0,0:0:0:0:
64,192,199477,1,0,0:0:0:0:
320,192,199701,128,0,200597:0:0:0:0:
64,192,200597,1,0,0:0:0:0:
448,192,201044,1,0,0:0:0:0:
192,192,201044,1,0,0:0:0:0:
448,192,201940,1,0,0:0:0:0:
320,192,201940,1,0,0:0:0:0:
320,192,202835,1,0,0:0:0:0:
192,192,202835,1,0,0:0:0:0:
320,192,203731,1,0,0:0:0:0:
448,192,203731,1,0,0:0:0:0:
192,192,204626,1,0,0:0:0:0:
64,192,204626,1,0,0:0:0:0:
192,192,205522,1,0,0:0:0:0:
320,192,205522,1,0,0:0:0:0:
448,192,206417,1,0,0:0:0:0:
192,192,206417,1,0,0:0:0:0:
320,192,207313,1,0,0:0:0:0:
64,192,207313,1,0,0:0:0:0:
64,192,208208,1,0,0:0:0:0:
192,192,208208,1,0,0:0:0:0:
320,192,209104,1,0,0:0:0:0:
448,192,209104,1,0,0:0:0:0:
64,192,210000,1,0,0:0:0:0:
192,192,210000,1,0,0:0:0:0:
448,192,210895,1,0,0:0:0:0:
320,192,210895,1,0,0:0:0:0:
448,192,211791,1,0,0:0:0:0:
64,192,211791,1,0,0:0:0:0:
320,192,212686,1,0,0:0:0:0:
192,192,212686,1,0,0:0:0:0:
320,192,213582,1,0,0:0:0:0:
64,192,214029,1,0,0:0:0:0:
192,192,214253,1,0,0:0:0:0:
448,192,214477,1,0,0:0:0:0:
64,192,214925,1,0,0:0:0:0:
320,192,215373,1,0,0:0:0:0:
448,192,216268,1,0,0:0:0:0:
320,192,217164,1,0,0:0:0:0:
64,192,218059,1,0,0:0:0:0:
192,192,218955,1,0,0:0:0:0:
448,192,218955,1,0,0:0:0:0:
320,192,219850,1,0,0:0:0:0:
448,192,219850,1,0,0:0:0:0:
320,192,220746,1,0,0:0:0:0:
64,192,220746,1,0,0:0:0:0:
192,192,221641,1,0,0:0:0:0:
64,192,221641,1,0,0:0:0:0:
320,192,222537,1,0,0:0:0:0:
448,192,223432,1,0,0:0:0:0:
320,192,224328,1,0,0:0:0:0:
64,192,224776,1,0,0:0:0:0:
448,192,225000,1,0,0:0:0:0:
192,192,225223,1,0,0:0:0:0:
448,192,226119,1,0,0:0:0:0:
192,192,226119,1,0,0:0:0:0:
320,192,227014,1,0,0:0:0:0:
64,192,227014,1,0,0:0:0:0:
448,192,227910,1,0,0:0:0:0:
192,192,228134,1,0,0:0:0:0:
320,192,228582,1,0,0:0:0:0:
64,192,228805,1,0,0:0:0:0:
192,192,229253,1,0,0:0:0:0:
448,192,229701,1,0,0:0:0:0:
192,192,230149,1,0,0:0:0:0:
448,192,230597,1,0,0:0:0:0:
320,192,231044,1,0,0:0:0:0:
64,192,231492,1,0,0:0:0:0:
320,192,231940,1,0,0:0:0:0:
64,192,232388,1,0,0:0:0:0:
448,192,232835,1,0,0:0:0:0:
64,192,233283,1,0,0:0:0:0:
448,192,233731,1,0,0:0:0:0:
64,192,234179,1,0,0:0:0:0:
192,192,234626,1,0,0:0:0:0:
448,192,235074,1,0,0:0:0:0:
192,192,235522,1,0,0:0:0:0:
448,192,235970,1,0,0:0:0:0:
192,192,236417,128,0,237089:0:0:0:0:
448,192,237089,128,0,237537:0:0:0:0:
320,192,237537,128,0,238208:0:0:0:0:
64,192,238208,128,0,240000:0:0:0:0:
320,192,240000,128,0,254328:0:0:0:0:
192,192,241343,1,0,0:0:0:0:
448,192,243134,1,0,0:0:0:0:
192,192,244925,1,0,0:0:0:0:
448,192,246716,1,0,0:0:0:0:
