osu file format v14

[General]
AudioFilename: 10 Chronicles.mp3
AudioLeadIn: 0
PreviewTime: 185748
Countdown: 1
SampleSet: Normal
StackLeniency: 0.7
Mode: 0
LetterboxInBreaks: 1
WidescreenStoryboard: 0

[Editor]
DistanceSpacing: 1.6
BeatDivisor: 4
GridSize: 8
TimelineZoom: 2.3

[Metadata]
Title:Chronicles
TitleUnicode:Chronicles
Artist:Make Them Suffer
ArtistUnicode:Make Them Suffer
Creator:reiyashi
Version:Abomination
Source:
Tags:neverbloom blackened death metal deathcore metalcore
BeatmapID:806479
BeatmapSetID:367722

[Difficulty]
HPDrainRate:5
CircleSize:4.5
OverallDifficulty:7
ApproachRate:9.6
SliderMultiplier:2
SliderTickRate:3

[Events]
//Background and Video events
0,0,"22135_fantasy_monster_monster_warrior.jpg",0,0
//Break Periods
2,2579,4120
2,93192,95824
2,97079,103256
//Storyboard Layer 0 (Background)
//Storyboard Layer 1 (Fail)
//Storyboard Layer 2 (Pass)
//Storyboard Layer 3 (Foreground)
//Storyboard Sound Samples

[TimingPoints]
265,272.727272727273,4,1,0,100,1,0
57430,-133.333333333333,4,1,0,100,0,0
60702,-100,4,1,0,100,0,0
86202,-133.333333333333,4,1,0,100,0,0
88793,-100,4,1,0,100,0,0
89748,-200,4,1,0,100,0,0
91930,-100,4,1,0,100,0,0
106765,-111.111111111111,4,1,0,100,0,0

[HitObjects]
40,56,265,5,0,0:0:0:0:
64,72,333,1,0,0:0:0:0:
96,80,402,1,0,0:0:0:0:
112,104,470,1,0,0:0:0:0:
128,128,538,1,0,0:0:0:0:
152,144,606,1,0,0:0:0:0:
184,144,674,1,0,0:0:0:0:
216,136,743,1,0,0:0:0:0:
248,128,811,1,0,0:0:0:0:
280,128,879,5,0,0:0:0:0:
312,136,947,1,0,0:0:0:0:
336,152,1015,1,0,0:0:0:0:
344,184,1083,1,0,0:0:0:0:
336,216,1152,1,0,0:0:0:0:
320,240,1220,1,0,0:0:0:0:
296,248,1288,1,0,0:0:0:0:
264,256,1356,1,0,0:0:0:0:
240,240,1424,1,0,0:0:0:0:
248,216,1493,6,0,L|232:168,1,50,0|0,3:0|3:0,3:0:0:0:
152,200,1629,2,0,L|112:168,1,50,0|0,3:0|3:0,3:0:0:0:
192,104,1765,2,0,L|160:56,1,50,0|0,3:0|3:0,3:0:0:0:
72,80,1902,2,0,L|112:120,1,50,0|0,3:0|3:0,3:0:0:0:
256,120,2038,2,0,L|296:160,1,50,0|0,3:0|3:0,3:0:0:0:
104,256,2174,2,0,L|160:296,1,50,0|0,3:0|3:0,3:0:0:0:
192,176,2311,2,0,L|240:216,1,50,0|0,3:0|3:0,3:0:0:0:
48,288,4629,5,0,0:0:0:0:
48,288,4765,1,0,0:0:0:0:
208,272,5720,5,0,0:0:0:0:
208,272,5788,1,0,0:0:0:0:
208,272,5856,1,0,0:0:0:0:
208,272,5924,1,0,0:0:0:0:
208,272,5993,1,0,0:0:0:0:
208,272,6061,1,0,0:0:0:0:
208,272,6129,1,0,0:0:0:0:
208,272,6197,1,0,0:0:0:0:
208,272,6265,1,0,0:0:0:0:
208,272,6333,1,0,0:0:0:0:
208,272,6402,1,0,0:0:0:0:
232,272,6470,5,0,0:0:0:0:
272,256,6538,1,0,0:0:0:0:
312,272,6606,1,0,0:0:0:0:
360,280,6674,1,0,0:0:0:0:
400,264,6743,1,0,0:0:0:0:
432,240,6811,1,0,0:0:0:0:
472,112,6879,5,0,0:0:0:0:
464,80,6947,2,0,P|400:80|376:112,1,100
288,120,7220,1,0,0:0:0:0:
200,120,7356,2,0,P|120:128|16:72,1,200
72,288,7765,1,0,0:0:0:0:
72,288,7902,1,0,0:0:0:0:
144,208,8038,1,0,0:0:0:0:
224,288,8174,1,0,0:0:0:0:
72,128,8311,1,0,0:0:0:0:
256,144,8447,1,0,0:0:0:0:
328,232,8583,2,0,P|376:248|424:240,1,100
448,136,8856,2,0,P|392:128|344:144,1,100
240,112,9129,5,0,0:0:0:0:
184,96,9197,1,0,0:0:0:0:
144,64,9265,1,0,0:0:0:0:
96,64,9333,2,0,B|112:128|112:128|48:184,1,150
120,280,9674,1,0,0:0:0:0:
232,272,9811,1,0,0:0:0:0:
344,256,9947,2,0,P|440:224|472:232,1,100
440,56,10220,5,0,0:0:0:0:
400,88,10288,1,0,0:0:0:0:
344,72,10356,1,0,0:0:0:0:
296,64,10424,1,0,0:0:0:0:
256,80,10493,1,0,0:0:0:0:
200,80,10561,2,0,P|144:72|96:48,1,100
72,96,10765,5,0,0:0:0:0:
104,120,10833,1,0,0:0:0:0:
144,136,10902,1,0,0:0:0:0:
184,128,10970,1,0,0:0:0:0:
224,120,11038,1,0,0:0:0:0:
264,120,11106,1,0,0:0:0:0:
296,144,11174,1,0,0:0:0:0:
464,256,11311,6,0,L|408:256|360:256,1,100
224,240,11583,1,0,0:0:0:0:
96,176,11720,2,0,P|136:112|152:80,1,100
288,72,11993,1,0,0:0:0:0:
424,88,12129,1,0,0:0:0:0:
312,168,12265,1,0,0:0:0:0:
360,40,12402,1,0,0:0:0:0:
408,168,12538,2,0,P|384:224|264:304,1,200
136,280,12947,5,0,0:0:0:0:
80,152,13083,2,0,P|136:160|176:144,1,100
304,88,13356,2,0,P|368:64|400:72,1,100
424,208,13629,1,0,0:0:0:0:
288,248,13765,1,0,0:0:0:0:
416,312,13902,1,0,0:0:0:0:
416,312,14038,1,0,0:0:0:0:
352,184,14174,1,0,0:0:0:0:
208,176,14311,2,0,P|152:176|112:160,1,100
40,48,14720,5,0,0:0:0:0:
64,64,14788,1,0,0:0:0:0:
96,72,14856,1,0,0:0:0:0:
128,72,14924,1,0,0:0:0:0:
160,64,14993,1,0,0:0:0:0:
192,72,15061,1,0,0:0:0:0:
216,88,15129,1,0,0:0:0:0:
248,96,15197,1,0,0:0:0:0:
272,104,15265,1,0,0:0:0:0:
296,120,15333,1,0,0:0:0:0:
328,120,15402,1,0,0:0:0:0:
464,208,15538,5,0,0:0:0:0:
448,232,15606,1,0,0:0:0:0:
424,256,15674,1,0,0:0:0:0:
392,256,15743,1,0,0:0:0:0:
368,240,15811,1,0,0:0:0:0:
352,216,15879,1,0,0:0:0:0:
336,192,15947,1,0,0:0:0:0:
312,176,16015,1,0,0:0:0:0:
288,160,16083,1,0,0:0:0:0:
256,152,16152,1,0,0:0:0:0:
224,152,16220,5,0,0:0:0:0:
208,176,16288,1,0,0:0:0:0:
184,200,16356,1,0,0:0:0:0:
160,216,16424,1,0,0:0:0:0:
128,216,16493,1,0,0:0:0:0:
96,208,16561,1,0,0:0:0:0:
72,184,16629,1,0,0:0:0:0:
64,152,16697,1,0,0:0:0:0:
80,128,16765,1,0,0:0:0:0:
96,104,16833,1,0,0:0:0:0:
120,88,16902,1,0,0:0:0:0:
176,72,16970,6,0,L|232:56,1,50
312,128,17106,2,0,L|368:112,1,50
272,224,17243,2,0,L|328:216,1,50
160,144,17379,2,0,L|232:112,1,50
328,72,17515,2,0,L|480:64,1,150
440,168,17856,5,0,0:0:0:0:
432,176,17924,1,0,0:0:0:0:
424,176,17993,1,0,0:0:0:0:
416,176,18061,1,0,0:0:0:0:
408,176,18129,1,0,0:0:0:0:
400,184,18197,1,0,0:0:0:0:
400,192,18265,1,0,0:0:0:0:
400,200,18333,1,0,0:0:0:0:
400,208,18402,1,0,0:0:0:0:
400,216,18470,1,0,0:0:0:0:
392,224,18538,1,0,0:0:0:0:
384,232,18606,1,0,0:0:0:0:
376,232,18674,1,0,0:0:0:0:
368,232,18743,1,0,0:0:0:0:
360,224,18811,1,0,0:0:0:0:
352,216,18879,2,0,L|304:176,5,50
232,112,19356,6,0,L|184:72,1,50
192,216,19493,2,0,L|128:176,1,50
344,136,19629,2,0,L|304:96,1,50
304,240,19765,2,0,L|224:168,1,100
104,104,20038,5,0,0:0:0:0:
232,56,20174,1,0,0:0:0:0:
352,136,20311,2,0,P|408:96|448:96,1,100
456,232,20583,2,0,P|416:280|368:296,1,100
248,264,20856,2,0,P|152:240|112:240,1,100
56,136,21129,1,0,0:0:0:0:
176,64,21265,1,0,0:0:0:0:
240,184,21402,1,0,0:0:0:0:
344,96,21538,2,0,P|400:72|448:72,1,100
392,312,21811,5,0,0:0:0:0:
360,304,21879,1,0,0:0:0:0:
320,296,21947,1,0,0:0:0:0:
288,304,22015,2,0,B|224:304|208:288|208:288|280:232,1,150
392,192,22356,2,0,B|432:160|432:160|408:104,1,100
280,64,22629,1,0,0:0:0:0:
144,104,22765,1,0,0:0:0:0:
272,160,22902,1,0,0:0:0:0:
208,32,23038,1,0,0:0:0:0:
104,128,23174,5,0,0:0:0:0:
112,136,23243,1,0,0:0:0:0:
120,144,23311,1,0,0:0:0:0:
120,152,23379,1,0,0:0:0:0:
120,160,23447,1,0,0:0:0:0:
112,168,23515,1,0,0:0:0:0:
104,168,23583,1,0,0:0:0:0:
96,160,23652,1,0,0:0:0:0:
88,168,23720,1,0,0:0:0:0:
88,176,23788,1,0,0:0:0:0:
88,184,23856,1,0,0:0:0:0:
96,192,23924,1,0,0:0:0:0:
104,200,23993,1,0,0:0:0:0:
112,208,24061,1,0,0:0:0:0:
120,208,24129,1,0,0:0:0:0:
248,248,24265,5,0,0:0:0:0:
256,248,24333,1,0,0:0:0:0:
264,256,24402,1,0,0:0:0:0:
272,256,24470,1,0,0:0:0:0:
280,256,24538,1,0,0:0:0:0:
288,248,24606,1,0,0:0:0:0:
296,240,24674,1,0,0:0:0:0:
296,232,24743,1,0,0:0:0:0:
296,224,24811,1,0,0:0:0:0:
288,216,24879,1,0,0:0:0:0:
280,208,24947,1,0,0:0:0:0:
272,200,25015,1,0,0:0:0:0:
264,192,25083,1,0,0:0:0:0:
256,184,25152,1,0,0:0:0:0:
248,184,25220,1,0,0:0:0:0:
456,56,25356,6,0,P|400:64|352:56,1,100
224,112,25629,1,0,0:0:0:0:
112,32,25765,2,0,P|72:80|88:128,1,100
192,192,26038,2,0,P|192:256|144:288,1,100
312,264,26311,1,0,0:0:0:0:
368,88,26447,2,0,P|304:88|136:56,1,200
64,160,26856,6,0,P|112:192|96:232,1,100
232,272,27129,2,0,P|256:224|304:224,1,100
400,128,27402,2,0,P|392:64|352:64,1,100
232,88,27674,2,0,P|176:112|136:96,1,100
120,240,27947,5,0,0:0:0:0:
280,128,28083,1,0,0:0:0:0:
312,264,28220,1,0,0:0:0:0:
312,264,28356,1,0,0:0:0:0:
312,264,28493,1,0,0:0:0:0:
152,112,28629,1,0,0:0:0:0:
288,72,28765,1,0,0:0:0:0:
168,152,28902,2,0,P|96:168|48:152,1,100
128,32,29174,6,0,P|192:40|240:40,1,100
360,96,29447,1,0,0:0:0:0:
464,192,29583,2,0,P|400:224|368:248,1,100
264,320,29856,2,0,P|224:288|176:280,1,100
56,200,30129,1,0,0:0:0:0:
112,72,30265,5,0,0:0:0:0:
144,88,30333,1,0,0:0:0:0:
192,80,30402,1,0,0:0:0:0:
232,64,30470,1,0,0:0:0:0:
264,64,30538,2,0,B|328:64|384:80|384:80|368:168,1,200
384,296,30947,2,0,B|344:256|328:256|328:256|312:312,1,100
176,272,31220,1,0,0:0:0:0:
64,112,31356,1,0,0:0:0:0:
64,112,31424,2,0,B|120:136|128:120|136:120|224:56,1,150
336,80,31765,2,0,P|400:88|440:72,1,100
464,216,32038,5,0,0:0:0:0:
392,232,32106,1,0,0:0:0:0:
320,216,32174,1,0,0:0:0:0:
256,192,32243,1,0,0:0:0:0:
192,168,32311,2,0,P|136:144|112:112,1,100
248,72,32583,2,0,P|304:56|360:64,1,100
424,320,32856,2,0,B|384:288|384:288|336:312,1,100
200,296,33129,5,0,0:0:0:0:
104,192,33265,1,0,0:0:0:0:
232,136,33402,1,0,0:0:0:0:
360,200,33538,1,0,0:0:0:0:
240,272,33674,1,0,0:0:0:0:
160,152,33811,1,0,0:0:0:0:
64,56,33947,2,0,P|136:80|184:72,1,100
296,80,34220,2,0,P|368:112|384:144,1,100
296,240,34493,2,0,P|288:160|248:152,1,100
160,224,34765,1,0,0:0:0:0:
72,128,34902,2,0,P|80:72|120:16,1,100
296,104,35174,5,0,0:0:0:0:
320,112,35243,1,0,0:0:0:0:
344,120,35311,1,0,0:0:0:0:
368,136,35379,1,0,0:0:0:0:
384,152,35447,1,0,0:0:0:0:
400,176,35515,1,0,0:0:0:0:
400,200,35583,1,0,0:0:0:0:
392,224,35652,1,0,0:0:0:0:
376,240,35720,1,0,0:0:0:0:
352,256,35788,1,0,0:0:0:0:
328,264,35856,1,0,0:0:0:0:
304,256,35924,1,0,0:0:0:0:
280,240,35993,1,0,0:0:0:0:
264,224,36061,5,0,0:0:0:0:
248,208,36129,1,0,0:0:0:0:
232,192,36197,1,0,0:0:0:0:
216,176,36265,1,0,0:0:0:0:
192,168,36333,1,0,0:0:0:0:
168,168,36402,1,0,0:0:0:0:
144,176,36470,1,0,0:0:0:0:
128,192,36538,1,0,0:0:0:0:
112,208,36606,1,0,0:0:0:0:
96,232,36674,1,0,0:0:0:0:
88,256,36743,1,0,0:0:0:0:
88,280,36811,1,0,0:0:0:0:
104,296,36879,5,0,0:0:0:0:
128,312,36947,1,0,0:0:0:0:
152,320,37015,1,0,0:0:0:0:
176,328,37083,1,0,0:0:0:0:
200,328,37152,1,0,0:0:0:0:
224,320,37220,1,0,0:0:0:0:
352,128,37356,5,0,3:3:0:0:
296,128,37424,1,0,3:3:0:0:
240,128,37493,1,0,3:3:0:0:
104,176,38174,5,0,3:0:0:0:
160,176,38243,1,0,3:0:0:0:
216,176,38311,1,0,3:0:0:0:
440,280,38993,5,0,3:0:0:0:
384,280,39061,1,0,3:0:0:0:
336,280,39129,1,0,3:0:0:0:
288,280,39197,1,0,3:0:0:0:
56,184,39538,5,0,3:0:0:0:
104,184,39606,1,0,3:0:0:0:
144,184,39674,1,0,3:0:0:0:
192,184,39743,1,0,3:0:0:0:
392,96,40356,5,0,3:0:0:0:
344,96,40424,1,0,3:0:0:0:
304,96,40493,1,0,3:0:0:0:
80,96,40629,5,0,0:0:0:0:
104,104,40697,1,0,0:0:0:0:
128,120,40765,1,0,0:0:0:0:
144,136,40833,1,0,0:0:0:0:
152,160,40902,1,0,0:0:0:0:
152,184,40970,1,0,0:0:0:0:
136,208,41038,1,0,0:0:0:0:
120,224,41106,1,0,0:0:0:0:
120,248,41174,1,0,0:0:0:0:
136,264,41243,1,0,0:0:0:0:
152,280,41311,1,0,0:0:0:0:
176,288,41379,5,0,0:0:0:0:
200,288,41447,1,0,0:0:0:0:
224,280,41515,1,0,0:0:0:0:
240,264,41583,1,0,0:0:0:0:
256,240,41652,1,0,0:0:0:0:
248,216,41720,1,0,0:0:0:0:
320,88,41856,6,0,L|376:72,1,50
352,168,41993,2,0,L|400:144,1,50
264,144,42129,2,0,L|320:128,1,50
208,96,42265,2,0,L|264:72,1,50
312,216,42402,2,0,L|368:184,1,50
184,160,42538,2,0,L|240:128,1,50
224,240,42674,2,0,L|288:200,1,50
320,296,42811,2,0,L|376:264,1,50
216,192,42947,2,0,L|264:168,1,50
152,96,43083,6,0,L|80:112,1,50
144,184,43220,2,0,L|80:192,1,50
232,136,43356,2,0,L|176:144,1,50
192,240,43493,2,0,L|128:248,1,50
264,296,43629,2,0,L|192:288,1,50
296,288,43765,5,0,0:0:0:0:
320,272,43833,1,0,0:0:0:0:
336,248,43902,1,0,0:0:0:0:
344,224,43970,1,0,0:0:0:0:
360,200,44038,1,0,0:0:0:0:
384,192,44106,1,0,0:0:0:0:
408,184,44174,1,0,0:0:0:0:
424,168,44243,1,0,0:0:0:0:
440,152,44311,1,0,0:0:0:0:
432,128,44379,1,0,0:0:0:0:
416,112,44447,1,0,0:0:0:0:
400,88,44515,1,0,0:0:0:0:
384,72,44583,6,0,P|320:72|280:88,1,100
136,96,44856,1,0,0:0:0:0:
56,224,44993,2,0,P|112:248|152:248,1,100
336,248,45265,2,0,P|376:208|416:144,1,100
264,112,45538,2,0,P|208:80|136:80,1,100
104,208,45811,1,0,0:0:0:0:
216,304,45947,1,0,0:0:0:0:
304,184,46083,1,0,0:0:0:0:
160,136,46220,1,0,0:0:0:0:
264,248,46356,1,0,0:0:0:0:
416,224,46493,6,0,B|488:216|488:216|456:176,1,100
376,80,46765,2,0,B|304:72|304:72|312:40,1,100
168,104,47038,2,0,P|88:144|56:168,1,100
160,280,47311,2,0,P|208:232|224:184,1,100
344,288,47583,1,0,0:0:0:0:
448,184,47720,1,0,0:0:0:0:
312,112,47856,1,0,0:0:0:0:
312,112,47993,1,0,0:0:0:0:
160,112,48129,2,0,P|88:104|56:80,1,100
80,240,48402,6,0,P|128:200|184:192,1,100
280,288,48674,1,0,0:0:0:0:
320,280,48743,1,0,0:0:0:0:
360,264,48811,1,0,0:0:0:0:
392,248,48879,1,0,0:0:0:0:
416,232,48947,2,0,B|448:192|448:192|408:160,1,100
272,40,49220,1,0,0:0:0:0:
240,48,49288,1,0,0:0:0:0:
216,64,49356,1,0,0:0:0:0:
192,72,49424,1,0,0:0:0:0:
168,80,49493,2,0,B|112:80|112:80|80:120,1,100
56,264,49765,6,0,P|104:280|160:280,1,100
280,288,50038,1,0,0:0:0:0:
392,184,50174,1,0,0:0:0:0:
264,104,50311,1,0,0:0:0:0:
392,184,50447,1,0,0:0:0:0:
288,288,50583,1,0,0:0:0:0:
160,208,50720,1,0,0:0:0:0:
192,72,50856,1,0,0:0:0:0:
48,120,50993,1,0,0:0:0:0:
88,264,51129,6,0,P|168:272|208:264,1,100
320,200,51402,2,0,P|384:224|432:208,1,100
432,72,51674,1,0,0:0:0:0:
296,144,51811,1,0,0:0:0:0:
152,120,51947,2,0,L|80:120|40:120,1,100
40,272,52220,1,0,0:0:0:0:
72,296,52288,1,0,0:0:0:0:
112,296,52356,1,0,0:0:0:0:
160,288,52424,2,0,B|208:304|208:304|312:264,1,150
424,184,52765,5,0,0:0:0:0:
424,184,52833,1,0,0:0:0:0:
424,184,52902,1,0,0:0:0:0:
320,80,53038,1,0,0:0:0:0:
224,200,53174,1,0,0:0:0:0:
184,56,53311,2,0,P|128:56|80:48,1,100
120,192,53583,2,0,P|168:160|208:160,1,100
464,312,53856,2,0,B|376:288|216:336|344:296,1,200
304,288,54197,5,0,0:0:0:0:
232,280,54265,1,0,0:0:0:0:
160,256,54333,1,0,0:0:0:0:
120,192,54402,1,0,0:0:0:0:
112,160,54470,1,0,0:0:0:0:
120,128,54538,1,0,0:0:0:0:
144,104,54606,1,0,0:0:0:0:
168,88,54674,1,0,0:0:0:0:
200,80,54743,1,0,0:0:0:0:
232,72,54811,1,0,0:0:0:0:
264,72,54879,5,0,0:0:0:0:
296,72,54947,1,0,0:0:0:0:
328,80,55015,1,0,0:0:0:0:
352,96,55083,1,0,0:0:0:0:
368,120,55152,1,0,0:0:0:0:
376,152,55220,1,0,0:0:0:0:
392,176,55288,1,0,0:0:0:0:
416,192,55356,1,0,0:0:0:0:
440,216,55424,1,0,0:0:0:0:
448,248,55493,1,0,0:0:0:0:
440,272,55561,5,0,0:0:0:0:
408,280,55629,1,0,0:0:0:0:
376,280,55697,1,0,0:0:0:0:
352,272,55765,1,0,0:0:0:0:
328,248,55833,1,0,0:0:0:0:
320,216,55902,1,0,0:0:0:0:
304,192,55970,1,0,0:0:0:0:
280,176,56038,1,0,0:0:0:0:
248,168,56106,1,0,0:0:0:0:
224,176,56174,1,0,0:0:0:0:
200,192,56243,1,0,0:0:0:0:
176,208,56311,5,0,0:0:0:0:
152,224,56379,1,0,0:0:0:0:
120,232,56447,1,0,0:0:0:0:
96,248,56515,2,0,L|48:272,12,50
96,160,57402,6,0,L|152:136,1,37.5000014305115
96,104,57538,2,0,L|136:96,1,37.5000014305115
192,160,57674,2,0,L|224:128,1,37.5000014305115
144,216,57811,2,0,L|168:184,1,37.5000014305115
232,208,57947,2,0,L|264:184,1,37.5000014305115
352,144,58083,2,0,L|392:128,1,37.5000014305115
280,80,58220,2,0,L|328:72,1,37.5000014305115
160,96,58356,2,0,L|208:72,1,37.5000014305115
248,184,58493,2,0,L|288:160,1,37.5000014305115
88,200,58629,2,0,L|144:168,1,37.5000014305115
176,256,58765,6,0,L|200:224,1,37.5000014305115
312,224,58902,2,0,L|352:192,1,37.5000014305115
152,168,59038,2,0,L|224:136,5,75.0000028610231
472,176,59856,5,0,0:0:0:0:
240,120,59993,1,0,0:0:0:0:
80,200,60129,1,0,0:0:0:0:
472,176,60265,1,0,0:0:0:0:
240,120,60402,1,0,0:0:0:0:
80,200,60538,1,0,0:0:0:0:
80,48,60674,6,0,P|152:64|184:48,1,100
320,80,60947,2,0,P|368:96|400:136,1,100
352,280,61220,1,0,0:0:0:0:
128,264,61493,1,0,0:0:0:0:
80,120,61629,2,0,P|144:128|184:128,1,100
328,136,61902,2,0,P|368:208|400:336,1,200
248,304,62311,2,0,L|192:288,1,50
176,272,62447,2,0,P|128:232|88:216,1,100
72,192,62652,5,0,0:0:0:0:
96,160,62720,1,0,0:0:0:0:
136,144,62788,1,0,0:0:0:0:
176,152,62856,1,0,0:0:0:0:
216,168,62924,1,0,0:0:0:0:
248,192,62993,1,0,0:0:0:0:
280,216,63061,1,0,0:0:0:0:
312,240,63129,1,0,0:0:0:0:
352,256,63197,1,0,0:0:0:0:
392,248,63265,1,0,0:0:0:0:
432,232,63333,1,0,0:0:0:0:
456,200,63402,5,0,0:0:0:0:
456,160,63470,1,0,0:0:0:0:
416,144,63538,1,0,0:0:0:0:
344,112,63674,2,0,P|280:104|256:80,1,100
104,88,63947,1,0,0:0:0:0:
144,232,64083,2,0,P|184:184|200:112,1,100
320,64,64356,2,0,P|352:128|384:160,1,100
432,288,64629,2,0,P|368:304|232:264,1,200
88,152,65174,5,0,0:0:0:0:
208,64,65311,1,0,0:0:0:0:
208,216,65447,1,0,0:0:0:0:
208,216,65583,1,0,0:0:0:0:
320,120,65720,1,0,0:0:0:0:
168,128,65856,1,0,0:0:0:0:
112,264,65993,1,0,0:0:0:0:
256,288,66129,1,0,0:0:0:0:
400,248,66265,2,0,P|448:232|472:192,1,100
384,72,66538,2,0,P|304:104|256:88,1,100
144,120,66811,2,0,P|80:120|48:104,1,100
104,248,67083,2,0,P|176:208|304:216,1,200
432,152,67493,5,0,0:0:0:0:
400,144,67561,1,0,0:0:0:0:
368,128,67629,1,0,0:0:0:0:
336,112,67697,1,0,0:0:0:0:
304,104,67765,1,0,0:0:0:0:
272,104,67833,1,0,0:0:0:0:
240,128,67902,1,0,0:0:0:0:
216,152,67970,1,0,0:0:0:0:
184,168,68038,2,0,B|141:164|141:164|96:112,1,100
344,48,68311,6,0,B|392:88|392:88|376:152,1,100
432,280,68583,1,0,0:0:0:0:
280,224,68720,1,0,0:0:0:0:
128,264,68856,2,0,B|192:192|192:192|160:168,1,100
56,96,69129,2,0,P|120:56|128:32,1,100
288,48,69402,2,0,P|336:64|368:112,1,100
464,224,69674,1,0,0:0:0:0:
312,168,69811,1,0,0:0:0:0:
400,304,69947,1,0,0:0:0:0:
400,304,70083,1,0,0:0:0:0:
288,192,70220,1,0,0:0:0:0:
216,336,70356,1,0,0:0:0:0:
224,176,70493,1,0,0:0:0:0:
136,312,70629,1,0,0:0:0:0:
112,296,70697,5,0,0:0:0:0:
96,264,70765,1,0,0:0:0:0:
96,224,70833,1,0,0:0:0:0:
112,184,70902,1,0,0:0:0:0:
144,160,70970,1,0,0:0:0:0:
176,136,71038,1,0,0:0:0:0:
208,120,71106,1,0,0:0:0:0:
248,112,71174,1,0,0:0:0:0:
400,112,71311,6,0,P|456:112|496:96,1,100
408,216,71583,2,0,P|344:192|304:208,1,100
200,296,71856,1,0,0:0:0:0:
80,208,71993,2,0,B|128:160|128:160|32:56,1,200
72,56,72333,1,0,0:0:0:0:
112,72,72402,1,0,0:0:0:0:
144,80,72470,1,0,0:0:0:0:
176,72,72538,2,0,B|224:56|224:56|272:80,1,100
416,112,72811,5,0,0:0:0:0:
288,184,72947,1,0,0:0:0:0:
432,232,73083,1,0,0:0:0:0:
344,112,73220,1,0,0:0:0:0:
376,256,73356,1,0,0:0:0:0:
224,264,73493,2,0,P|152:256|112:264,1,100
112,72,73765,2,0,P|144:136|136:184,1,100
288,200,74038,2,0,P|304:144|368:128,1,100
432,232,74311,2,0,P|432:304|392:328,1,100
272,272,74583,6,0,B|304:232|304:232|280:184,1,100
200,184,74856,2,0,B|178:227|178:227|210:267,1,100
272,272,75129,2,0,B|304:232|304:232|280:184,1,100
200,184,75402,2,0,B|178:227|178:227|210:267,1,100
96,168,75674,2,0,P|72:112|48:72,1,100
200,48,75947,1,0,0:0:0:0:
344,80,76083,1,0,0:0:0:0:
488,128,76220,1,0,0:0:0:0:
472,152,76288,1,0,0:0:0:0:
456,184,76356,2,0,P|400:200|376:232,1,100
280,272,76629,2,0,P|256:216|104:176,1,200
64,80,77038,5,0,0:0:0:0:
200,136,77174,1,0,0:0:0:0:
56,184,77311,1,0,0:0:0:0:
192,240,77447,1,0,0:0:0:0:
48,288,77583,1,0,0:0:0:0:
160,184,77720,1,0,0:0:0:0:
304,144,77856,2,0,P|376:136|424:120,1,100
264,64,78129,2,0,P|192:56|152:72,1,100
224,200,78402,2,0,B|287:200|287:200|256:263|256:263|192:279|192:279|152:232|152:232|144:184,1,300
224,200,78947,5,0,0:0:0:0:
224,200,79083,1,0,0:0:0:0:
224,200,79220,1,0,0:0:0:0:
224,200,79356,1,0,0:0:0:0:
224,200,79493,1,0,0:0:0:0:
320,88,79629,1,0,0:0:0:0:
440,176,79765,1,0,0:0:0:0:
224,200,79902,2,0,P|176:160|40:232,1,200
55,196,80243,2,0,B|80:240|80:240|168:184,1,150
176,168,80447,5,0,0:0:0:0:
208,160,80515,1,0,0:0:0:0:
224,128,80583,1,0,0:0:0:0:
216,104,80652,1,0,0:0:0:0:
240,88,80720,2,0,B|296:72|344:80|344:80|304:192,1,200
304,192,81061,5,0,0:0:0:0:
296,224,81129,1,0,0:0:0:0:
272,248,81197,1,0,0:0:0:0:
248,264,81265,1,0,0:0:0:0:
216,264,81333,1,0,0:0:0:0:
192,248,81402,1,0,0:0:0:0:
168,232,81470,1,0,0:0:0:0:
152,208,81538,1,0,0:0:0:0:
160,176,81606,1,0,0:0:0:0:
176,152,81674,1,0,0:0:0:0:
200,136,81743,1,0,0:0:0:0:
232,128,81811,1,0,0:0:0:0:
256,112,81879,1,0,0:0:0:0:
280,120,81947,1,0,0:0:0:0:
304,144,82015,1,0,0:0:0:0:
320,168,82083,1,0,0:0:0:0:
296,160,82629,5,0,0:0:0:0:
272,136,82697,1,0,0:0:0:0:
248,120,82765,1,0,0:0:0:0:
216,120,82833,1,0,0:0:0:0:
184,120,82902,1,0,0:0:0:0:
160,136,82970,1,0,0:0:0:0:
152,176,83038,1,0,0:0:0:0:
160,208,83106,1,0,0:0:0:0:
176,232,83174,1,0,0:0:0:0:
200,248,83243,1,0,0:0:0:0:
232,256,83311,1,0,0:0:0:0:
256,272,83379,1,0,0:0:0:0:
280,264,83447,1,0,0:0:0:0:
296,256,83515,1,0,0:0:0:0:
304,240,83583,1,0,0:0:0:0:
320,216,83652,1,0,0:0:0:0:
320,184,83720,1,0,0:0:0:0:
112,64,84265,5,0,0:0:0:0:
384,192,84538,1,0,0:0:0:0:
88,232,84811,1,0,0:0:0:0:
344,80,85083,1,0,0:0:0:0:
176,328,85356,1,0,0:0:0:0:
176,328,85424,1,0,0:0:0:0:
176,328,85493,1,0,0:0:0:0:
176,328,85561,2,0,B|232:336|232:336|320:272|320:272|384:336,1,250
432,144,86174,6,0,B|368:120|368:120|304:176,1,150.000005722046
224,96,86583,1,0,0:0:0:0:
112,72,86720,2,0,B|56:80|56:80|88:176,1,150.000005722046
136,264,87129,1,0,0:0:0:0:
232,304,87265,2,0,P|288:312|320:320,1,75.0000028610231
392,256,87538,2,0,B|432:216|432:216|416:176,1,75.0000028610231
344,128,87811,1,0,0:0:0:0:
264,56,87947,2,0,P|208:48|176:56,1,75.0000028610231
88,80,88220,2,0,B|160:128|160:128|72:152|72:152|56:160|56:160|96:192,1,225.000008583069
168,288,88765,5,0,0:0:0:0:
248,152,88902,1,0,0:0:0:0:
344,280,89038,1,0,0:0:0:0:
344,280,89174,1,0,0:0:0:0:
200,216,89311,1,0,0:0:0:0:
352,176,89447,1,0,0:0:0:0:
352,176,89515,1,0,0:0:0:0:
352,176,89583,1,0,0:0:0:0:
352,176,89652,1,0,0:0:0:0:
352,176,89720,6,0,B|392:160|392:160|432:144|432:144|392:120|392:120|352:104|344:104|336:104|312:96|304:96|296:80|296:64|288:64|280:48|256:48|248:48|240:56|240:72|248:80|248:80|192:88|192:88|200:128|200:128|248:152|248:152|176:168|176:168|88:128|88:128|96:72,1,700
96,71,90742,6,0,L|64:80,1,25
48,112,90878,1,0,0:0:0:0:
64,136,90946,2,0,B|120:152|128:152|104:192|104:192|40:264|56:280,1,200
216,288,91560,2,0,P|272:272|296:240,1,100
128,112,91901,2,0,P|176:128|192:176,1,100
376,104,92310,2,0,P|320:72|288:80,1,100
280,112,92515,1,0,0:0:0:0:
304,152,92583,1,0,0:0:0:0:
304,192,92651,2,0,B|248:168|248:168|208:192,1,100
192,168,92855,1,0,0:0:0:0:
176,128,92924,2,0,B|200:88|216:96|216:96|240:80,1,50
168,80,96333,5,0,0:0:0:0:
296,176,96606,1,0,0:0:0:0:
136,208,96879,1,0,0:0:0:0:
96,88,103765,6,0,B|160:96|160:96|128:144|128:144|96:152|96:152|152:168|152:168|152:176|128:184|112:184|112:184|104:176|96:184|96:184|80:192|80:200|96:208|112:216|128:224|136:224|160:232|160:232|152:240|144:240|144:248|112:264|112:264|104:264|96:264|96:264|112:272|160:280|184:280,1,500
168,288,104515,2,0,L|200:248,1,50
208,312,104651,2,0,L|224:256,1,50
256,320,104787,2,0,L|240:272,1,50
304,320,104924,2,0,L|272:272,1,50
456,168,105265,5,0,0:0:0:0:
416,136,105333,1,0,0:0:0:0:
392,96,105401,1,0,0:0:0:0:
384,48,105469,1,0,0:0:0:0:
344,16,105537,1,0,0:0:0:0:
304,48,105605,1,0,0:0:0:0:
296,96,105674,1,0,0:0:0:0:
320,144,105742,1,0,0:0:0:0:
304,192,105810,1,0,0:0:0:0:
256,208,105878,1,0,0:0:0:0:
136,104,106015,5,0,0:0:0:0:
136,104,106083,1,0,0:0:0:0:
152,264,106355,5,0,0:0:0:0:
152,264,106424,1,0,0:0:0:0:
360,288,106628,5,0,0:0:0:0:
360,288,106696,1,0,0:0:0:0:
464,208,106833,6,0,P|408:176|400:56,1,179.999994506836
264,56,107174,1,0,0:0:0:0:
264,56,107242,1,0,0:0:0:0:
264,56,107310,1,0,0:0:0:0:
136,104,107446,2,0,P|80:128|40:224,1,134.999995880127
112,296,107787,1,0,0:0:0:0:
112,296,107855,1,0,0:0:0:0:
112,296,107924,1,0,0:0:0:0:
424,304,108128,6,0,P|416:232|400:136,1,134.999995880127
376,48,108469,1,0,0:0:0:0:
248,64,108605,2,0,P|168:64|112:96,2,134.999995880127
248,64,109083,1,0,0:0:0:0:
344,144,109219,1,0,0:0:0:0:
344,144,109287,1,0,0:0:0:0:
344,144,109355,1,0,0:0:0:0:
232,200,109492,1,0,0:0:0:0:
344,256,109628,1,0,0:0:0:0:
168,120,109765,1,0,0:0:0:0:
432,128,109901,1,0,0:0:0:0:
160,272,110037,2,0,B|112:248|136:208|144:200|168:184|168:184|32:96|32:96|64:104,1,269.999991760254
56,96,110515,6,0,P|112:72|144:72,1,89.9999972534181
160,88,110719,2,0,P|208:72|232:80,1,44.999998626709
232,80,110855,2,0,P|288:96|336:96,1,89.9999972534181
416,176,111128,1,0,0:0:0:0:
336,272,111265,2,0,P|272:280|232:272,1,89.9999972534181
128,224,111537,2,0,P|112:168|120:120,1,89.9999972534181
328,32,111810,2,0,P|360:80|360:112,1,89.9999972534181
408,224,112083,1,0,0:0:0:0:
296,280,112219,1,0,0:0:0:0:
168,280,112355,1,0,0:0:0:0:
144,160,112492,2,0,P|152:104|144:56,1,89.9999972534181
272,40,112765,5,0,0:0:0:0:
392,80,112901,1,0,0:0:0:0:
456,184,113037,1,0,0:0:0:0:
440,312,113174,1,0,0:0:0:0:
320,344,113310,1,0,0:0:0:0:
200,312,113446,2,0,P|144:280|104:232,1,89.9999972534181
120,48,113719,2,0,P|160:88|160:144,1,89.9999972534181
400,232,113992,2,0,P|384:176|360:136,1,89.9999972534181
232,104,114265,5,0,0:0:0:0:
352,184,114401,1,0,0:0:0:0:
208,208,114537,1,0,0:0:0:0:
312,112,114674,1,0,0:0:0:0:
280,248,114810,1,0,0:0:0:0:
128,112,114946,1,0,0:0:0:0:
416,88,115083,1,0,0:0:0:0:
384,272,115219,1,0,0:0:0:0:
144,280,115355,1,0,0:0:0:0:
144,280,115424,1,0,0:0:0:0:
144,280,115492,1,0,0:0:0:0:
96,144,115628,2,0,L|96:80,1,44.999998626709
248,80,115833,1,0,0:0:0:0:
248,80,115901,1,0,0:0:0:0:
376,104,116174,5,0,0:0:0:0:
408,120,116242,1,0,0:0:0:0:
432,144,116310,1,0,0:0:0:0:
448,176,116378,1,0,0:0:0:0:
464,208,116446,2,0,B|440:256|440:256|392:256,1,89.9999972534181
256,264,116719,2,0,L|208:264|160:264,1,89.9999972534181
72,160,116992,1,0,0:0:0:0:
168,48,117128,1,0,0:0:0:0:
312,72,117265,2,0,P|352:112|360:160,1,89.9999972534181
312,280,117537,2,0,P|288:240|208:192,1,134.999995880127
192,176,117810,5,0,0:0:0:0:
208,144,117878,1,0,0:0:0:0:
240,112,117946,1,0,0:0:0:0:
272,96,118015,1,0,0:0:0:0:
296,88,118083,2,0,B|352:80|360:80|360:80|448:168,1,179.999994506836
464,304,118492,2,0,L|440:256,1,44.999998626709
232,320,118765,2,0,L|272:296,1,44.999998626709
88,200,119174,6,0,P|112:160|160:160,1,89.9999972534181
280,88,119446,2,0,P|352:64|376:48,1,89.9999972534181
464,160,119719,2,0,P|408:192|400:232,1,89.9999972534181
320,328,119992,2,0,P|272:272|288:240,1,89.9999972534181
280,120,120265,2,0,P|256:160|208:184,1,89.9999972534181
128,72,120537,1,0,0:0:0:0:
224,184,120674,1,0,0:0:0:0:
344,112,120810,1,0,0:0:0:0:
200,112,120946,1,0,0:0:0:0:
320,192,121083,1,0,0:0:0:0:
176,184,121219,1,0,0:0:0:0:
304,248,121355,1,0,0:0:0:0:
104,264,121492,1,0,0:0:0:0:
456,304,121628,1,0,0:0:0:0:
456,304,121696,1,0,0:0:0:0:
456,304,121765,1,0,0:0:0:0:
312,328,121901,2,0,P|256:328|224:304,1,89.9999972534181
128,200,122174,2,0,B|120:136|120:136|32:56,1,179.999994506836
