osu file format v14

[General]
AudioFilename: MLG Illuminati.mp3
AudioLeadIn: 0
PreviewTime: -1
Countdown: 0
SampleSet: Normal
StackLeniency: 0.7
Mode: 0
LetterboxInBreaks: 1
WidescreenStoryboard: 0

[Editor]
DistanceSpacing: 1
BeatDivisor: 3
GridSize: 8
TimelineZoom: 0.9

[Metadata]
Title:Illuminati (X-Files Theme Song Trap Remix)
TitleUnicode:Illuminati (X-Files Theme Song Trap Remix)
Artist:MajorLeagueWobs
ArtistUnicode:MajorLeagueWobs
Creator:jc476
Version:Minor League Gamer
Source:
Tags:mlg major league gaming tv show confirmed
BeatmapID:745270
BeatmapSetID:336783

[Difficulty]
HPDrainRate:4
CircleSize:4
OverallDifficulty:4
ApproachRate:7
SliderMultiplier:1.79999990463257
SliderTickRate:3

[Events]
//Background and Video events
0,0,"mlg illuminati.jpg",0,0
//Break Periods
//Storyboard Layer 0 (Background)
//Storyboard Layer 1 (Fail)
//Storyboard Layer 2 (Pass)
//Storyboard Layer 3 (Foreground)
//Storyboard Sound Samples

[TimingPoints]
8.69190874337342,468.75,4,1,0,70,1,0

[Colours]
Combo1 : 249,6,6
Combo2 : 0,202,0
Combo3 : 248,248,248
Combo4 : 16,46,250

[HitObjects]
336,56,8,6,0,L|280:32,2,59.9999968210856
336,122,477,2,0,L|392:98,2,59.9999968210856
336,188,946,2,2,P|272:188|352:228,1,239.999987284342
376,168,1883,6,0,L|448:168,1,59.9999968210856,4|0,0:0|0:0,0:0:0:0:
464,128,2195,1,0,0:0:0:0:
440,88,2352,2,0,L|376:88,1,59.9999968210856
336,64,2664,2,0,P|240:64|224:160,1,179.999990463257
214,198,3289,6,0,L|150:214,1,59.9999968210856,4|0,0:0|0:0,0:0:0:0:
120,208,3601,1,0,0:0:0:0:
88,200,3758,1,0,0:0:0:0:
56,192,3914,1,0,0:0:0:0:
24,184,4070,2,2,B|24:120|24:120|24:40|24:40|68:-16|112:40|112:40|112:48|112:48|112:40|112:40|156:-16|200:40|200:40|200:208,1,539.999971389771
200,272,5633,6,8,L|272:296,1,59.9999968210856
296,256,5946,2,8,L|371:247,1,59.9999968210856
368,200,6258,2,8,L|432:160,1,59.9999968210856
80,192,7039,2,8,L|120:148,1,59.9999968210856
119,96,7351,2,8,L|174:73,1,59.9999968210856
205,31,7664,2,8,L|263:35,1,59.9999968210856
256,192,7977,12,4,8446,0:0:0:0:
254,150,8914,5,8,0:0:0:0:
256,48,9383,2,4,B|344:200|344:200|160:200|160:200|256:48,1,539.999971389771
256,192,11258,12,4,12664,0:0:0:0:
144,144,13133,6,8,L|80:144,1,59.9999968210857,12|8,0:0|0:0,0:0:0:0:
84,89,13446,2,8,L|156:89,1,59.9999968210857
144,35,13758,2,2,L|144:3,2,29.9999984105428,2|2|6,0:0|0:0|0:0,0:0:0:0:
408,168,14539,2,8,L|472:168,1,59.9999968210857
468,223,14852,2,8,L|396:223,1,59.9999968210857
408,277,15164,2,2,L|408:309,2,29.9999984105428,2|2|6,0:0|0:0|0:0,0:0:0:0:
120,152,15946,6,0,B|118:140|118:140|130:138|130:138|128:127|128:127|140:126|140:126|139:115|139:115|150:114|150:114|149:103|149:103|161:102|161:102|159:91|159:91|167:88,1,59.9999968210857
304,104,16414,1,0,0:0:0:0:
360,128,16570,1,0,0:0:0:0:
392,184,16727,1,0,0:0:0:0:
392,248,16883,6,8,L|456:248,3,59.9999968210857
256,288,17821,2,8,L|192:272,1,59.9999968210857
197,207,18133,2,8,L|255:192,1,59.9999968210857
128,40,18758,6,8,L|80:88,3,59.9999968210857
240,240,19696,2,8,L|288:192,1,59.9999968210857
336,168,20008,1,8,0:0:0:0:
392,168,20164,2,10,B|448:168|448:168|448:160|448:160|512:160,1,119.999993642171
504,96,20633,6,8,L|504:32,3,59.9999968210857,8|8|8|12,0:0|0:0|0:0|0:0,0:0:0:0:
272,80,21571,1,8,0:0:0:0:
272,80,21727,1,8,0:0:0:0:
272,80,21883,1,8,0:0:0:0:
272,80,22039,1,12,0:0:0:0:
160,264,22508,6,8,L|80:232,3,59.9999968210857,8|8|8|12,0:0|0:0|0:0|0:0,0:0:0:0:
264,88,23446,1,8,0:0:0:0:
296,52,23602,1,0,0:0:0:0:
340,32,23758,1,0,0:0:0:0:
388,28,23914,1,8,0:0:0:0:
436,36,24071,1,0,0:0:0:0:
476,64,24227,1,2,0:0:0:0:
488,112,24383,6,8,L|488:192|488:200,1,59.9999968210857
464,216,24696,2,8,L|432:272,1,59.9999968210857
392,304,25008,2,8,L|328:328,1,59.9999968210857
312,272,25321,1,2,0:0:0:0:
312,272,25477,1,2,0:0:0:0:
312,272,25633,1,2,0:0:0:0:
280,328,25789,6,8,L|200:328|192:328,1,59.9999968210857
176,304,26102,2,8,L|120:272,1,59.9999968210857
88,232,26414,2,8,L|64:168,1,59.9999968210857
66,115,26727,1,2,0:0:0:0:
66,115,26883,1,2,0:0:0:0:
66,115,27039,1,2,0:0:0:0:
64,56,27196,6,8,L|16:8,2,59.9999968210857
123,56,27664,2,8,B|167:18|167:18|215:56,1,119.999993642171,10|10,0:0|0:0,0:0:0:0:
168,105,28133,6,2,B|168:345|168:345|312:345,1,359.999980926514
416,104,29539,2,2,B|384:64|328:16|240:16|128:96|128:208|144:328|312:376|416:312|416:256|416:200|416:184|416:184|328:184,1,719.999961853027
256,192,31883,12,4,35633,0:0:0:0:
