osu file format v14

[General]
AudioFilename: MLG Illuminati.mp3
AudioLeadIn: 0
PreviewTime: -1
Countdown: 0
SampleSet: Normal
StackLeniency: 0.5
Mode: 0
LetterboxInBreaks: 1
WidescreenStoryboard: 1

[Editor]
DistanceSpacing: 0.9
BeatDivisor: 3
GridSize: 8
TimelineZoom: 1.6

[Metadata]
Title:Illuminati (X-Files Theme Song Trap Remix)
TitleUnicode:Illuminati (X-Files Theme Song Trap Remix)
Artist:MajorLeagueWobs
ArtistUnicode:MajorLeagueWobs
Creator:jc476
Version:Major League Gamer
Source:
Tags:mlg major league gaming tv show confirmed
BeatmapID:745269
BeatmapSetID:336783

[Difficulty]
HPDrainRate:6.6
CircleSize:4.7
OverallDifficulty:5.8
ApproachRate:8.2
SliderMultiplier:2.49999990463257
SliderTickRate:3

[Events]
//Background and Video events
0,0,"mlg illuminati.jpg",0,0
//Break Periods
//Storyboard Layer 0 (Background)
//Storyboard Layer 1 (Fail)
//Storyboard Layer 2 (Pass)
//Storyboard Layer 3 (Foreground)
//Storyboard Sound Samples

[TimingPoints]
8.69190874337342,468.75,4,1,0,60,1,0
30946,468.75,4,1,0,75,1,0

[Colours]
Combo1 : 249,6,6
Combo2 : 0,202,0
Combo3 : 248,248,248
Combo4 : 16,46,250

[HitObjects]
56,112,8,6,0,B|88:105|82:38|82:38|131:84|156:62,1,166.666660308838
189,140,477,2,0,B|156:146|162:213|162:213|113:167|90:187,1,166.666660308838
91,270,946,2,2,B|96:279|96:279|106:274|106:274|112:283|112:283|121:278|121:278|127:288|127:288|137:282|137:282|143:292|143:292|152:286|152:286|158:296|158:296|168:290|168:290|173:300|173:300|183:294|183:294|189:304|189:304|199:298|199:298|204:308|204:308|214:303|214:303|220:312|220:312|230:307|230:307|235:317|235:317|245:311|245:311|251:321|251:321|261:315|261:315|266:325|266:325|276:319|276:319|282:329|282:329|291:323|291:323|297:333|297:333|307:327|307:327|313:337|313:337|322:332,1,333.333320617676
480,264,1883,6,0,P|496:222|496:178,1,83.333330154419,4|0,0:0|0:0,0:0:0:0:
430,184,2196,1,0,0:0:0:0:
382,136,2352,2,0,P|398:93|428:62,1,83.333330154419
490,66,2664,1,0,0:0:0:0:
442,18,2821,1,8,0:0:0:0:
394,65,2977,2,8,L|426:97,2,41.6666650772095
327,65,3289,6,0,P|299:39|272:72,1,83.333330154419
300,143,3602,1,0,0:0:0:0:
327,221,3758,2,0,P|299:247|272:214,1,83.333330154419
300,143,4071,1,0,0:0:0:0:
208,96,4227,1,8,0:0:0:0:
136,176,4383,1,8,0:0:0:0:
115,176,4461,1,8,0:0:0:0:
94,176,4539,1,8,0:0:0:0:
96,248,4696,2,0,B|179:248|179:248|216:160,1,166.666660308838
136,184,5164,2,0,B|53:184|53:184|16:96,1,166.666660308838
88,72,5633,6,8,L|160:32,1,83.333330154419
160,104,5946,2,8,L|232:64,1,83.333330154419
232,136,6258,2,8,L|304:96,1,83.333330154419
360,64,6571,1,0,0:0:0:0:
376,88,6649,1,0,0:0:0:0:
384,120,6727,1,0,0:0:0:0:
384,152,6805,1,0,0:0:0:0:
376,184,6883,1,0,0:0:0:0:
360,208,6961,1,0,0:0:0:0:
344,232,7039,6,10,L|280:296,1,83.333330154419
285,290,7352,2,10,L|221:226,1,83.333330154419
226,231,7664,2,10,L|162:295,1,83.333330154419
125,248,7977,1,0,0:0:0:0:
109,224,8055,1,0,0:0:0:0:
101,192,8133,1,0,0:0:0:0:
101,160,8211,1,0,0:0:0:0:
109,128,8289,1,0,0:0:0:0:
125,104,8367,1,0,0:0:0:0:
141,80,8446,6,2,P|194:26|248:96,1,166.666660308838
320,48,8914,1,8,0:0:0:0:
320,48,8993,1,8,0:0:0:0:
320,48,9071,1,8,0:0:0:0:
394,48,9227,1,8,0:0:0:0:
394,48,9305,1,8,0:0:0:0:
392,72,9383,6,0,L|464:144,1,83.333330154419,12|0,0:0|0:0,0:0:0:0:
450,197,9696,1,0,0:0:0:0:
450,263,9852,2,0,L|386:327,1,83.333330154419
341,279,10164,1,0,0:0:0:0:
256,216,10321,1,0,0:0:0:0:
256,216,10399,1,0,0:0:0:0:
256,216,10477,1,0,0:0:0:0:
256,216,10555,1,0,0:0:0:0:
256,216,10633,1,0,0:0:0:0:
187,321,10789,6,0,L|115:249,2,83.333330154419,4|0|0,0:0|0:0|0:0,0:0:0:0:
256,192,11258,12,4,12664,0:0:0:0:
96,40,13133,6,8,B|177:28|177:28|245:97,1,166.666660308838,12|8,0:0|0:0,0:0:0:0:
155,107,13602,2,8,B|214:164|214:164|309:148,1,166.666660308838
392,120,14071,5,0,0:0:0:0:
450,178,14227,1,0,0:0:0:0:
450,261,14383,1,0,0:0:0:0:
446,340,14539,1,0,0:0:0:0:
416,340,14618,1,0,0:0:0:0:
386,340,14696,1,0,0:0:0:0:
356,340,14774,1,0,0:0:0:0:
326,340,14852,1,0,0:0:0:0:
296,340,14930,1,0,0:0:0:0:
266,310,15008,5,8,0:0:0:0:
207,251,15164,1,8,0:0:0:0:
264,191,15321,1,8,0:0:0:0:
322,132,15477,2,0,P|352:104|352:48,1,83.333330154419,8|0,0:0|0:0,0:0:0:0:
274,63,15789,1,8,0:0:0:0:
144,80,15946,2,2,B|136:80|136:80|128:88|128:88|120:80|120:80|112:88|112:88|104:80|104:80|96:88|96:88|88:80|88:80|80:80,1,83.333330154419,2|0,0:0|0:0,0:0:0:0:
216,16,16414,1,2,0:0:0:0:
288,40,16571,1,2,0:0:0:0:
336,96,16727,1,2,0:0:0:0:
360,168,16883,6,0,B|416:208|416:208|448:192,2,83.333330154419
392,104,17352,1,2,0:0:0:0:
317,104,17508,1,8,0:0:0:0:
317,104,17586,1,8,0:0:0:0:
317,104,17664,1,8,0:0:0:0:
240,104,17821,6,0,B|200:48|200:48|176:48,1,83.333330154419
117,35,18133,1,0,0:0:0:0:
117,35,18289,1,2,0:0:0:0:
117,110,18446,1,8,0:0:0:0:
117,110,18524,1,8,0:0:0:0:
117,110,18602,1,8,0:0:0:0:
72,168,18758,6,0,B|16:208|16:208|24:232,2,83.333330154419
136,200,19227,1,2,0:0:0:0:
200,232,19383,1,8,0:0:0:0:
200,232,19461,1,8,0:0:0:0:
200,232,19539,1,8,0:0:0:0:
240,168,19696,6,0,B|240:104|240:104|264:88,1,83.333330154419
312,56,20008,1,0,0:0:0:0:
368,16,20164,1,10,0:0:0:0:
400,16,20243,1,8,0:0:0:0:
432,16,20321,1,10,0:0:0:0:
464,16,20399,1,8,0:0:0:0:
464,49,20477,1,10,0:0:0:0:
464,82,20555,1,8,0:0:0:0:
464,112,20633,6,0,B|464:184|464:184|496:200,2,83.333330154419,8|0|0,0:0|0:0|0:0,0:0:0:0:
400,112,21102,1,2,0:0:0:0:
336,112,21258,1,0,0:0:0:0:
304,112,21336,1,0,0:0:0:0:
272,112,21414,1,0,0:0:0:0:
240,112,21493,1,0,0:0:0:0:
208,112,21571,6,8,B|184:48|184:48|152:48,1,83.333330154419
104,48,21883,1,0,0:0:0:0:
104,48,22039,1,2,0:0:0:0:
104,112,22196,1,0,0:0:0:0:
104,144,22274,1,0,0:0:0:0:
104,176,22352,1,0,0:0:0:0:
104,208,22430,1,0,0:0:0:0:
104,240,22508,6,8,L|192:296,1,83.333330154419
174,284,22821,1,0,0:0:0:0:
174,284,22977,2,8,L|240:216,1,83.333330154419,10|8,0:0|0:0,0:0:0:0:
231,224,23289,1,0,0:0:0:0:
176,160,23446,5,8,0:0:0:0:
176,160,23524,1,0,0:0:0:0:
176,160,23602,1,0,0:0:0:0:
176,160,23680,1,0,0:0:0:0:
176,160,23758,1,8,0:0:0:0:
232,104,23914,1,10,0:0:0:0:
232,104,23993,1,0,0:0:0:0:
232,104,24071,1,0,0:0:0:0:
232,104,24149,1,0,0:0:0:0:
232,104,24227,1,10,0:0:0:0:
336,80,24383,5,8,0:0:0:0:
285,180,24539,1,8,0:0:0:0:
234,80,24696,1,8,0:0:0:0:
335,130,24852,1,8,0:0:0:0:
234,180,25008,1,8,0:0:0:0:
285,80,25164,1,8,0:0:0:0:
335,180,25321,1,6,0:0:0:0:
234,130,25477,1,2,0:0:0:0:
335,80,25633,1,2,0:0:0:0:
285,180,25789,1,6,0:0:0:0:
215,60,26258,5,8,0:0:0:0:
286,199,26414,1,8,0:0:0:0:
357,60,26571,1,8,0:0:0:0:
215,130,26727,1,8,0:0:0:0:
357,199,26883,1,8,0:0:0:0:
286,60,27039,1,8,0:0:0:0:
215,199,27196,1,6,0:0:0:0:
357,130,27352,1,6,0:0:0:0:
215,60,27508,1,6,0:0:0:0:
286,199,27664,1,6,0:0:0:0:
40,144,28133,5,0,0:0:0:0:
48,112,28211,1,0,0:0:0:0:
64,80,28289,1,0,0:0:0:0:
88,56,28368,1,0,0:0:0:0:
120,40,28446,1,0,0:0:0:0:
152,32,28524,1,0,0:0:0:0:
184,40,28602,6,0,L|184:88,1,41.6666650772095,8|0,0:0|0:0,0:0:0:0:
224,104,28758,2,0,L|224:152,1,41.6666650772095,8|0,0:0|0:0,0:0:0:0:
264,168,28914,2,0,L|264:216,1,41.6666650772095,8|0,0:0|0:0,0:0:0:0:
304,232,29071,5,0,0:0:0:0:
336,224,29149,1,0,0:0:0:0:
368,208,29227,1,0,0:0:0:0:
392,184,29306,1,0,0:0:0:0:
408,152,29384,1,0,0:0:0:0:
416,120,29462,1,0,0:0:0:0:
408,80,29539,6,0,L|360:80,1,41.6666650772095,8|0,0:0|0:0,0:0:0:0:
344,40,29695,2,0,L|296:40,1,41.6666650772095,8|0,0:0|0:0,0:0:0:0:
280,80,29851,2,0,L|232:80,1,41.6666650772095,8|0,0:0|0:0,0:0:0:0:
208,56,30008,5,0,0:0:0:0:
176,40,30086,1,0,0:0:0:0:
136,32,30164,1,0,0:0:0:0:
96,40,30243,1,0,0:0:0:0:
64,64,30321,1,0,0:0:0:0:
48,96,30399,1,0,0:0:0:0:
40,136,30477,5,8,0:0:0:0:
48,176,30555,1,8,0:0:0:0:
64,208,30633,1,8,0:0:0:0:
96,232,30711,1,8,0:0:0:0:
128,240,30789,1,8,0:0:0:0:
168,240,30868,1,8,0:0:0:0:
200,224,30946,6,0,L|216:208,4,20.8333325386048
336,168,31414,2,0,L|352:144,2,20.8333325386048
360,200,31571,2,0,L|392:192,2,20.8333325386048
360,240,31727,2,0,L|384:248,2,20.8333325386048
256,192,31883,12,4,35633,0:0:0:0:
