osu file format v14

[General]
AudioFilename: MLG Illuminati.mp3
AudioLeadIn: 0
PreviewTime: -1
Countdown: 0
SampleSet: None
StackLeniency: 0.5
Mode: 3
LetterboxInBreaks: 1
SpecialStyle: 0
WidescreenStoryboard: 1

[Editor]
DistanceSpacing: 0.9
BeatDivisor: 12
GridSize: 8
TimelineZoom: 1.4

[Metadata]
Title:Illuminati (X-Files Theme Song Trap Remix)
TitleUnicode:Illuminati (X-Files Theme Song Trap Remix)
Artist:MajorLeagueWobs
ArtistUnicode:MajorLeagueWobs
Creator:jc476
Version:Illuminati-mania
Source:
Tags:mlg major league gaming tv show confirmed
BeatmapID:745268
BeatmapSetID:336783

[Difficulty]
HPDrainRate:5
CircleSize:4
OverallDifficulty:4.5
ApproachRate:8.2
SliderMultiplier:2.49999990463257
SliderTickRate:3

[Events]
//Background and Video events
0,0,"mlg illuminati.jpg",0,0
//Break Periods
//Storyboard Layer 0 (Background)
//Storyboard Layer 1 (Fail)
//Storyboard Layer 2 (Pass)
//Storyboard Layer 3 (Foreground)
//Storyboard Sound Samples

[TimingPoints]
8.69190874337342,468.75,4,3,1,100,1,0
31883,468.75,4,3,1,5,1,0

[Colours]
Combo1 : 249,6,6
Combo2 : 0,202,0
Combo3 : 248,248,248
Combo4 : 16,46,250

[HitObjects]
64,192,8,5,8,0:0:0:0:
192,192,8,1,0,0:0:0:0:
64,192,164,1,8,0:0:0:0:
64,192,321,1,8,0:0:0:0:
192,192,321,1,0,0:0:0:0:
320,192,477,1,2,0:0:0:0:
448,192,477,1,0,0:0:0:0:
320,192,633,1,2,0:0:0:0:
320,192,789,1,2,0:0:0:0:
448,192,789,1,0,0:0:0:0:
448,192,946,128,0,1571:0:0:0:0:
64,192,946,1,0,0:0:0:0:
192,192,1102,1,0,0:0:0:0:
320,192,1258,1,0,0:0:0:0:
192,192,1414,1,0,0:0:0:0:
64,192,1571,1,0,0:0:0:0:
192,192,1883,5,4,0:0:0:0:
320,192,1883,5,0,0:0:0:0:
64,192,2039,1,0,0:0:0:0:
192,192,2196,1,0,0:0:0:0:
448,192,2352,1,0,0:0:0:0:
192,192,2508,1,0,0:0:0:0:
320,192,2664,1,0,0:0:0:0:
64,192,2821,128,0,3133:0:0:0:0:
448,192,2821,1,0,0:0:0:0:
320,192,2977,1,0,0:0:0:0:
448,192,3133,1,0,0:0:0:0:
448,192,3289,1,0,0:0:0:0:
320,192,3368,1,0,0:0:0:0:
192,192,3446,1,0,0:0:0:0:
64,192,3524,1,0,0:0:0:0:
192,192,3602,1,0,0:0:0:0:
320,192,3680,1,0,0:0:0:0:
448,192,3758,5,0,0:0:0:0:
64,192,3758,5,4,0:0:0:0:
192,192,3914,1,4,0:0:0:0:
320,192,3914,1,0,0:0:0:0:
448,192,4071,1,0,0:0:0:0:
64,192,4071,1,4,0:0:0:0:
64,192,4227,1,0,0:0:0:0:
192,192,4305,1,0,0:0:0:0:
320,192,4383,1,0,0:0:0:0:
448,192,4461,1,0,0:0:0:0:
320,192,4539,1,0,0:0:0:0:
192,192,4618,1,0,0:0:0:0:
64,192,4696,1,4,0:0:0:0:
64,192,4852,1,4,0:0:0:0:
448,192,4852,1,0,0:0:0:0:
448,192,5008,1,0,0:0:0:0:
64,192,5008,1,4,0:0:0:0:
64,192,5164,1,0,0:0:0:0:
192,192,5204,1,0,0:0:0:0:
320,192,5243,1,0,0:0:0:0:
448,192,5282,1,0,0:0:0:0:
448,192,5477,1,0,0:0:0:0:
320,192,5516,1,0,0:0:0:0:
192,192,5555,1,0,0:0:0:0:
64,192,5594,1,0,0:0:0:0:
448,192,5633,128,8,6571:0:0:0:0:
192,192,5789,1,2,0:0:0:0:
320,192,5946,1,8,0:0:0:0:
64,192,6102,1,2,0:0:0:0:
320,192,6258,1,8,0:0:0:0:
192,192,6414,1,2,0:0:0:0:
64,192,6571,1,4,0:0:0:0:
192,192,6727,1,0,0:0:0:0:
320,192,6883,1,0,0:0:0:0:
64,192,7039,1,0,0:0:0:0:
192,192,7118,1,0,0:0:0:0:
320,192,7196,1,0,0:0:0:0:
192,192,7274,1,0,0:0:0:0:
64,192,7352,1,0,0:0:0:0:
192,192,7430,1,0,0:0:0:0:
320,192,7508,1,2,0:0:0:0:
64,192,7508,1,0,0:0:0:0:
192,192,7664,1,0,0:0:0:0:
448,192,7664,1,8,0:0:0:0:
320,192,7821,1,2,0:0:0:0:
64,192,7821,1,0,0:0:0:0:
448,192,7977,1,0,0:0:0:0:
192,192,7977,128,0,8446:0:0:0:0:
320,192,8055,1,0,0:0:0:0:
448,192,8133,1,0,0:0:0:0:
320,192,8211,1,0,0:0:0:0:
448,192,8289,1,0,0:0:0:0:
320,192,8368,1,0,0:0:0:0:
448,192,8446,1,0,0:0:0:0:
64,192,8446,128,0,8758:0:0:0:0:
320,192,8602,1,0,0:0:0:0:
448,192,8758,1,0,0:0:0:0:
64,192,8914,1,0,0:0:0:0:
192,192,8954,1,0,0:0:0:0:
448,192,8993,1,0,0:0:0:0:
320,192,9032,1,0,0:0:0:0:
320,192,9227,1,0,0:0:0:0:
448,192,9266,1,0,0:0:0:0:
192,192,9305,1,0,0:0:0:0:
64,192,9344,1,0,0:0:0:0:
448,192,9383,128,4,9539:0:0:0:0:
192,192,9539,128,4,9696:0:0:0:0:
320,192,9696,128,4,9852:0:0:0:0:
64,192,9852,128,12,10008:0:0:0:0:
448,192,10008,128,4,10164:0:0:0:0:
192,192,10164,128,4,10321:0:0:0:0:
192,192,10477,1,0,0:0:0:0:
192,192,10633,1,0,0:0:0:0:
448,192,10789,1,0,0:0:0:0:
320,192,10868,1,0,0:0:0:0:
192,192,10946,1,0,0:0:0:0:
64,192,11024,1,0,0:0:0:0:
448,192,11102,1,0,0:0:0:0:
320,192,11180,1,0,0:0:0:0:
64,192,11258,128,4,11571:0:0:0:0:
320,192,11414,1,4,0:0:0:0:
320,192,11571,1,4,0:0:0:0:
448,192,11727,1,8,0:0:0:0:
64,192,11805,1,0,0:0:0:0:
320,192,11883,1,0,0:0:0:0:
192,192,11961,1,0,0:0:0:0:
448,192,12039,1,0,0:0:0:0:
64,192,12118,1,0,0:0:0:0:
320,192,12196,1,8,0:0:0:0:
448,192,12196,1,0,0:0:0:0:
192,192,12352,1,0,0:0:0:0:
64,192,12352,1,0,0:0:0:0:
192,192,12508,1,0,0:0:0:0:
64,192,12508,1,0,0:0:0:0:
192,192,12664,1,0,0:0:0:0:
320,192,12704,1,0,0:0:0:0:
192,192,12743,1,0,0:0:0:0:
320,192,12782,1,0,0:0:0:0:
192,192,12977,1,0,0:0:0:0:
320,192,13016,1,0,0:0:0:0:
192,192,13055,1,0,0:0:0:0:
320,192,13094,1,0,0:0:0:0:
64,192,13133,128,4,13289:0:0:0:0:
448,192,13133,128,4,13289:0:0:0:0:
320,192,13446,128,4,13602:0:0:0:0:
192,192,13446,128,4,13602:0:0:0:0:
448,192,13758,128,4,13914:0:0:0:0:
64,192,13758,128,4,13914:0:0:0:0:
320,192,14071,1,8,0:0:0:0:
64,192,14227,1,0,0:0:0:0:
192,192,14227,1,0,0:0:0:0:
192,192,14383,1,0,0:0:0:0:
64,192,14383,1,0,0:0:0:0:
64,192,14539,1,0,0:0:0:0:
192,192,14539,1,0,0:0:0:0:
448,192,14539,1,0,0:0:0:0:
320,192,14618,1,0,0:0:0:0:
448,192,14696,1,0,0:0:0:0:
320,192,14774,1,0,0:0:0:0:
448,192,14852,1,0,0:0:0:0:
320,192,14930,1,0,0:0:0:0:
192,192,15008,1,0,0:0:0:0:
64,192,15164,1,0,0:0:0:0:
192,192,15321,1,0,0:0:0:0:
320,192,15477,1,0,0:0:0:0:
448,192,15555,1,0,0:0:0:0:
320,192,15633,1,0,0:0:0:0:
448,192,15711,1,0,0:0:0:0:
320,192,15789,1,0,0:0:0:0:
448,192,15868,1,0,0:0:0:0:
64,192,15946,1,8,0:0:0:0:
192,192,15985,1,8,0:0:0:0:
320,192,16024,1,8,0:0:0:0:
448,192,16063,1,8,0:0:0:0:
64,192,16414,1,8,0:0:0:0:
192,192,16454,1,8,0:0:0:0:
320,192,16493,1,8,0:0:0:0:
64,192,16571,1,8,0:0:0:0:
192,192,16610,1,8,0:0:0:0:
320,192,16649,1,8,0:0:0:0:
192,192,16727,1,2,0:0:0:0:
320,192,16766,1,2,0:0:0:0:
448,192,16805,1,2,0:0:0:0:
64,192,16883,1,4,0:0:0:0:
192,192,17039,1,4,0:0:0:0:
64,192,17196,1,4,0:0:0:0:
448,192,17352,1,0,0:0:0:0:
320,192,17430,1,0,0:0:0:0:
192,192,17508,1,0,0:0:0:0:
64,192,17586,1,0,0:0:0:0:
192,192,17664,1,0,0:0:0:0:
320,192,17743,1,0,0:0:0:0:
448,192,17821,1,0,0:0:0:0:
64,192,17821,1,4,0:0:0:0:
320,192,17977,1,0,0:0:0:0:
192,192,17977,1,4,0:0:0:0:
448,192,18133,1,0,0:0:0:0:
64,192,18133,1,4,0:0:0:0:
320,192,18289,1,0,0:0:0:0:
448,192,18368,1,0,0:0:0:0:
64,192,18446,1,0,0:0:0:0:
192,192,18524,1,0,0:0:0:0:
320,192,18602,1,0,0:0:0:0:
448,192,18680,1,0,0:0:0:0:
192,192,18758,1,0,0:0:0:0:
320,192,18758,1,0,0:0:0:0:
64,192,18914,1,0,0:0:0:0:
192,192,18914,1,0,0:0:0:0:
192,192,19071,1,0,0:0:0:0:
64,192,19071,1,0,0:0:0:0:
320,192,19227,1,0,0:0:0:0:
192,192,19227,1,0,0:0:0:0:
448,192,19305,1,0,0:0:0:0:
64,192,19305,1,0,0:0:0:0:
192,192,19383,1,0,0:0:0:0:
320,192,19383,1,0,0:0:0:0:
448,192,19461,1,0,0:0:0:0:
64,192,19461,1,0,0:0:0:0:
192,192,19539,1,0,0:0:0:0:
320,192,19539,1,0,0:0:0:0:
448,192,19618,1,0,0:0:0:0:
64,192,19618,1,0,0:0:0:0:
192,192,19696,1,0,0:0:0:0:
320,192,19696,1,0,0:0:0:0:
320,192,19852,1,0,0:0:0:0:
448,192,19852,1,0,0:0:0:0:
448,192,20008,1,0,0:0:0:0:
320,192,20008,1,0,0:0:0:0:
64,192,20164,1,0,0:0:0:0:
192,192,20164,1,8,0:0:0:0:
320,192,20204,1,8,0:0:0:0:
448,192,20204,1,0,0:0:0:0:
64,192,20243,1,0,0:0:0:0:
192,192,20243,1,8,0:0:0:0:
320,192,20282,1,8,0:0:0:0:
448,192,20282,1,0,0:0:0:0:
64,192,20477,1,0,0:0:0:0:
192,192,20477,1,8,0:0:0:0:
320,192,20516,1,8,0:0:0:0:
448,192,20516,1,0,0:0:0:0:
192,192,20555,1,8,0:0:0:0:
64,192,20555,1,0,0:0:0:0:
448,192,20594,1,0,0:0:0:0:
320,192,20594,1,8,0:0:0:0:
64,192,20633,1,4,0:0:0:0:
192,192,20633,1,0,0:0:0:0:
320,192,20789,1,0,0:0:0:0:
448,192,20946,1,0,0:0:0:0:
320,192,21102,1,0,0:0:0:0:
192,192,21180,1,0,0:0:0:0:
64,192,21258,1,0,0:0:0:0:
192,192,21336,1,0,0:0:0:0:
320,192,21414,1,0,0:0:0:0:
448,192,21493,1,0,0:0:0:0:
320,192,21571,1,0,0:0:0:0:
192,192,21727,1,0,0:0:0:0:
64,192,21883,1,4,0:0:0:0:
192,192,22039,1,4,0:0:0:0:
448,192,22039,1,0,0:0:0:0:
320,192,22118,1,0,0:0:0:0:
64,192,22118,1,0,0:0:0:0:
192,192,22196,1,4,0:0:0:0:
448,192,22196,1,0,0:0:0:0:
320,192,22274,1,0,0:0:0:0:
64,192,22274,1,0,0:0:0:0:
448,192,22352,1,0,0:0:0:0:
192,192,22352,1,4,0:0:0:0:
320,192,22430,1,0,0:0:0:0:
64,192,22430,1,0,0:0:0:0:
192,192,22508,128,0,22586:0:0:0:0:
448,192,22508,128,2,22586:0:0:0:0:
448,192,22664,128,2,22743:0:0:0:0:
192,192,22664,128,0,22743:0:0:0:0:
448,192,22821,128,2,22899:0:0:0:0:
192,192,22821,128,0,22899:0:0:0:0:
64,192,22977,1,0,0:0:0:0:
192,192,23055,1,0,0:0:0:0:
64,192,23133,1,0,0:0:0:0:
448,192,23211,1,0,0:0:0:0:
320,192,23289,1,0,0:0:0:0:
448,192,23368,1,0,0:0:0:0:
192,192,23446,128,0,23758:0:0:0:0:
320,192,23602,128,0,23758:0:0:0:0:
448,192,23758,1,0,0:0:0:0:
448,192,23914,1,8,0:0:0:0:
320,192,23954,1,8,0:0:0:0:
192,192,23993,1,8,0:0:0:0:
64,192,24032,1,8,0:0:0:0:
64,192,24227,1,8,0:0:0:0:
192,192,24266,1,8,0:0:0:0:
320,192,24305,1,8,0:0:0:0:
448,192,24344,1,8,0:0:0:0:
64,192,24383,1,4,0:0:0:0:
192,192,24383,1,0,0:0:0:0:
64,192,24539,1,4,0:0:0:0:
320,192,24539,1,0,0:0:0:0:
448,192,24696,1,0,0:0:0:0:
64,192,24696,1,4,0:0:0:0:
64,192,24852,1,8,0:0:0:0:
192,192,24930,1,8,0:0:0:0:
320,192,25008,1,8,0:0:0:0:
64,192,25086,1,8,0:0:0:0:
192,192,25164,1,8,0:0:0:0:
320,192,25243,1,8,0:0:0:0:
448,192,25321,1,0,0:0:0:0:
64,192,25321,1,4,0:0:0:0:
192,192,25477,1,4,0:0:0:0:
64,192,25633,1,4,0:0:0:0:
448,192,25633,1,0,0:0:0:0:
448,192,25789,1,2,0:0:0:0:
192,192,25868,1,2,0:0:0:0:
64,192,25946,1,2,0:0:0:0:
448,192,26024,1,2,0:0:0:0:
192,192,26102,1,2,0:0:0:0:
64,192,26180,1,2,0:0:0:0:
320,192,26258,128,4,26414:0:0:0:0:
448,192,26414,128,4,26571:0:0:0:0:
192,192,26571,128,4,26727:0:0:0:0:
448,192,26727,1,8,0:0:0:0:
64,192,26805,1,8,0:0:0:0:
320,192,26883,1,8,0:0:0:0:
64,192,26961,1,8,0:0:0:0:
448,192,27039,1,8,0:0:0:0:
64,192,27118,1,8,0:0:0:0:
192,192,27196,1,0,0:0:0:0:
320,192,27196,1,4,0:0:0:0:
320,192,27352,1,4,0:0:0:0:
448,192,27352,1,0,0:0:0:0:
192,192,27508,1,4,0:0:0:0:
64,192,27508,1,0,0:0:0:0:
192,192,27664,1,8,0:0:0:0:
448,192,27704,1,8,0:0:0:0:
192,192,27743,1,8,0:0:0:0:
448,192,27782,1,8,0:0:0:0:
64,192,27977,1,8,0:0:0:0:
320,192,28016,1,8,0:0:0:0:
64,192,28055,1,8,0:0:0:0:
320,192,28094,1,8,0:0:0:0:
192,192,28133,128,0,28446:0:0:0:0:
448,192,28133,128,4,28446:0:0:0:0:
64,192,28289,1,0,0:0:0:0:
320,192,28289,1,4,0:0:0:0:
320,192,28446,1,4,0:0:0:0:
64,192,28446,1,0,0:0:0:0:
64,192,28602,1,8,0:0:0:0:
320,192,28602,1,0,0:0:0:0:
192,192,28680,1,2,0:0:0:0:
448,192,28680,1,0,0:0:0:0:
320,192,28758,1,0,0:0:0:0:
64,192,28758,1,8,0:0:0:0:
192,192,28836,1,2,0:0:0:0:
448,192,28836,1,0,0:0:0:0:
320,192,28914,1,0,0:0:0:0:
64,192,28914,1,8,0:0:0:0:
192,192,28993,1,2,0:0:0:0:
448,192,28993,1,0,0:0:0:0:
64,192,29071,128,0,29383:0:0:0:0:
320,192,29071,128,4,29383:0:0:0:0:
192,192,29227,1,0,0:0:0:0:
448,192,29227,1,4,0:0:0:0:
192,192,29383,1,0,0:0:0:0:
448,192,29383,1,4,0:0:0:0:
320,192,29539,1,8,0:0:0:0:
448,192,29618,1,8,0:0:0:0:
320,192,29696,1,8,0:0:0:0:
192,192,29774,1,8,0:0:0:0:
64,192,29852,1,8,0:0:0:0:
192,192,29930,1,8,0:0:0:0:
320,192,30008,1,4,0:0:0:0:
320,192,30164,1,4,0:0:0:0:
448,192,30164,1,0,0:0:0:0:
64,192,30321,1,0,0:0:0:0:
320,192,30321,1,4,0:0:0:0:
448,192,30321,1,0,0:0:0:0:
320,192,30477,1,4,0:0:0:0:
448,192,30555,1,4,0:0:0:0:
64,192,30633,1,4,0:0:0:0:
192,192,30711,1,4,0:0:0:0:
320,192,30789,1,4,0:0:0:0:
448,192,30868,1,4,0:0:0:0:
64,192,30946,1,8,0:0:0:0:
192,192,30985,1,8,0:0:0:0:
320,192,31024,1,8,0:0:0:0:
448,192,31063,1,8,0:0:0:0:
64,192,31414,1,8,0:0:0:0:
192,192,31454,1,8,0:0:0:0:
320,192,31493,1,8,0:0:0:0:
64,192,31571,1,8,0:0:0:0:
192,192,31610,1,8,0:0:0:0:
320,192,31649,1,8,0:0:0:0:
64,192,31727,1,2,0:0:0:0:
192,192,31766,1,2,0:0:0:0:
320,192,31805,1,2,0:0:0:0:
448,192,31844,1,2,0:0:0:0:
192,192,31883,128,2,32352:0:0:0:0:
64,192,31883,128,2,35633:0:0:0:0:
320,192,32352,128,2,32821:0:0:0:0:
192,192,32821,128,2,33289:0:0:0:0:
448,192,33289,128,2,33758:0:0:0:0:
192,192,33758,128,2,35633:0:0:0:0:
