osu file format v14

[General]
AudioFilename: Sonic - Green Trill Zone.mp3
AudioLeadIn: 0
PreviewTime: 1604
Countdown: 0
SampleSet: Soft
StackLeniency: 0.7
Mode: 0
LetterboxInBreaks: 0
WidescreenStoryboard: 0

[Editor]
Bookmarks: 1604,14404,27204,40004,52804,65604,78404
DistanceSpacing: 1.1
BeatDivisor: 4
GridSize: 4
TimelineZoom: 2.1

[Metadata]
Title:"Green Trill Zone" (Trap Remix)
TitleUnicode:"Green Trill Zone" (Trap Remix)
Artist:MajorLeagueWobs
ArtistUnicode:MajorLeagueWobs
Creator:Maeglwn
Version:Normal
Source:
Tags:sanic sonic soundclown mlw mlg kaguya hourain stefan bbj0920 0920 tng thenutritiousguy
BeatmapID:577201
BeatmapSetID:247243

[Difficulty]
HPDrainRate:4
CircleSize:3
OverallDifficulty:4
ApproachRate:5
SliderMultiplier:3
SliderTickRate:2

[Events]
//Background and Video events
0,0,"beautiful.png",0,0
//Break Periods
//Storyboard Layer 0 (Background)
//Storyboard Layer 1 (Fail)
//Storyboard Layer 2 (Pass)
//Storyboard Layer 3 (Foreground)
//Storyboard Sound Samples

[TimingPoints]
1604,800,4,2,0,80,1,0
52804,-100,4,2,0,85,0,1
65204,-100,4,2,0,80,0,0
65604,-100,4,2,0,85,0,1
78404,-100,4,2,0,75,0,0
78804,-100,4,2,0,65,0,0
79204,-100,4,2,0,45,0,0
79604,-100,4,2,0,25,0,0
80004,-100,4,2,0,5,0,0

[Colours]
Combo1 : 100,177,255
Combo2 : 114,155,233
Combo3 : 18,124,255
Combo4 : 195,195,195

[HitObjects]
124,144,1604,6,0,B|160:84|160:84|240:144|312:72,1,225,4|0,1:0|0:0,0:0:0:0:
368,32,2404,2,0,B|420:60|420:60|448:164,1,150,8|2,0:0|0:0,0:0:0:0:
416,312,3204,1,2,0:0:0:0:
300,192,3604,1,0,0:0:0:0:
260,352,4004,2,0,B|228:384|228:384|192:344|120:336,1,150,8|2,0:0|0:0,0:0:0:0:
84,180,4804,6,0,P|72:120|148:44,1,150,2|0,0:0|0:0,0:0:0:0:
196,92,5404,2,0,P|267:112|340:92,1,150,0|0,0:0|0:0,0:0:0:0:
404,40,6004,2,0,P|451:95|441:167,1,150,2|2,0:0|0:0,0:0:0:0:
304,256,6804,1,2,0:0:0:0:
140,256,7204,2,0,L|44:256,2,75,8|0|2,0:0|0:0|1:2,0:0:0:0:
304,256,8004,5,4,1:0:0:0:
420,140,8404,1,0,0:0:0:0:
260,96,8804,2,0,P|192:71|134:113,1,150,8|0,0:0|0:0,0:0:0:0:
92,272,9604,2,0,B|124:348|124:348|196:348,1,150,2|0,0:2|0:0,0:0:0:0:
352,304,10404,2,0,B|320:228|320:228|248:228,1,150,8|0,0:0|0:0,0:0:0:0:
100,160,11204,6,0,P|96:92|236:44,2,225,2|0|0,0:0|0:0|0:0,0:0:0:0:
256,192,12804,12,4,14404,1:0:0:0:
164,120,15204,6,0,L|236:64,2,75,8|0|0,0:0|0:0|0:0,0:0:0:0:
112,184,15804,1,0,0:0:0:0:
152,256,16004,2,0,P|192:304|284:296,1,150,2|0,0:0|0:0,0:0:0:0:
404,200,16804,2,0,P|364:152|272:160,1,150,8|0,0:0|3:0,0:0:0:0:
112,184,17604,6,0,P|144:92|204:64,1,150,2|0,0:0|0:0,0:0:0:0:
256,120,18204,1,0,0:0:0:0:
324,72,18404,2,0,P|382:117|398:189,1,150,2|0,0:0|0:0,0:0:0:0:
432,340,19204,2,0,P|392:288|300:284,1,150,2|0,0:0|0:0,0:0:0:0:
252,340,19804,2,0,P|179:334|132:278,1,150,2|0,0:0|0:0,0:0:0:0:
132,196,20404,1,0,3:0:0:0:
200,152,20604,1,0,3:0:0:0:
124,112,20804,6,0,B|100:76|100:76|168:76|208:16,1,150,4|0,1:0|0:0,0:0:0:0:
340,112,21604,2,0,L|416:68,2,75,8|0|0,0:0|0:0|0:0,0:0:0:0:
192,188,22404,2,0,P|132:228|124:300,1,150,2|0,0:0|0:0,0:0:0:0:
208,296,23004,2,0,P|248:356|320:363,1,150,2|0,0:0|0:0,0:0:0:0:
388,316,23604,1,0,3:0:0:0:
452,164,24004,5,2,0:0:0:0:
328,56,24404,1,0,0:0:0:0:
292,216,24804,2,0,L|172:324,1,150,8|0,0:0|0:0,0:0:0:0:
100,296,25404,1,0,0:0:0:0:
52,228,25604,2,0,P|36:168|96:96,1,150,2|0,0:0|0:0,0:0:0:0:
164,116,26204,2,0,P|224:132|296:72,1,150,2|0,0:0|0:0,0:0:0:0:
376,88,26804,1,2,3:0:0:0:
492,204,27204,5,4,1:0:0:0:
472,368,27604,1,0,0:0:0:0:
348,264,28004,2,0,L|276:320,2,75,8|0|0,0:0|0:0|0:0,0:0:0:0:
396,200,28604,1,0,0:0:0:0:
352,132,28804,2,0,P|312:84|220:92,1,150,2|0,0:0|0:0,0:0:0:0:
108,196,29604,2,0,P|148:244|240:236,1,150,8|0,0:0|3:0,0:0:0:0:
396,200,30404,6,0,P|364:292|304:320,1,150,2|0,0:0|0:0,0:0:0:0:
260,260,31004,1,0,0:0:0:0:
200,316,31204,2,0,P|142:272|127:200,1,150,8|0,0:0|0:0,0:0:0:0:
96,40,32004,2,0,P|136:92|228:96,1,150,2|0,0:0|0:0,0:0:0:0:
276,44,32604,2,0,P|349:50|396:106,1,150,2|0,0:0|0:0,0:0:0:0:
380,188,33204,1,0,3:0:0:0:
312,232,33404,1,0,3:0:0:0:
388,268,33604,6,0,B|412:304|412:304|344:304|304:364,1,150,4|0,1:0|0:0,0:0:0:0:
172,272,34404,2,0,L|96:316,2,75,8|0|0,0:0|0:0|0:0,0:0:0:0:
320,196,35204,2,0,P|380:156|388:84,1,150,2|0,0:0|0:0,0:0:0:0:
304,88,35804,2,0,P|264:28|192:21,1,150,2|0,0:0|0:0,0:0:0:0:
124,68,36404,1,0,3:0:0:0:
60,220,36804,5,2,0:0:0:0:
184,328,37204,1,0,0:0:0:0:
220,168,37604,2,0,L|340:60,1,150,8|0,0:0|0:0,0:0:0:0:
412,88,38204,1,0,0:0:0:0:
460,156,38404,2,0,P|476:216|416:288,1,150,2|0,0:0|0:0,0:0:0:0:
348,268,39004,2,0,P|288:252|216:312,1,150,2|0,0:0|0:0,0:0:0:0:
136,296,39604,1,2,3:0:0:0:
80,140,40004,6,0,P|120:72|208:52,2,150,4|0|8,1:0|0:0|0:0,0:0:0:0:
136,296,41204,1,0,0:0:0:0:
216,332,41404,1,0,0:0:0:0:
288,288,41604,2,0,P|344:236|356:152,2,150,2|0|8,0:0|0:0|0:0,0:0:0:0:
136,220,42804,1,0,0:0:0:0:
212,68,43204,6,0,P|281:43|349:70,2,150,2|0|8,0:0|0:0|0:0,0:0:0:0:
140,216,44404,1,0,0:0:0:0:
256,336,44804,1,2,0:0:0:0:
420,340,45204,1,0,0:0:0:0:
344,192,45604,2,0,L|344:100,2,75,8|0|0,0:0|0:0|0:0,0:0:0:0:
308,268,46204,1,0,0:0:0:0:
256,336,46404,6,0,P|152:340|88:220,2,225,2|0|0,0:0|0:0|0:0,0:0:0:0:
220,176,48004,2,0,P|324:172|388:292,2,225,2|0|0,3:2|0:0|0:0,0:0:0:0:
256,192,49604,12,4,52804,1:0:0:0:
132,112,53604,6,0,L|76:44,2,75,8|0|0,0:0|0:0|0:0,0:0:0:0:
136,196,54204,1,0,0:0:0:0:
216,216,54404,2,0,P|268:244|368:216,1,150,2|0,0:0|0:0,0:0:0:0:
308,160,55004,2,0,P|280:108|308:8,1,150
376,48,55604,1,0,3:0:0:0:
508,148,56004,5,2,3:2:0:0:
384,256,56404,1,0,0:0:0:0:
260,364,56804,2,0,L|184:312,2,75,8|0|0,0:0|0:0|0:0,0:0:0:0:
344,368,57404,1,0,0:0:0:0:
416,332,57604,2,0,P|476:276|468:204,1,150,2|0,0:0|0:0,0:0:0:0:
396,248,58204,2,0,P|340:188|268:196,1,150,2|0,0:0|0:0,0:0:0:0:
200,220,58804,1,8,3:2:0:0:
48,152,59204,6,0,P|88:96|188:68,1,150,4|0,1:0|0:0,0:0:0:0:
328,72,60004,2,0,L|400:96,1,75,8|0,0:0|0:0,0:0:0:0:
452,160,60404,1,0,0:0:0:0:
460,240,60604,1,0,0:0:0:0:
408,304,60804,2,0,P|340:336|248:320,2,150,2|0|8,0:0|0:0|0:0,0:0:0:0:
316,168,62004,1,0,3:0:0:0:
156,224,62404,6,0,P|72:220|16:148,1,150,2|0,3:2|0:0,0:0:0:0:
28,96,63004,1,0,0:0:0:0:
92,44,63204,1,8,0:0:0:0:
172,68,63404,2,0,P|224:108|308:84,1,150,0|0,0:0|0:0,0:0:0:0:
380,116,64004,2,0,P|360:185|402:245,1,150,2|0,0:0|0:0,0:0:0:0:
340,304,64604,2,0,P|270:284|210:326,1,150,2|0,0:0|0:0,0:0:0:0:
132,296,65204,1,8,3:2:0:0:
264,200,65604,5,4,1:0:0:0:
284,364,66004,1,0,0:0:0:0:
416,260,66404,2,0,L|472:328,2,75,8|0|0,0:0|0:0|0:0,0:0:0:0:
376,188,67004,1,0,0:0:0:0:
296,168,67204,2,0,P|244:140|144:168,1,150,2|0,0:0|0:0,0:0:0:0:
204,224,67804,2,0,P|232:276|204:376,1,150,0|0,0:0|0:0,0:0:0:0:
136,336,68404,1,0,3:0:0:0:
4,236,68804,5,2,3:2:0:0:
128,128,69204,1,0,0:0:0:0:
252,20,69604,2,0,L|328:72,2,75,8|0|0,0:0|0:0|0:0,0:0:0:0:
168,20,70204,1,0,0:0:0:0:
96,60,70404,2,0,P|36:116|44:188,1,150,2|0,0:0|0:0,0:0:0:0:
116,144,71004,2,0,P|172:204|244:196,1,150,2|0,0:0|0:0,0:0:0:0:
312,168,71604,1,8,3:2:0:0:
464,232,72004,6,0,P|424:288|324:316,1,150,4|0,1:0|0:0,0:0:0:0:
184,312,72804,2,0,L|112:288,1,75,8|0,0:0|0:0,0:0:0:0:
60,224,73204,1,0,0:0:0:0:
52,144,73404,1,0,0:0:0:0:
104,80,73604,2,0,P|172:48|264:64,2,150,2|0|8,0:0|0:0|0:0,0:0:0:0:
196,216,74804,1,0,3:0:0:0:
356,160,75204,6,0,P|440:164|496:236,1,150,2|0,3:2|0:0,0:0:0:0:
484,288,75804,1,0,0:0:0:0:
420,340,76004,1,8,0:0:0:0:
340,316,76204,2,0,P|288:276|204:300,1,150,0|0,0:0|0:0,0:0:0:0:
132,268,76804,2,0,P|152:199|110:139,1,150,2|0,0:0|0:0,0:0:0:0:
172,80,77404,2,0,P|242:100|302:58,1,150,2|0,0:0|0:0,0:0:0:0:
380,88,78004,1,8,3:2:0:0:
256,192,78404,5,4,1:0:0:0:
256,192,78604,12,0,80004,0:0:0:0:
