osu file format v14

[General]
AudioFilename: ice2P1dhxRxF.128.mp3
AudioLeadIn: 0
PreviewTime: -1
Countdown: 0
SampleSet: None
StackLeniency: 0.7
Mode: 0
LetterboxInBreaks: 1
StoryFireInFront: 0
SkinPreference:Azerino+23.01.2015
EpilepsyWarning: 1
WidescreenStoryboard: 1

[Editor]
DistanceSpacing: 0.8
BeatDivisor: 3
GridSize: 8
TimelineZoom: 0.8000001

[Metadata]
Title:The Big Black (MLW Remix)
TitleUnicode:The Big Black (MLW Remix)
Artist:Major League Wobs
ArtistUnicode:Major League Wobs
Creator:StepGaming
Version:Hard
Source:SoundCloud
Tags:The big black, Rrtyui, Cookiezi, Major league wobs
BeatmapID:743106
BeatmapSetID:335733

[Difficulty]
HPDrainRate:4
CircleSize:4
OverallDifficulty:5
ApproachRate:8
SliderMultiplier:0.8
SliderTickRate:1

[Events]
//Background and Video events
0,0,"1354364731-the-quick-brown-fox-tqbf.jpg",0,0
//Break Periods
2,63324,65416
2,67699,69500
2,83700,93416
//Storyboard Layer 0 (Background)
//Storyboard Layer 1 (Fail)
//Storyboard Layer 2 (Pass)
//Storyboard Layer 3 (Foreground)
//Storyboard Sound Samples

[TimingPoints]
0,166.666666666667,4,1,0,100,1,0

[HitObjects]
96,288,7500,5,0,0:0:0:0:
192,296,7666,2,0,P|72:200|56:208,1,160
184,112,8166,1,0,0:0:0:0:
280,168,8333,2,0,L|336:80,2,80
352,264,8833,5,0,0:0:0:0:
432,208,9000,2,0,P|376:136|368:136,1,80
304,88,9333,1,0,0:0:0:0:
192,120,9500,2,0,P|160:232|168:232,1,160
192,240,10000,5,0,0:0:0:0:
296,168,10166,1,0,0:0:0:0:
384,208,10333,2,0,P|344:304|328:312,1,80
264,304,10666,1,0,0:0:0:0:
152,288,10833,1,0,0:0:0:0:
144,192,11000,2,0,P|240:224|240:232,1,80
336,224,11333,1,0,0:0:0:0:
224,104,11500,6,0,P|160:72|152:72,2,80
320,152,12000,1,0,0:0:0:0:
392,240,12166,2,0,P|352:320|280:312,1,160
144,256,12666,2,0,B|120:192|120:192|120:160|120:160,1,80
216,104,13000,6,0,P|304:160|304:168,1,80
336,224,13333,1,0,0:0:0:0:
248,288,13500,2,0,L|160:272,2,80
344,168,14000,1,0,0:0:0:0:
240,112,14166,6,0,P|184:192|176:192,2,80
168,64,14666,1,0,0:0:0:0:
88,168,14833,1,0,0:0:0:0:
120,264,15000,2,0,B|208:288|208:288|272:248,1,160
336,136,15500,1,0,0:0:0:0:
216,72,16166,6,0,B|176:88|176:88|136:184,1,80
160,240,16500,1,0,0:0:0:0:
256,312,16666,1,0,0:0:0:0:
384,288,16833,2,0,P|384:208|376:200,1,80
376,120,17166,1,0,0:0:0:0:
304,48,17333,2,0,P|208:40|192:48,1,80
128,104,17666,2,0,B|80:168|80:168|80:248,1,160
304,256,19500,6,0,P|144:232|136:216,1,160
152,248,20000,1,0,0:0:0:0:
88,168,20166,2,0,P|152:96|160:96,1,80
240,88,20500,1,0,0:0:0:0:
456,264,20833,1,0,0:0:0:0:
312,296,22166,5,0,0:0:0:0:
192,288,22333,2,0,P|144:232|144:224,2,80
304,240,22833,1,0,0:0:0:0:
360,152,23000,2,0,P|304:72|296:72,1,80
112,80,23500,1,0,0:0:0:0:
112,192,24833,6,0,P|152:256|160:256,1,80
240,272,25166,1,0,0:0:0:0:
344,272,25333,2,0,P|304:352|296:352,2,80
344,168,25833,1,0,0:0:0:0:
192,48,26166,1,0,0:0:0:0:
152,112,27500,6,0,B|88:160|88:160|104:264,1,160
192,296,28000,1,0,0:0:0:0:
296,296,28166,2,0,P|336:216|328:208,2,80
344,112,28833,1,0,0:0:0:0:
200,80,30166,6,0,P|120:216|120:224,1,160
200,272,30666,1,0,0:0:0:0:
304,296,30833,2,0,P|352:224|352:216,1,80
376,144,31166,2,0,P|328:72|320:72,1,80
248,56,31500,5,0,0:0:0:0:
160,64,31666,2,0,P|88:120|88:128,2,80
240,104,32166,1,0,0:0:0:0:
312,152,32333,1,0,0:0:0:0:
304,240,32500,2,0,P|240:304|232:304,1,80
160,256,32833,2,0,P|152:176|160:168,1,80
232,184,33166,2,0,P|264:272|288:280,1,80
336,280,33500,1,0,0:0:0:0:
392,216,33666,2,0,P|432:144|424:136,2,80
304,224,34166,5,0,0:0:0:0:
264,136,34333,1,0,0:0:0:0:
176,136,34500,1,0,0:0:0:0:
144,224,34666,1,0,0:0:0:0:
176,304,34833,2,0,B|256:296|256:296|328:224|312:216,1,160
304,136,35333,1,0,0:0:0:0:
256,56,35500,6,0,L|168:48|168:48,2,80
336,96,36000,1,0,0:0:0:0:
392,168,36166,2,0,P|392:264|384:280,1,80
312,248,36500,2,0,P|312:160|320:144,1,80
288,88,36833,1,0,0:0:0:0:
200,80,37000,1,0,0:0:0:0:
128,136,37166,2,0,P|120:232|128:240,1,80
152,280,37500,5,0,0:0:0:0:
248,296,37666,1,0,0:0:0:0:
336,280,37833,2,0,P|384:120|384:112,1,160
320,56,38333,6,0,L|272:56,5,26.6666666666667
344,144,38750,1,0,0:0:0:0:
256,144,38944,6,0,L|208:144,5,26.6666666666667
176,256,39500,1,0,0:0:0:0:
112,176,40833,6,0,B|128:96|128:96|208:64,1,160
288,96,41333,1,0,0:0:0:0:
368,144,41500,2,0,P|328:232|320:232,1,80
288,272,41833,2,0,P|200:224|200:208,1,80
176,176,42166,1,0,0:0:0:0:
224,104,42333,6,0,P|304:56|320:56,2,80
208,232,42833,2,0,P|368:304|384:296,1,160
400,232,43333,5,0,0:0:0:0:
360,136,43500,2,0,P|288:72|264:72,1,80
224,64,43833,2,0,P|152:112|152:128,1,80
136,184,44166,1,0,0:0:0:0:
200,256,44333,1,0,0:0:0:0:
272,296,44500,2,0,P|368:272|384:248,1,80
392,224,44833,1,0,0:0:0:0:
408,152,45000,6,0,B|392:88|392:88|280:80,1,160
216,64,45500,2,0,P|152:128|152:136,1,80
152,200,45833,1,0,0:0:0:0:
256,336,46166,6,0,P|328:280|344:264,1,80
360,224,46500,1,0,0:0:0:0:
368,144,46666,1,0,0:0:0:0:
296,104,46833,2,0,P|200:144|200:152,2,80
368,168,47333,1,0,0:0:0:0:
384,256,47500,1,0,0:0:0:0:
312,312,47666,2,0,P|296:216|304:208,1,80
224,328,48000,2,0,P|200:240|232:200,1,80
208,168,48333,2,0,P|344:40|344:32,1,160
248,64,48833,5,0,0:0:0:0:
168,104,49000,1,0,0:0:0:0:
144,192,49166,2,0,P|192:272|200:272,1,80
232,320,49500,2,0,P|376:232|376:208,1,160
376,176,50000,1,0,0:0:0:0:
360,88,50166,2,0,P|288:48|272:56,1,80
216,80,50500,1,0,0:0:0:0:
160,160,50666,1,0,0:0:0:0:
152,256,50833,2,0,P|248:328|336:312,1,160
384,240,51500,6,0,L|464:184,2,80
256,240,52000,1,0,0:0:0:0:
144,216,52500,2,0,P|272:80|288:88,1,240
312,144,53166,1,0,0:0:0:0:
352,224,53333,2,0,P|288:288|280:288,1,80
208,264,53666,1,0,0:0:0:0:
136,184,53833,2,0,P|232:136|240:144,1,80
296,96,54166,5,0,0:0:0:0:
352,184,54388,1,0,0:0:0:0:
344,192,54444,1,0,0:0:0:0:
336,200,54500,2,0,B|288:264|288:264|176:264,1,160
136,232,55000,2,0,P|112:120|120:112,2,80
240,264,55500,1,0,0:0:0:0:
344,272,55666,2,0,P|328:176|304:160,1,80
272,136,56000,1,0,0:0:0:0:
184,112,56166,2,0,B|112:136|112:136|88:240|88:232,1,160
256,192,56833,5,0,0:0:0:0:
168,264,57000,2,0,P|240:344|248:344,2,80
168,160,57500,1,0,0:0:0:0:
256,96,57666,2,0,P|424:88|432:96,1,160
416,168,58166,2,0,P|416:272|408:288,1,80
336,248,58500,2,0,P|344:152|368:128,1,80
232,96,58833,5,0,0:0:0:0:
144,176,59000,1,0,0:0:0:0:
232,256,59166,1,0,0:0:0:0:
336,192,59333,2,0,P|400:112|400:104,2,80
232,240,59833,2,0,P|64:192|56:168,1,160
72,120,60333,2,0,P|136:72|144:72,1,80
248,64,60666,5,0,0:0:0:0:
336,120,60833,1,0,0:0:0:0:
336,224,61000,2,0,P|280:296|144:280,1,240
136,152,62166,2,0,L|136:176,23,20
160,200,66166,5,0,0:0:0:0:
184,120,66333,2,0,P|72:232|80:256,1,160
104,280,66833,6,0,P|200:256|208:232,1,80
240,216,67166,1,0,0:0:0:0:
280,144,67333,2,0,P|312:104|344:96,1,80
256,104,70250,6,0,P|176:96|160:104,1,80
120,168,70583,1,0,0:0:0:0:
144,256,70750,1,0,0:0:0:0:
232,304,70916,2,0,P|312:248|312:232,1,80
344,200,71250,1,0,0:0:0:0:
312,112,71416,2,0,P|240:64|224:64,2,80
320,200,71916,6,0,P|264:288|248:288,1,80
216,312,72250,1,0,0:0:0:0:
104,312,72416,1,0,0:0:0:0:
104,200,72583,1,0,0:0:0:0:
400,80,72777,6,0,P|264:112|256:128,1,160
336,224,73277,1,0,0:0:0:0:
224,240,73444,1,0,0:0:0:0:
104,192,73611,2,0,P|104:88|112:80,2,80
176,256,74111,6,0,P|368:240|384:224,1,160
368,192,74611,1,0,0:0:0:0:
288,136,74777,1,0,0:0:0:0:
192,176,74944,2,0,P|200:256|224:264,1,80
272,264,75277,1,0,0:0:0:0:
344,216,75444,5,0,0:0:0:0:
360,136,75611,2,0,P|312:80|296:80,2,80
344,216,76111,1,0,0:0:0:0:
296,280,76277,2,0,P|144:256|144:232,1,160
144,208,76777,1,0,0:0:0:0:
216,128,76944,2,0,P|224:192|200:192,1,80
200,256,77277,2,0,P|192:320|200:328,1,80
280,320,77611,5,0,0:0:0:0:
360,296,77777,2,0,P|416:232|416:224,2,80
272,288,78277,1,0,0:0:0:0:
192,248,78444,1,0,0:0:0:0:
144,168,78611,2,0,P|208:72|288:96,1,160
328,104,79111,1,0,0:0:0:0:
392,168,79277,6,0,P|384:248|368:256,1,80
304,224,79611,1,0,0:0:0:0:
224,176,79777,1,0,0:0:0:0:
136,144,79944,2,0,P|120:208|128:224,1,80
176,304,80277,1,0,0:0:0:0:
272,320,80444,2,0,P|184:176|176:176,1,160
136,168,80916,1,0,0:0:0:0:
80,96,81083,1,0,0:0:0:0:
160,48,81250,6,0,B|216:48|216:48|256:120,1,80
264,144,81583,1,0,0:0:0:0:
192,200,81750,2,0,P|280:256|304:248,1,80
336,248,82083,2,0,P|400:168|400:152,1,80
336,120,82416,6,0,P|176:128|168:136,1,160
104,192,82916,2,0,P|104:280|112:288,2,80
448,192,83500,1,0,0:0:0:0:
264,192,94166,6,0,L|240:192,26,20
400,80,95500,5,0,0:0:0:0:
256,96,96750,2,0,B|168:96|168:96|128:168,1,160
176,248,97250,1,0,0:0:0:0:
248,184,97416,1,0,0:0:0:0:
304,256,97583,2,0,P|232:320|224:320,2,80
344,184,98083,5,0,0:0:0:0:
280,120,98250,1,0,0:0:0:0:
200,160,98416,2,0,P|136:224|128:224,1,80
72,256,98750,1,0,0:0:0:0:
48,176,98916,2,0,P|64:88|72:80,1,80
144,72,99250,1,0,0:0:0:0:
224,120,99416,1,0,0:0:0:0:
248,192,99583,2,0,P|136:328|136:336,1,160
240,320,100083,6,0,P|296:264|296:256,1,80
352,192,100416,1,0,0:0:0:0:
368,112,100583,1,0,0:0:0:0:
272,88,100750,2,0,P|208:160|200:160,1,80
136,144,101083,1,0,0:0:0:0:
80,296,101250,6,0,P|88:208|96:200,1,80
168,216,101583,2,0,P|160:312|152:320,1,80
264,304,101916,1,0,0:0:0:0:
360,304,102083,2,0,P|464:216|464:208,1,160
432,136,102583,1,0,0:0:0:0:
344,56,102750,1,0,0:0:0:0:
248,56,102916,2,0,L|248:160,1,80
136,128,103250,1,0,0:0:0:0:
168,232,103416,1,0,0:0:0:0:
264,248,103583,6,0,P|144:336|136:336,1,160
72,248,104083,1,0,0:0:0:0:
120,144,104250,1,0,0:0:0:0:
208,72,104416,1,0,0:0:0:0:
304,72,104583,2,0,P|368:120|368:128,1,80
256,192,105000,8,0,106000,0:0:0:0:
256,56,107416,5,0,0:0:0:0:
160,96,107750,2,0,P|160:176|168:184,1,80
400,192,108416,1,0,0:0:0:0:
384,280,108583,2,0,P|304:272|296:264,1,80
320,192,108916,2,0,P|336:112|336:104,1,80
248,96,109250,1,0,0:0:0:0:
160,120,109416,1,0,0:0:0:0:
88,192,109583,2,0,P|240:336|256:336,1,240
320,296,110416,5,0,0:0:0:0:
328,288,110500,1,0,0:0:0:0:
336,280,110583,2,0,P|400:192|384:112,1,160
320,96,111083,1,0,0:0:0:0:
264,176,111250,2,0,P|176:192|168:184,1,80
168,112,111583,2,0,P|88:136|88:144,1,80
96,208,111916,1,0,0:0:0:0:
136,296,112083,6,0,P|208:248|224:168,1,160
440,144,112750,1,0,0:0:0:0:
440,232,112916,2,0,P|416:272|360:288,1,80
304,264,113250,1,0,0:0:0:0:
232,64,113750,6,0,P|128:96|64:232,1,240
112,280,114416,1,0,0:0:0:0:
200,320,114583,2,0,P|256:240|256:232,1,80
296,168,114916,1,0,0:0:0:0:
400,128,115083,2,0,P|352:72|264:80,1,160
184,112,115583,5,0,0:0:0:0:
104,160,115750,1,0,0:0:0:0:
104,248,115916,2,0,P|112:336|120:344,1,80
288,296,116250,2,0,P|200:312|192:304,2,80
376,248,116750,1,0,0:0:0:0:
304,168,116916,2,0,P|320:72|280:64,1,160
424,88,117416,1,0,0:0:0:0:
200,320,117750,1,0,0:0:0:0:
80,96,118083,6,0,P|128:240|152:248,1,160
208,248,118583,1,0,0:0:0:0:
304,240,118750,2,0,P|416:304|424:320,2,120
280,336,119416,1,0,0:0:0:0:
168,336,119583,2,0,P|96:280|96:272,1,80
208,248,119916,1,0,0:0:0:0:
112,160,120083,1,0,0:0:0:0:
208,80,120250,1,0,0:0:0:0:
312,64,120416,2,0,P|408:80|416:88,1,80
328,152,120750,5,0,0:0:0:0:
248,288,121000,1,0,0:0:0:0:
256,288,121083,1,0,0:0:0:0:
264,288,121166,2,0,P|408:208|408:192,1,200
