osu file format v14

[General]
AudioFilename: Major Lazer - Light It Up (feat. Nyla & Fuse ODG) [Remix] (Official Lyric Video).mp3
AudioLeadIn: 0
PreviewTime: 45210
Countdown: 1
SampleSet: None
StackLeniency: 0.7
Mode: 0
LetterboxInBreaks: 1
WidescreenStoryboard: 0

[Editor]
Bookmarks: 27432,134099
DistanceSpacing: 1.8
BeatDivisor: 8
GridSize: 16
TimelineZoom: 2.899999

[Metadata]
Title:Light It Up (feat. Nyla & Fuse ODG) [Remix]
TitleUnicode:Light It Up (feat. Nyla & Fuse ODG) [Remix]
Artist:Major Lazer
ArtistUnicode:Major Lazer
Creator:TheLeviathan
Version:Insane
Source:
Tags:
BeatmapID:1121560
BeatmapSetID:528850

[Difficulty]
HPDrainRate:6
CircleSize:3.6
OverallDifficulty:7.4
ApproachRate:9
SliderMultiplier:3
SliderTickRate:1

[Events]
//Background and Video events
0,0,"maxresdefault (1).jpg",0,0
//Break Periods
//Storyboard Layer 0 (Background)
//Storyboard Layer 1 (Fail)
//Storyboard Layer 2 (Pass)
//Storyboard Layer 3 (Foreground)
//Storyboard Sound Samples

[TimingPoints]
766,555.555555555556,4,3,2,60,1,0
4793,-200,4,3,2,30,0,0
4932,-100,4,3,2,60,0,0
6321,-100,4,3,2,60,0,0
9654,-100,4,3,2,60,0,0
10904,-100,4,3,2,60,0,0
12710,-133.333333333333,4,3,2,60,0,0
12849,-133.333333333333,4,3,2,30,0,0
12988,-133.333333333333,4,3,2,60,0,0
13127,-133.333333333333,4,3,2,30,0,0
13266,-133.333333333333,4,3,2,60,0,0
13404,-133.333333333333,4,3,2,30,0,0
13543,-133.333333333333,4,3,2,60,0,0
14099,-100,4,3,2,60,0,0
17154,-133.333333333333,4,3,2,60,0,0
17293,-133.333333333333,4,3,2,30,0,0
17432,-133.333333333333,4,3,2,60,0,0
17571,-133.333333333333,4,3,2,30,0,0
17710,-133.333333333333,4,3,2,60,0,0
17849,-133.333333333333,4,3,2,30,0,0
17988,-100,4,3,2,60,0,0
26043,-133.333333333333,4,3,2,60,0,0
26182,-133.333333333333,4,3,2,30,0,0
26321,-133.333333333333,4,3,2,60,0,0
26460,-133.333333333333,4,3,2,30,0,0
26599,-133.333333333333,4,3,2,60,0,0
26738,-133.333333333333,4,3,2,30,0,0
26877,-133.333333333333,4,3,2,60,0,0
27016,-133.333333333333,4,3,2,30,0,0
27154,-133.333333333333,4,3,2,60,0,0
27293,-133.333333333333,4,3,2,30,0,0
27432,-100,4,3,2,60,0,0
45210,-100,4,3,2,60,0,1
49307,-200,4,3,2,60,0,1
49377,-100,4,3,2,60,0,1
53752,-200,4,3,2,60,0,1
53821,-100,4,3,2,60,0,1
62988,-100,4,3,2,60,0,0
98543,-100,4,3,2,60,0,1
101599,-100,4,3,2,40,0,1
101738,-100,4,3,2,60,0,1
102641,-200,4,3,2,60,0,1
102710,-100,4,3,2,60,0,1
107085,-200,4,3,2,60,0,1
107154,-100,4,3,2,60,0,1
111460,-200,4,3,2,60,0,1
111599,-100,4,3,2,60,0,1
115904,-200,4,3,2,60,0,1
116043,-100,4,3,2,60,0,1
116321,-100,4,3,2,60,0,0
119238,-100,4,3,2,30,0,0
119377,-100,4,3,2,60,0,0
137432,-133.333333333333,4,3,2,60,0,0
137571,-133.333333333333,4,3,2,15,0,0
137710,-133.333333333333,4,3,2,60,0,0
137849,-133.333333333333,4,3,2,15,0,0
137988,-133.333333333333,4,3,2,60,0,0
138127,-133.333333333333,4,3,2,15,0,0
138266,-133.333333333333,4,3,2,60,0,0
138404,-133.333333333333,4,3,2,15,0,0
138543,-100,4,3,2,60,0,1
156321,-100,4,3,2,60,0,0
157293,-100,4,3,2,10,0,0
157432,-100,4,3,2,60,0,0
158960,-100,4,3,2,10,0,0
159099,-133.333333333333,4,3,2,60,0,0
159238,-133.333333333333,4,3,2,10,0,0
159377,-133.333333333333,4,3,2,60,0,0
159516,-133.333333333333,4,3,2,10,0,0
159654,-133.333333333333,4,3,2,60,0,0
159793,-133.333333333333,4,3,2,10,0,0
159932,-133.333333333333,4,3,2,60,0,0
160071,-133.333333333333,4,3,2,10,0,0
160210,-133.333333333333,4,3,2,60,0,0

[Colours]
Combo1 : 255,255,53
Combo2 : 214,74,217
Combo3 : 251,125,0

[HitObjects]
324,89,766,5,0,0:0:0:0:
462,104,1043,1,0,0:0:0:0:
462,104,1182,2,0,P|424:190|290:215,1,225
155,61,1877,5,0,0:0:0:0:
155,61,2154,5,0,0:0:0:0:
89,223,2293,1,0,0:0:0:0:
275,156,2432,1,0,0:0:0:0:
77,132,2571,1,0,0:0:0:0:
276,149,2710,1,0,0:0:0:0:
164,313,2988,5,0,0:0:0:0:
48,334,3266,1,0,0:0:0:0:
48,334,3404,2,0,P|55:277|92:231,1,75
276,162,3821,1,0,0:0:0:0:
361,324,4099,5,0,0:0:0:0:
477,345,4377,1,0,0:0:0:0:
477,345,4516,2,0,P|470:288|433:242,1,75
287,172,4863,2,4,L|305:194,1,18.75
65,72,5210,5,0,0:0:0:0:
274,65,5488,2,0,L|351:33,2,75
45,149,6043,1,0,0:0:0:0:
293,178,6321,5,0,0:0:0:0:
293,178,6599,5,0,0:0:0:0:
168,63,6738,1,0,0:0:0:0:
163,195,6877,1,0,0:0:0:0:
300,49,7016,1,0,0:0:0:0:
154,185,7154,1,0,0:0:0:0:
410,225,7432,5,0,0:0:0:0:
244,338,7710,1,0,0:0:0:0:
394,346,7849,1,0,0:0:0:0:
216,333,7988,2,0,P|151:277|143:210,1,150
361,121,8543,5,0,0:0:0:0:
245,166,8682,1,0,0:0:0:0:
455,244,8960,1,0,0:0:0:0:
246,143,9099,2,0,P|267:49|315:16,1,150
294,265,9654,5,8,0:0:0:0:
286,277,10210,1,8,0:0:0:0:
206,314,10766,2,8,L|280:289,1,75,0|8,0:0|0:0,0:0:0:0:
333,359,11182,5,8,0:0:0:0:
333,359,11321,2,8,L|250:382,1,75,0|8,0:0|0:0,0:0:0:0:
241,278,11599,1,8,0:0:0:0:
88,169,12154,5,8,0:0:0:0:
315,162,12571,1,8,0:0:0:0:
195,78,12710,6,0,L|241:113,1,56.2500021457673,0|8,0:0|0:0,0:0:0:0:
400,59,12988,2,0,L|334:95,1,56.2500021457673,0|8,0:0|0:0,0:0:0:0:
187,169,13266,2,0,L|240:203,1,56.2500021457673,0|8,0:0|0:0,0:0:0:0:
425,147,13543,2,0,L|359:183,1,56.2500021457673,0|8,0:0|0:0,0:0:0:0:
238,242,13821,1,0,0:0:0:0:
261,373,14099,6,0,P|331:338|363:272,1,150,0|8,0:0|0:0,0:0:0:0:
339,145,14654,2,0,P|269:180|237:246,1,150,0|8,0:0|0:0,0:0:0:0:
76,177,15210,6,0,L|150:202,1,75,0|8,0:0|0:0,0:0:0:0:
203,132,15627,1,8,0:0:0:0:
203,132,15765,6,0,L|120:109,1,75,0|8,0:0|0:0,0:0:0:0:
139,237,16043,2,0,L|222:263,1,75,0|8,0:0|0:0,0:0:0:0:
100,323,16321,2,0,L|23:299,1,75,0|8,0:0|0:0,0:0:0:0:
200,302,16599,2,0,L|271:324,1,75,0|8,0:0|0:0,0:0:0:0:
391,348,16877,2,0,P|436:329|468:283,1,75,0|8,0:0|0:0,0:0:0:0:
407,164,17154,6,0,L|446:213,1,56.2500021457673
340,109,17432,2,0,L|301:158,1,56.2500021457673
396,43,17710,2,0,L|435:92,1,56.2500021457673
351,233,17988,6,8,L|273:157,2,75
387,117,18404,1,8,0:0:0:0:
214,112,18543,2,0,P|190:191|235:259,1,150,0|8,0:0|0:0,0:0:0:0:
114,88,19099,2,0,P|180:23|276:20,1,150,0|8,0:0|0:0,0:0:0:0:
477,60,19654,5,8,0:0:0:0:
214,112,20071,1,8,0:0:0:0:
214,112,20210,6,0,P|261:106|299:108,1,75,0|8,0:0|0:0,0:0:0:0:
468,165,20488,1,8,0:0:0:0:
344,185,20627,2,0,L|263:217,1,75,0|8,0:0|0:0,0:0:0:0:
254,374,21043,2,0,L|342:346,1,75,0|8,0:0|0:0,0:0:0:0:
430,299,21321,2,0,P|476:209|448:132,1,150,0|8,0:0|0:0,0:0:0:0:
242,45,21877,5,8,0:0:0:0:
479,146,22293,1,8,0:0:0:0:
212,152,22710,1,8,0:0:0:0:
391,281,22988,6,0,P|368:338|337:362,1,75,0|8,0:0|0:0,0:0:0:0:
283,259,23266,2,0,P|306:202|337:178,1,75,0|8,0:0|0:0,0:0:0:0:
331,355,23543,2,0,P|227:350|182:299,1,150,0|8,0:0|0:0,0:0:0:0:
236,120,24099,5,8,0:0:0:0:
332,333,24516,1,8,0:0:0:0:
250,250,24654,6,0,P|190:231|147:234,1,75,0|8,0:0|0:0,0:0:0:0:
116,143,24932,2,0,P|176:124|219:127,1,75,0|8,0:0|0:0,0:0:0:0:
303,75,25210,2,0,P|229:23|149:15,1,150,0|8,0:0|0:0,0:0:0:0:
38,187,25904,1,8,0:0:0:0:
158,238,26043,6,0,L|211:198,1,56.2500021457673
185,75,26321,2,0,L|244:106,1,56.2500021457673
229,235,26599,2,0,L|282:195,1,56.2500021457673
248,57,26877,2,0,L|307:88,1,56.2500021457673
292,234,27154,2,0,L|345:194,1,56.2500021457673
440,79,27432,6,8,L|523:73,2,75,0|8|8,0:0|0:0|0:0,0:0:0:0:
303,119,27849,1,8,0:0:0:0:
206,31,27988,2,8,L|124:24,2,75,0|8|8,0:0|0:0|0:0,0:0:0:0:
344,15,28404,1,8,0:0:0:0:
440,79,28543,5,0,0:0:0:0:
473,186,28682,1,0,0:0:0:0:
449,296,28821,1,0,0:0:0:0:
355,359,28960,1,0,0:0:0:0:
368,247,29099,2,0,P|365:193|296:116,1,150,0|8,0:0|0:0,0:0:0:0:
121,311,29654,6,8,L|38:317,2,75,0|8|8,0:0|0:0|0:0,0:0:0:0:
258,271,30071,1,8,0:0:0:0:
355,359,30210,2,8,L|437:366,2,75,0|8|8,0:0|0:0|0:0,0:0:0:0:
217,375,30626,1,8,0:0:0:0:
121,311,30765,5,0,0:0:0:0:
88,204,30904,1,0,0:0:0:0:
112,94,31043,1,0,0:0:0:0:
206,31,31182,1,0,0:0:0:0:
193,143,31321,2,0,P|196:197|265:274,1,150,0|8,0:0|0:0,0:0:0:0:
380,147,31877,6,0,P|377:93|308:16,1,150,0|8,0:0|0:0,0:0:0:0:
227,87,32293,1,8,0:0:0:0:
151,129,32432,2,0,L|229:114,1,75,0|8,0:0|0:0,0:0:0:0:
302,206,32710,2,0,P|363:242|399:240,1,75,0|8,0:0|0:0,0:0:0:0:
474,213,32988,5,0,0:0:0:0:
449,103,33127,1,0,0:0:0:0:
357,38,33266,1,0,0:0:0:0:
246,22,33404,1,0,0:0:0:0:
132,47,33543,2,0,P|74:117|83:182,1,150,0|8,0:0|0:0,0:0:0:0:
302,206,34099,6,8,L|392:197,2,75,0|8|8,0:0|0:0|0:0,0:0:0:0:
216,280,34516,1,8,0:0:0:0:
314,333,34654,2,8,L|396:345,2,75,0|8|8,0:0|0:0|0:0,0:0:0:0:
220,381,35071,1,8,0:0:0:0:
130,312,35210,6,0,P|100:255|100:222,1,75,2|0,0:0|0:0,0:0:0:0:
1,236,35488,2,0,P|18:187|44:157,1,75,2|0,0:0|0:0,0:0:0:0:
6,73,35766,2,0,P|66:78|88:90,1,75,2|0,0:0|0:0,0:0:0:0:
171,52,36043,2,0,P|172:101|160:137,1,75,2|0,0:0|0:0,0:0:0:0:
107,209,36321,5,0,0:0:0:0:
208,256,36460,1,0,0:0:0:0:
309,303,36599,1,0,0:0:0:0:
413,344,36738,1,0,0:0:0:0:
510,287,36877,5,0,0:0:0:0:
406,243,37016,1,0,0:0:0:0:
304,194,37155,1,0,0:0:0:0:
202,145,37294,1,0,0:0:0:0:
171,52,37432,6,0,P|226:48|266:68,1,75,0|8,0:0|0:0,0:0:0:0:
333,0,37710,2,0,P|352:44|347:76,1,75,0|8,0:0|0:0,0:0:0:0:
469,67,37988,2,0,P|449:138|365:177,1,150,0|8,0:0|0:0,0:0:0:0:
136,60,38543,5,0,0:0:0:0:
65,147,38682,1,0,0:0:0:0:
72,259,38821,1,0,0:0:0:0:
162,326,38960,1,0,0:0:0:0:
171,213,39099,5,0,0:0:0:0:
248,131,39238,1,0,0:0:0:0:
358,109,39377,1,0,0:0:0:0:
463,149,39516,1,0,0:0:0:0:
471,260,39654,6,0,P|409:245|379:213,1,75,0|8,0:0|0:0,0:0:0:0:
297,285,39932,2,0,P|282:237|293:203,1,75,0|8,0:0|0:0,0:0:0:0:
171,213,40210,2,0,P|198:144|277:106,1,150,0|8,0:0|0:0,0:0:0:0:
461,76,40766,6,0,P|448:161|385:211,1,150,0|8,0:0|0:0,0:0:0:0:
292,218,41182,1,8,0:0:0:0:
379,317,41321,2,0,P|311:353|231:333,1,150,0|8,0:0|0:0,0:0:0:0:
80,182,41877,6,8,L|25:126,2,75,0|8|8,0:0|0:0|0:0,0:0:0:0:
159,261,42293,1,8,0:0:0:0:
187,152,42432,2,8,P|226:112|334:99,1,150,0|8,0:0|0:0,0:0:0:0:
505,186,42988,5,0,0:0:0:0:
426,105,43127,1,0,0:0:0:0:
312,65,43266,2,0,P|275:66|239:74,1,75,0|8,0:0|0:0,0:0:0:0:
147,140,43543,5,0,0:0:0:0:
226,221,43682,1,0,0:0:0:0:
339,260,43821,2,0,P|376:259|412:251,1,75,0|8,0:0|0:0,0:0:0:0:
412,251,44099,1,0,0:0:0:0:
99,341,44377,5,4,0:0:0:0:
220,301,44516,1,4,0:0:0:0:
339,260,44654,1,4,0:0:0:0:
125,82,45210,5,0,0:0:0:0:
393,50,45488,1,8,0:0:0:0:
323,165,45627,1,8,0:0:0:0:
203,227,45766,2,8,B|129:254|129:254|87:209|49:210,1,150,0|8,0:0|0:0,0:0:0:0:
293,59,46321,5,0,0:0:0:0:
421,296,46599,1,8,0:0:0:0:
263,286,46738,1,8,0:0:0:0:
418,194,46877,1,0,0:0:0:0:
318,358,47016,1,8,0:0:0:0:
323,165,47154,1,0,0:0:0:0:
61,260,47432,5,0,0:0:0:0:
293,59,47710,1,8,0:0:0:0:
203,160,47849,1,8,0:0:0:0:
205,295,47988,2,8,B|261:355|261:355|303:326|349:329,1,150,0|8,0:0|0:0,0:0:0:0:
282,243,48404,1,8,0:0:0:0:
427,123,48543,6,8,L|339:155,1,75,0|8,0:0|0:0,0:0:0:0:
465,230,48821,1,8,0:0:0:0:
389,331,48960,2,8,B|347:262|347:262|280:257|272:227,1,150,0|8,0:0|0:0,0:0:0:0:
218,223,49307,2,4,L|245:231,1,18.75
470,311,49654,5,0,0:0:0:0:
377,56,49932,1,8,0:0:0:0:
243,38,50071,1,8,0:0:0:0:
113,76,50210,2,8,B|69:141|69:141|125:145|146:178,1,150,0|8,0:0|0:0,0:0:0:0:
405,181,50766,5,0,0:0:0:0:
187,105,51043,1,8,0:0:0:0:
315,147,51182,1,8,0:0:0:0:
186,204,51321,1,0,0:0:0:0:
306,65,51460,1,8,0:0:0:0:
137,110,51599,1,8,0:0:0:0:
296,327,51877,6,8,B|378:328|378:328|338:275|361:242,1,150,0|8,0:0|0:0,0:0:0:0:
465,257,52293,1,8,0:0:0:0:
485,138,52432,2,8,B|419:94|419:94|465:67|471:30,1,150,0|8,0:0|0:0,0:0:0:0:
380,4,52849,1,8,0:0:0:0:
262,71,52988,6,8,L|345:122,1,75,0|8,0:0|0:0,0:0:0:0:
385,226,53266,1,8,0:0:0:0:
254,196,53404,2,8,P|199:224|162:304,1,150,0|8,0:0|0:0,0:0:0:0:
203,345,53752,2,4,L|179:322,1,18.75
60,70,54099,6,8,B|125:63|125:63|115:113|174:153,1,150,0|8,0:0|0:0,0:0:0:0:
262,71,54516,1,8,0:0:0:0:
365,144,54654,2,8,B|404:119|397:67|397:67|459:76,1,150,0|8,0:0|0:0,0:0:0:0:
445,270,55210,6,8,P|380:294|285:262,1,150,0|8,0:0|0:0,0:0:0:0:
199,188,55627,1,8,0:0:0:0:
365,144,55766,1,0,0:0:0:0:
195,79,55904,1,8,0:0:0:0:
300,236,56043,1,8,0:0:0:0:
117,291,56321,6,8,P|67:226|79:147,1,150,0|8,0:0|0:0,0:0:0:0:
205,139,56738,1,8,0:0:0:0:
334,96,56877,2,8,P|290:33|210:14,1,150,0|8,0:0|0:0,0:0:0:0:
205,139,57293,1,8,0:0:0:0:
300,236,57432,5,0,0:0:0:0:
300,236,57571,1,8,0:0:0:0:
46,315,57849,1,8,0:0:0:0:
46,315,57988,2,8,L|130:287,1,75
117,291,58196,1,4,0:0:0:0:
117,291,58266,1,4,0:0:0:0:
478,282,58543,6,8,L|326:323,1,150,0|8,0:0|0:0,0:0:0:0:
225,238,58960,1,8,0:0:0:0:
105,174,59099,2,8,L|257:133,1,150,0|8,0:1|0:1,0:1:0:0:
510,65,59654,6,8,P|453:31|356:18,1,150,0|8,0:0|0:0,0:0:0:0:
245,68,60071,1,8,0:0:0:0:
408,132,60210,1,0,0:0:0:0:
241,186,60349,1,8,0:0:0:0:
353,41,60488,1,8,0:0:0:0:
122,181,60766,6,8,P|163:277|218:305,1,150,0|8,0:0|0:0,0:0:0:0:
333,306,61182,1,8,0:0:0:0:
410,195,61321,2,8,P|383:114|308:60,1,150,0|8,0:0|0:0,0:0:0:0:
200,59,61738,1,8,0:0:0:0:
241,186,61877,5,0,0:0:0:0:
241,186,62016,1,8,0:0:0:0:
402,338,62293,1,8,0:0:0:0:
402,338,62432,2,8,P|448:328|474:309,1,75,0|8,0:0|0:0,0:0:0:0:
470,312,62641,1,12,0:0:0:0:
470,312,62710,1,12,0:0:0:0:
176,281,62988,5,8,0:0:0:0:
432,113,63543,6,8,P|436:171|421:208,1,75,0|8,0:0|0:0,0:0:0:0:
354,269,63821,1,8,0:0:0:0:
257,327,63960,1,8,0:0:0:0:
292,207,64099,2,8,P|309:146|280:58,1,150,0|8,0:0|0:0,0:0:0:0:
174,30,64516,1,8,0:0:0:0:
224,136,64654,1,8,0:0:0:0:
112,122,64793,2,8,P|72:85|59:40,1,75,0|8,0:0|0:0,0:0:0:0:
278,19,65210,6,0,P|277:98|204:137,1,150,0|8,0:0|0:0,0:0:0:0:
112,122,65627,1,8,0:0:0:0:
54,218,65766,2,0,P|99:300|172:295,1,150,0|8,0:0|0:0,0:0:0:0:
256,263,66182,1,8,0:0:0:0:
339,188,66321,2,0,P|422:211|436:292,1,150,0|8,0:0|0:0,0:0:0:0:
385,363,66738,1,8,0:0:0:0:
256,368,66877,2,0,P|173:343|152:285,1,150,0|8,0:0|0:0,0:0:0:0:
328,44,67432,6,0,P|430:88|486:182,1,225,0|8,0:0|0:0,0:0:0:0:
472,295,67988,5,8,0:0:0:0:
402,206,68127,1,8,0:0:0:0:
293,176,68266,2,0,L|191:158,1,75,0|8,0:0|0:0,0:0:0:0:
113,134,68543,2,0,P|172:72|249:61,1,150,0|8,0:0|0:0,0:0:0:0:
219,162,68960,1,8,0:0:0:0:
130,228,69099,2,0,P|41:207|18:150,1,150,0|8,0:0|0:0,0:0:0:0:
237,25,69654,6,8,L|313:76,1,75,0|8,0:0|0:0,0:0:0:0:
397,123,69932,1,8,0:0:0:0:
492,182,70071,1,8,0:0:0:0:
477,303,70210,6,8,L|414:261,1,75,0|8,0:0|0:0,0:0:0:0:
319,199,70488,1,8,0:0:0:0:
225,136,70627,1,8,0:0:0:0:
96,93,70766,6,8,P|51:159|48:178,1,75,0|8,0:0|0:0,0:0:0:0:
97,255,71043,1,8,0:0:0:0:
193,312,71182,1,8,0:0:0:0:
304,323,71321,2,8,B|242:276|190:313|190:313|277:223|237:148,1,300,0|8,0:0|0:0,0:0:0:0:
243,153,72432,5,8,0:0:0:0:
428,63,72710,6,8,L|352:112,1,75,0|8,0:0|0:0,0:0:0:0:
243,153,72988,2,8,P|279:203|311:220,1,75,0|8,0:0|0:0,0:0:0:0:
434,251,73266,2,8,P|398:201|366:184,1,75,0|8,0:0|0:0,0:0:0:0:
289,210,73543,2,8,P|294:147|307:126,2,75,0|8|8,0:0|0:0|0:0,0:0:0:0:
179,362,74099,6,8,P|95:342|68:275,1,150,0|8,0:0|0:0,0:0:0:0:
151,212,74516,1,8,0:0:0:0:
151,100,74654,2,8,L|151:186,2,75,0|8|8,0:0|0:0|0:0,0:0:0:0:
333,22,75210,6,8,P|417:42|444:109,1,150,0|8,0:0|0:0,0:0:0:0:
361,172,75627,1,8,0:0:0:0:
361,284,75765,2,8,L|361:198,2,75,0|8|8,0:0|0:0|0:0,0:0:0:0:
169,164,76321,2,8,P|180:100|254:29,1,150,0|8,0:0|0:0,0:0:0:0:
447,92,76877,5,0,0:0:0:0:
440,204,77016,1,8,0:0:0:0:
361,284,77154,1,8,0:0:0:0:
376,43,77432,2,8,P|428:11|461:6,1,75,0|8,0:0|0:0,0:0:0:0:
378,143,77710,2,8,P|326:175|293:180,1,75,0|8,0:0|0:0,0:0:0:0:
361,284,77988,2,8,P|299:283|208:235,1,150,0|8,0:0|0:0,0:0:0:0:
111,72,78543,6,8,L|69:8,2,75,0|8|8,0:0|0:0|0:0,0:0:0:0:
27,223,79099,2,8,P|37:305|99:349,1,150,0|8,0:0|0:0,0:0:0:0:
165,263,79516,1,8,0:0:0:0:
276,274,79654,2,8,P|362:245|243:191,2,300,0|8|8,0:0|0:0|0:0,0:0:0:0:
110,113,81043,5,8,0:0:0:0:
323,40,81321,2,8,P|387:74|409:94,1,75,0|8,0:0|0:0,0:0:0:0:
276,120,81599,1,8,0:0:0:0:
389,166,81738,1,8,0:0:0:0:
245,228,81877,1,0,0:0:0:0:
409,263,82016,2,8,P|477:212|481:145,1,150,0|8,0:0|0:0,0:0:0:0:
416,52,82432,5,8,0:0:0:0:
512,302,82710,1,8,0:0:0:0:
278,359,82988,6,8,P|226:369|171:362,1,75,0|8,0:0|0:0,0:0:0:0:
139,265,83266,1,8,0:0:0:0:
22,282,83404,2,8,P|34:211|58:184,1,75,0|8,0:0|0:0,0:0:0:0:
142,155,83682,1,8,0:0:0:0:
139,265,83821,1,0,0:0:0:0:
276,190,83960,1,8,0:0:0:0:
158,70,84099,2,8,P|101:83|54:160,1,150,0|8,0:0|0:0,0:0:0:0:
80,274,84516,5,8,0:0:0:0:
24,31,84932,1,8,0:0:0:0:
306,42,85210,6,8,L|242:93,1,75,0|8,0:0|0:0,0:0:0:0:
151,162,85488,1,8,0:0:0:0:
383,156,85627,2,8,L|286:160,1,75,0|8,0:0|0:0,0:0:0:0:
67,207,86043,2,8,P|109:249|136:256,1,75,0|8,0:0|0:0,0:0:0:0:
241,276,86321,1,8,0:0:0:0:
360,268,86460,1,8,0:0:0:0:
471,230,86599,2,8,P|500:174|466:91,1,150,0|8,0:0|0:0,0:0:0:0:
232,114,87154,5,8,0:0:0:0:
37,92,87432,2,8,P|69:137|98:147,1,75,0|8,0:0|0:0,0:0:0:0:
232,114,87710,1,8,0:0:0:0:
128,66,87849,2,8,P|145:33|176:13,1,75,0|8,0:0|0:0,0:0:0:0:
412,65,88266,1,8,0:0:0:0:
449,178,88404,1,8,0:0:0:0:
395,285,88543,2,8,P|357:314|320:320,1,75,0|8,0:0|0:0,0:0:0:0:
238,242,88821,2,8,P|276:213|313:207,2,75,0|8|8,0:0|0:0|0:0,0:0:0:0:
24,354,89377,2,8,P|119:351|178:301,1,150,0|8,0:0|0:0,0:0:0:0:
395,285,89932,5,8,0:0:0:0:
182,358,90210,2,8,P|118:324|96:304,1,75,0|8,0:0|0:0,0:0:0:0:
229,278,90488,1,8,0:0:0:0:
116,232,90627,1,8,0:0:0:0:
260,170,90766,1,0,0:0:0:0:
96,135,90905,2,8,P|28:186|24:253,1,150,0|8,0:0|0:0,0:0:0:0:
105,321,91321,5,8,0:0:0:0:
212,353,91460,1,8,0:0:0:0:
324,358,91599,1,0,0:0:0:0:
433,331,91738,1,8,0:0:0:0:
487,232,91877,6,8,P|435:222|380:229,1,75,0|8,0:0|0:0,0:0:0:0:
310,270,92155,1,8,0:0:0:0:
200,291,92293,2,8,P|212:220|236:193,1,75,0|8,0:0|0:0,0:0:0:0:
281,129,92571,1,8,0:0:0:0:
378,225,92710,1,0,0:0:0:0:
432,86,92849,1,8,0:0:0:0:
285,30,92988,2,8,P|228:43|181:120,1,150,0|8,0:0|0:0,0:0:0:0:
221,221,93404,5,8,0:0:0:0:
286,312,93543,1,0,0:0:0:0:
390,353,93682,1,8,0:0:0:0:
502,354,93821,1,0,0:0:0:0:
441,258,93960,1,8,0:0:0:0:
336,215,94099,6,8,P|286:210|246:219,1,75,0|8,0:0|0:0,0:0:0:0:
201,310,94377,1,8,0:0:0:0:
95,349,94516,2,8,P|46:323|35:293,1,75,0|8,0:0|0:0,0:0:0:0:
30,82,94932,2,8,P|76:54|109:47,1,75,0|8,0:0|0:0,0:0:0:0:
209,41,95210,1,8,0:0:0:0:
321,49,95349,2,8,P|382:74|405:94,1,75,0|8,0:0|0:0,0:0:0:0:
459,167,95627,5,8,0:0:0:0:
469,279,95766,1,0,0:0:0:0:
398,366,95904,1,8,0:0:0:0:
286,381,96043,5,0,0:0:0:0:
341,162,96321,1,0,0:0:0:0:
121,214,96599,1,0,0:0:0:0:
386,272,96877,5,0,0:0:0:0:
437,171,97016,1,8,0:0:0:0:
404,64,97154,1,8,0:0:0:0:
204,168,97432,1,0,0:0:0:0:
486,239,97710,5,4,0:0:0:0:
386,272,97849,1,4,0:0:0:0:
277,303,97988,1,4,0:0:0:0:
206,57,98543,5,0,0:0:0:0:
127,268,98821,1,8,0:0:0:0:
257,233,98960,1,8,0:0:0:0:
360,145,99099,2,8,B|379:64|379:64|285:96,1,150,0|8,0:0|0:0,0:0:0:0:
53,75,99654,6,8,P|71:146|155:188,1,150,0|8,0:0|0:0,0:0:0:0:
264,153,100071,1,8,0:0:0:0:
313,27,100210,1,0,0:0:0:0:
168,84,100349,1,8,0:0:0:0:
350,102,100488,1,8,0:0:0:0:
481,270,100766,6,8,B|464:348|464:348|417:304|377:313,1,150,0|8,0:0|0:0,0:0:0:0:
269,313,101182,1,8,0:0:0:0:
136,338,101321,2,8,B|62:300|62:300|99:277|124:234,1,150,0|8,0:0|0:0,0:0:0:0:
209,161,101738,1,8,0:0:0:0:
361,86,101877,5,0,0:0:0:0:
227,175,102016,1,8,0:0:0:0:
407,235,102293,5,8,0:0:0:0:
209,161,102432,2,8,P|177:119|177:66,1,75,0|8,0:0|0:0,0:0:0:0:
211,55,102641,2,4,L|178:68,1,18.75
336,291,102988,5,0,0:0:0:0:
415,80,103266,1,8,0:0:0:0:
285,115,103405,1,8,0:0:0:0:
182,203,103544,2,8,B|163:284|163:284|257:252,1,150,0|8,0:0|0:0,0:0:0:0:
489,273,104099,6,8,P|471:202|387:160,1,150,0|8,0:0|0:0,0:0:0:0:
278,195,104516,1,8,0:0:0:0:
229,321,104655,1,0,0:0:0:0:
374,264,104794,1,8,0:0:0:0:
192,246,104933,1,8,0:0:0:0:
53,73,105210,6,8,P|131:34|208:39,1,150,0|8,0:0|0:0,0:0:0:0:
307,118,105627,1,8,0:0:0:0:
92,73,105766,2,8,P|171:62|252:94,1,150,0|8,0:0|0:0,0:0:0:0:
348,183,106182,1,8,0:0:0:0:
192,246,106321,5,0,0:0:0:0:
368,192,106460,1,8,0:0:0:0:
159,140,106738,5,8,0:0:0:0:
376,198,106877,2,8,P|416:248|421:288,1,75,0|8,0:0|0:0,0:0:0:0:
409,309,107085,2,4,L|416:274,1,18.75
95,232,107432,6,8,P|114:306|196:348,1,150,0|8,0:0|0:0,0:0:0:0:
308,340,107849,1,8,0:0:0:0:
162,351,107988,2,8,P|100:343|21:266,1,150,0|8,0:0|0:0,0:0:0:0:
40,49,108543,5,8,0:0:0:0:
40,49,108821,5,8,0:0:0:0:
194,63,108960,1,8,0:0:0:0:
55,136,109099,1,0,0:0:0:0:
193,33,109238,1,8,0:0:0:0:
239,203,109377,1,8,0:0:0:0:
417,306,109654,6,8,P|460:273|470:168,1,150,0|8,0:0|0:0,0:0:0:0:
339,189,110071,1,8,0:0:0:0:
204,199,110210,2,8,P|209:125|262:75,1,150,0|8,0:0|0:0,0:0:0:0:
339,189,110627,1,8,0:0:0:0:
184,298,110766,6,8,P|134:275|112:241,1,75,0|8,0:0|0:0,0:0:0:0:
44,50,111182,1,8,0:0:0:0:
44,50,111321,2,8,P|31:107|35:130,1,75,0|8,0:0|0:0,0:0:0:0:
33,122,111529,1,4,0:0:0:0:
33,122,111599,1,4,0:0:0:0:
334,92,111877,6,8,P|410:137|430:193,1,150,0|8,0:0|0:0,0:0:0:0:
297,216,112293,1,8,0:0:0:0:
330,81,112432,2,8,P|371:43|468:37,1,150,0|8,0:0|0:0,0:0:0:0:
385,270,112988,6,8,P|307:316|233:292,1,150,0|8,0:0|0:0,0:0:0:0:
168,199,113404,1,8,0:0:0:0:
297,216,113543,1,0,0:0:0:0:
158,288,113682,1,8,0:0:0:0:
233,131,113821,1,8,0:0:0:0:
8,54,114099,6,8,L|32:213,1,150,0|8,0:0|0:0,0:0:0:0:
59,341,114516,1,8,0:0:0:0:
195,346,114654,2,8,L|167:198,1,150,0|8,0:0|0:0,0:0:0:0:
141,64,115071,1,8,0:0:0:0:
272,144,115210,6,8,L|299:64,1,75,0|8,0:0|0:0,0:0:0:0:
437,249,115627,1,8,0:0:0:0:
437,249,115766,2,8,L|406:330,1,75,0|8,0:0|0:0,0:0:0:0:
410,319,115974,1,4,0:0:0:0:
410,319,116043,1,4,0:0:0:0:
195,97,116321,6,8,P|245:62|333:75,2,150,0|8|8,0:0|0:0|0:0,0:0:0:0:
319,161,117016,2,8,P|383:148|398:133,2,75,0|8|8,0:0|0:0|0:0,0:0:0:0:
178,181,117432,2,8,P|126:148|106:110,1,75,0|8,0:0|0:0,0:0:0:0:
82,225,117710,2,8,P|26:162|23:67,1,150,0|8,0:0|0:0,0:0:0:0:
251,235,118543,6,8,P|328:255|399:227,1,150,0|8,0:0|0:0,0:0:0:0:
411,134,118960,1,8,0:0:0:0:
340,36,119099,2,8,P|278:30|239:33,1,75,0|8,0:0|0:0,0:0:0:0:
201,133,119377,2,8,P|263:139|302:136,1,75,0|8,0:0|0:0,0:0:0:0:
411,134,119654,2,8,P|464:161|483:188,1,75,0|8,0:0|0:0,0:0:0:0:
495,290,119932,2,8,P|445:352|359:367,1,150,0|8,0:0|0:0,0:0:0:0:
121,184,120766,6,8,L|200:213,1,75,0|8,0:0|0:0,0:0:0:0:
305,262,121043,1,8,0:0:0:0:
148,306,121182,2,8,L|235:281,1,75,0|8,0:0|0:0,0:0:0:0:
347,332,121460,1,0,0:0:0:0:
456,304,121599,2,8,L|476:227,1,75,0|8,0:0|0:0,0:0:0:0:
419,103,121877,2,8,L|369:170,1,75,0|8,0:0|0:0,0:0:0:0:
289,282,122154,2,8,P|219:312|132:299,1,150,0|8,0:0|0:0,0:0:0:0:
18,127,122710,6,8,P|72:160|98:167,1,75,0|8,0:0|0:0,0:0:0:0:
126,91,122988,2,8,P|182:68|224:60,1,75,0|8,0:0|0:0,0:0:0:0:
228,144,123266,2,8,P|276:176|311:186,1,75,0|8,0:0|0:0,0:0:0:0:
346,116,123543,2,8,P|390:70|485:49,1,150,0|8,0:0|0:0,0:0:0:0:
460,168,123960,1,8,0:0:0:0:
374,252,124099,2,8,P|318:222|297:195,1,75,0|8,0:0|0:0,0:0:0:0:
221,248,124377,2,8,P|213:185|225:153,1,75,0|8,0:0|0:0,0:0:0:0:
110,152,124654,2,8,B|154:70|227:82|227:82|265:89|316:97|382:58,1,300,0|8,0:0|0:0,0:0:0:0:
108,182,125488,5,8,0:0:0:0:
318,174,125766,2,8,P|368:205|403:228,1,75,0|8,0:0|0:0,0:0:0:0:
252,136,126044,1,8,0:0:0:0:
420,205,126183,1,8,0:0:0:0:
243,243,126322,1,0,0:0:0:0:
432,291,126461,2,8,P|500:240|504:173,1,150,0|8,0:0|0:0,0:0:0:0:
434,93,126877,5,8,0:0:0:0:
331,46,127016,1,8,0:0:0:0:
219,37,127154,1,0,0:0:0:0:
108,57,127293,1,8,0:0:0:0:
189,134,127432,6,8,P|236:170|274:179,1,75,0|8,0:0|0:0,0:0:0:0:
361,194,127710,1,8,0:0:0:0:
472,180,127849,2,8,P|467:234|438:260,1,75,0|8,0:0|0:0,0:0:0:0:
351,178,128126,1,8,0:0:0:0:
223,212,128265,1,0,0:0:0:0:
361,216,128404,1,8,0:0:0:0:
229,122,128543,2,8,P|172:135|125:212,1,150,0|8,0:0|0:0,0:0:0:0:
177,309,128960,5,8,0:0:0:0:
278,357,129099,1,0,0:0:0:0:
388,333,129238,1,8,0:0:0:0:
450,240,129377,1,0,0:0:0:0:
437,128,129516,1,8,0:0:0:0:
340,70,129654,6,8,P|256:46|185:54,1,150,0|8,0:0|0:0,0:0:0:0:
19,149,130210,2,8,P|103:173|174:165,1,150,0|8,0:0|0:0,0:0:0:0:
215,66,130627,1,8,0:0:0:0:
338,71,130766,2,8,P|360:119|359:152,1,75,0|8,0:0|0:0,0:0:0:0:
480,168,131043,2,8,P|458:225|374:266,1,150,0|8,0:0|0:0,0:0:0:0:
270,249,131460,5,8,0:0:0:0:
174,189,131599,2,8,P|133:133|128:106,1,75,0|8,0:0|0:0,0:0:0:0:
76,29,131877,5,0,0:0:0:0:
26,129,132016,1,8,0:0:0:0:
73,230,132154,1,8,0:0:0:0:
279,356,132432,5,0,0:0:0:0:
388,330,132571,1,8,0:0:0:0:
460,244,132710,1,8,0:0:0:0:
261,84,132988,5,0,0:0:0:0:
373,93,133127,1,8,0:0:0:0:
463,160,133266,1,0,0:0:0:0:
360,203,133404,1,8,0:0:0:0:
247,201,133543,1,0,0:0:0:0:
115,88,133821,6,8,L|192:155,1,75,0|8,0:0|0:0,0:0:0:0:
258,210,134099,1,8,0:0:0:0:
105,80,134377,6,8,L|182:147,1,75,0|8,0:0|0:0,0:0:0:0:
266,218,134655,1,8,0:0:0:0:
94,73,134932,6,8,L|171:140,1,75,0|8,0:0|0:0,0:0:0:0:
276,226,135210,1,8,0:0:0:0:
83,64,135488,6,8,L|160:131,1,75,0|8,0:0|0:0,0:0:0:0:
287,234,135766,1,8,0:0:0:0:
70,55,136043,6,8,L|147:122,1,75,0|8,0:0|0:0,0:0:0:0:
295,242,136321,1,8,0:0:0:0:
60,47,136599,6,8,L|137:114,1,75,0|8,0:0|0:0,0:0:0:0:
305,249,136877,1,8,0:0:0:0:
48,36,137154,6,8,L|125:103,1,75,0|8,0:0|0:0,0:0:0:0:
318,258,137432,2,8,P|351:273|376:269,1,56.2500021457673,0|8,0:0|0:0,0:0:0:0:
246,294,137710,2,8,P|279:308|310:307,1,56.2500021457673,0|8,0:0|0:0,0:0:0:0:
160,312,137988,2,8,P|205:333|228:331,1,56.2500021457673,0|8,0:0|0:0,0:0:0:0:
83,299,138266,2,8,P|112:341|130:348,1,56.2500021457673,0|8,0:0|0:0,0:0:0:0:
306,326,138543,5,0,0:0:0:0:
385,115,138821,1,8,0:0:0:0:
255,150,138960,1,8,0:0:0:0:
152,238,139099,2,8,B|133:319|133:319|227:287,1,150,0|8,0:0|0:0,0:0:0:0:
459,308,139654,6,8,P|441:237|357:195,1,150,0|8,0:0|0:0,0:0:0:0:
248,230,140071,1,8,0:0:0:0:
199,356,140210,1,0,0:0:0:0:
344,299,140349,1,8,0:0:0:0:
162,281,140488,1,8,0:0:0:0:
31,113,140766,6,8,B|48:35|48:35|95:79|135:70,1,150,0|8,0:0|0:0,0:0:0:0:
243,70,141182,1,8,0:0:0:0:
376,45,141321,2,8,B|450:83|450:83|413:106|388:149,1,150,0|8,0:0|0:0,0:0:0:0:
303,222,141738,1,8,0:0:0:0:
151,297,141877,5,0,0:0:0:0:
285,208,142016,1,8,0:0:0:0:
105,148,142293,5,8,0:0:0:0:
303,222,142432,2,8,P|335:264|335:317,1,75,0|8,0:0|0:0,0:0:0:0:
301,328,142641,2,12,L|334:315,1,18.75
176,92,142988,5,0,0:0:0:0:
97,303,143266,1,8,0:0:0:0:
227,268,143405,1,8,0:0:0:0:
330,180,143544,2,8,B|349:99|349:99|255:131,1,150,0|8,0:0|0:0,0:0:0:0:
23,110,144099,6,8,P|41:181|125:223,1,150,0|8,0:0|0:0,0:0:0:0:
234,188,144516,1,8,0:0:0:0:
283,62,144655,1,0,0:0:0:0:
138,119,144794,1,8,0:0:0:0:
320,137,144933,1,8,0:0:0:0:
459,310,145210,6,8,P|381:349|304:344,1,150,0|8,0:0|0:0,0:0:0:0:
205,265,145627,1,8,0:0:0:0:
420,310,145766,2,8,P|341:321|260:289,1,150,0|8,0:0|0:0,0:0:0:0:
164,200,146182,1,8,0:0:0:0:
320,137,146321,5,0,0:0:0:0:
144,191,146460,1,8,0:0:0:0:
353,243,146738,5,8,0:0:0:0:
136,185,146877,2,8,P|96:135|91:95,1,75,0|8,0:0|0:0,0:0:0:0:
103,74,147085,2,4,L|96:109,1,18.75
417,151,147432,6,8,P|398:77|316:35,1,150,0|8,0:0|0:0,0:0:0:0:
204,43,147849,1,8,0:0:0:0:
350,32,147988,2,8,P|412:40|491:117,1,150,0|8,0:0|0:0,0:0:0:0:
472,334,148543,5,8,0:0:0:0:
472,334,148821,5,0,0:0:0:0:
318,320,148960,1,8,0:0:0:0:
457,247,149099,1,0,0:0:0:0:
319,350,149238,1,8,0:0:0:0:
273,180,149377,1,0,0:0:0:0:
95,77,149654,6,8,P|52:110|42:215,1,150,0|8,0:0|0:0,0:0:0:0:
173,194,150071,1,8,0:0:0:0:
308,184,150210,2,8,P|303:258|250:308,1,150,0|8,0:0|0:0,0:0:0:0:
173,194,150627,1,8,0:0:0:0:
328,85,150766,6,8,P|378:108|400:142,1,75,0|8,0:0|0:0,0:0:0:0:
468,333,151182,1,8,0:0:0:0:
468,333,151321,2,8,P|481:276|477:253,1,75,0|8,0:0|0:0,0:0:0:0:
479,261,151529,1,4,0:0:0:0:
479,261,151599,1,4,0:0:0:0:
178,291,151877,6,8,P|102:246|82:190,1,150,0|8,0:0|0:0,0:0:0:0:
215,167,152293,1,8,0:0:0:0:
182,302,152432,2,8,P|141:340|44:346,1,150,0|8,0:0|0:0,0:0:0:0:
127,113,152988,6,8,P|205:67|279:91,1,150,0|8,0:0|0:0,0:0:0:0:
344,184,153404,1,8,0:0:0:0:
215,167,153543,1,0,0:0:0:0:
354,95,153682,1,8,0:0:0:0:
279,252,153821,1,8,0:0:0:0:
504,329,154099,6,8,L|480:170,1,150,0|8,0:0|0:0,0:0:0:0:
453,42,154516,1,8,0:0:0:0:
317,37,154654,2,8,L|345:185,1,150,0|8,0:0|0:0,0:0:0:0:
371,319,155071,1,8,0:0:0:0:
240,239,155210,6,8,L|213:319,1,75,0|8,0:0|0:0,0:0:0:0:
75,134,155627,1,8,0:0:0:0:
75,134,155766,2,8,L|106:53,1,75,0|8,0:0|0:0,0:0:0:0:
102,64,155974,1,4,0:0:0:0:
102,64,156043,1,4,0:0:0:0:
473,65,156321,6,8,B|373:80|381:198|499:265|499:265|476:328|460:333|388:362|301:272,1,525,0|8,0:0|0:0,0:0:0:0:
209,208,157432,5,0,0:0:0:0:
432,21,157849,1,0,0:0:0:0:
53,71,158266,1,0,0:0:0:0:
97,244,158543,2,8,P|158:318|282:292,1,225,0|8,0:0|0:0,0:0:0:0:
401,213,159099,6,8,L|389:276,1,56.2500021457673,0|8,0:0|0:0,0:0:0:0:
317,156,159377,2,8,L|286:104,1,56.2500021457673,0|8,0:0|0:0,0:0:0:0:
332,239,159654,2,0,L|320:302,1,56.2500021457673,8|8,0:0|0:0,0:0:0:0:
232,143,159932,2,8,L|201:91,1,56.2500021457673,0|8,0:0|0:0,0:0:0:0:
259,261,160210,2,8,B|250:299|171:313|171:313|164:251|106:217,1,225.000008583069,0|8,0:0|0:0,0:0:0:0:
358,138,161877,5,0,0:0:0:0:
61,208,162293,1,0,0:0:0:0:
426,294,162710,1,0,0:0:0:0:
194,272,162988,1,0,0:0:0:0:
329,216,163266,2,8,L|395:213,2,56.2500021457673,0|8|8,0:0|0:0|0:0,0:0:0:0:
