osu file format v14

[General]
AudioFilename: Major Lazer - Be Together (feat. Wild Belle) (Vanic Remix) - Copy.mp3
AudioLeadIn: 0
PreviewTime: -1
Countdown: 0
SampleSet: Normal
StackLeniency: 0.7
Mode: 0
LetterboxInBreaks: 1
WidescreenStoryboard: 1

[Editor]
DistanceSpacing: 1.3
BeatDivisor: 4
GridSize: 4
TimelineZoom: 1

[Metadata]
Title:Be Together (Vanic Remix)
TitleUnicode:Be Together (Vanic Remix)
Artist:Major Lazer
ArtistUnicode:Major Lazer
Creator:DarkClawRaven
Version:Normal
Source:
Tags:
BeatmapID:1020210
BeatmapSetID:477583

[Difficulty]
HPDrainRate:4
CircleSize:3.1
OverallDifficulty:4
ApproachRate:5.5
SliderMultiplier:1.2
SliderTickRate:1

[Events]
//Background and Video events
0,0,"anime-girl-boy-hug-love-1680-x-1050-download-close-3Ngc4o-quote.jpg",0,0
//Break Periods
2,48252,58927
2,119876,128489
2,156252,166927
//Storyboard Layer 0 (Background)
//Storyboard Layer 1 (Fail)
//Storyboard Layer 2 (Pass)
//Storyboard Layer 3 (Foreground)
//Storyboard Sound Samples

[TimingPoints]
52,375,4,1,1,60,1,0
59958,-125,4,1,1,60,0,0
60052,-125,4,2,1,73,0,0
71958,-100,4,1,1,60,0,0
72052,-100,4,1,1,60,0,1
72963,-100,4,1,1,60,0,0
131882,-100,4,1,1,60,0,0
167864,-125,4,1,1,60,0,0
167958,-142.857142857143,4,1,1,60,0,0
179864,-83.3333333333333,4,1,1,60,0,0
180052,-83.3333333333333,4,1,1,60,0,1
180573,-83.3333333333333,4,1,1,60,0,0
203958,-100,4,1,1,60,0,0

[Colours]
Combo1 : 162,255,162
Combo2 : 128,255,255
Combo3 : 255,255,255

[HitObjects]
435,218,12052,6,0,P|395:270|338:288,1,120
242,301,12614,1,0,0:0:0:0:
141,294,12802,2,0,P|93:249|91:190,1,120,8|0,2:0|0:0,0:0:0:0:
198,50,13552,6,0,P|255:67|306:117,1,120
348,191,14114,1,0,0:0:0:0:
387,291,14302,2,0,P|325:328|264:328,1,120,8|0,2:0|0:0,0:0:0:0:
176,327,14864,1,0,0:0:0:0:
84,282,15052,2,0,P|53:229|46:157,1,120
278,64,15802,6,0,P|320:86|336:118,1,60,8|0,2:0|0:0,0:0:0:0:
386,184,16177,1,0,0:0:0:0:
324,274,16364,1,0,0:0:0:0:
206,285,16552,2,0,P|224:232|287:173,1,120,8|0,2:0|0:0,0:0:0:0:
354,109,17114,1,0,0:0:0:0:
248,54,17302,2,0,P|189:79|142:121,1,120
98,217,17864,1,0,0:0:0:0:
136,322,18052,2,0,P|201:272|206:225,1,120,8|0,2:0|0:0,0:0:0:0:
311,64,18802,5,0,0:0:0:0:
433,200,19177,1,0,0:0:0:0:
233,236,19552,2,0,P|179:218|142:143,2,120
331,181,20489,1,0,0:0:0:0:
362,81,20677,2,0,P|407:109|429:197,2,120,8|0|0,2:0|0:0|0:0,0:0:0:0:
258,75,21614,1,0,0:0:0:0:
180,136,21802,2,0,P|140:186|71:227,1,120,8|0,2:0|0:0,0:0:0:0:
309,253,22552,6,0,L|394:339,2,120
180,136,23677,1,0,0:0:0:0:
76,256,24052,2,0,P|119:304|184:322,1,120,8|0,2:0|0:0,0:0:0:0:
290,294,24614,1,0,0:0:0:0:
393,242,24802,2,0,P|390:194|338:121,1,120,8|0,2:0|0:0,0:0:0:0:
183,85,25552,6,0,P|112:120|81:157,2,120
277,117,26489,1,0,0:0:0:0:
357,175,26677,2,0,P|407:178|483:161,1,120
166,322,27427,1,0,0:0:0:0:
183,108,27802,1,8,2:0:0:0:
390,131,28177,5,0,0:0:0:0:
379,163,28364,1,0,0:0:0:0:
362,191,28552,2,0,P|310:236|243:249,1,120,8|0,2:0|0:0,0:0:0:0:
87,149,29302,2,0,P|124:119|213:82,1,120
296,78,29864,1,0,0:0:0:0:
396,110,30052,2,0,P|420:162|423:238,1,120,8|0,2:0|0:0,0:0:0:0:
184,266,30802,1,0,0:0:0:0:
261,63,31177,5,0,0:0:0:0:
288,83,31364,1,0,0:0:0:0:
317,111,31552,2,0,P|328:174|282:239,1,120,8|0,2:0|0:0,0:0:0:0:
112,312,32302,2,0,P|57:296|10:239,2,120
228,320,33239,1,0,0:0:0:0:
339,323,33427,2,0,P|315:255|268:224,1,120,8|8,2:0|2:0,0:0:0:0:
143,71,34177,2,0,P|161:112|231:148,1,120,0|8,1:0|2:0,0:0:0:0:
438,125,34927,2,0,P|414:182|338:204,2,120,0|0|8,0:0|0:0|2:0,0:0:0:0:
97,142,36052,6,0,B|151:139|155:210|206:201,1,120
306,209,36614,1,0,0:0:0:0:
408,183,36802,2,0,P|391:142|311:111,1,120,8|0,2:0|0:0,0:0:0:0:
213,106,37364,1,0,0:0:0:0:
138,188,37552,2,0,P|114:228|40:278,2,120
309,75,38677,1,0,0:0:0:0:
398,261,39052,2,0,B|345:250|321:313|160:318,1,240,8|0,2:0|0:0,0:0:0:0:
109,158,40177,1,8,2:0:0:0:
329,74,40552,6,0,P|370:87|413:161,2,120,8|0|0,2:0|0:0|0:0,0:0:0:0:
220,114,41489,1,0,0:0:0:0:
126,166,41677,2,0,P|56:189|22:246,1,120,8|0,2:0|0:0,0:0:0:0:
130,271,42239,1,0,0:0:0:0:
118,377,42427,2,0,P|190:361|227:305,1,120,0|8,0:0|2:0,0:0:0:0:
389,126,43177,1,0,0:0:0:0:
81,182,43552,6,0,P|108:212|187:213,1,120
266,170,44114,1,0,0:0:0:0:
344,104,44302,2,0,P|410:102|471:140,1,120,8|0,2:0|0:0,0:0:0:0:
152,220,45052,2,0,B|224:200|292:112|132:108|156:204|288:212,1,240,0|8,0:0|2:0,0:0:0:0:
440,276,46177,1,0,0:0:0:0:
416,108,46552,1,0,0:0:0:0:
84,104,47302,2,0,B|172:104|136:200|312:160,1,240,0|4,0:0|2:0,0:0:0:0:
92,132,60052,6,0,B|124:120|260:0|112:24|20:48|216:124,1,288
376,252,61552,1,2,0:0:0:0:
216,320,61927,1,0,0:0:0:0:
88,216,62302,2,0,P|132:164|248:116,1,192,2|0,0:0|0:0,0:0:0:0:
300,284,63427,6,0,P|356:248|376:220,2,96
168,296,64552,1,2,0:0:0:0:
80,224,64927,2,0,P|64:180|56:112,1,96,0|2,0:0|0:0,0:0:0:0:
180,56,65677,2,0,P|200:104|200:168,1,96,0|2,0:0|0:0,0:0:0:0:
260,252,66427,1,0,0:0:0:0:
384,192,66802,2,0,P|344:144|296:128,1,96,2|0,0:0|0:0,0:0:0:0:
132,124,67552,2,0,P|64:176|60:200,1,96,2|0,0:0|0:0,0:0:0:0:
256,192,68114,12,0,71677,0:0:0:0:
448,76,72052,6,0,B|348:108|376:184|240:208,1,240,12|0,2:0|0:0,0:0:0:0:
156,248,72989,1,0,0:0:0:0:
52,216,73177,2,0,P|100:160|160:144,1,120
240,152,73739,1,0,0:0:0:0:
332,176,73927,2,0,P|396:152|452:96,2,120,0|8|0,0:0|2:0|0:0,0:0:0:0:
172,324,75052,6,0,P|108:300|80:244,1,120,8|0,2:0|0:0,0:0:0:0:
180,220,75614,1,0,0:0:0:0:
196,116,75802,2,0,P|260:144|292:212,2,120,8|8|0,2:0|2:0|0:0,0:0:0:0:
436,144,76927,1,0,0:0:0:0:
300,264,77302,2,0,P|248:288|172:288,1,120,8|0,2:0|0:0,0:0:0:0:
360,80,78052,6,0,B|400:92|400:160|476:148,2,120,12|0|0,2:0|0:0|0:0,0:0:0:0:
272,136,78989,1,0,0:0:0:0:
204,216,79177,2,0,P|156:256|84:268,1,120,8|8,2:0|2:0,0:0:0:0:
100,112,79927,1,0,0:0:0:0:
208,288,80302,6,0,P|248:268|300:192,1,120,8|8,2:0|2:0,0:0:0:0:
432,100,81052,1,0,0:0:0:0:
224,80,81427,2,0,P|160:116|124:172,1,120,8|0,2:0|0:0,0:0:0:0:
100,308,82177,1,0,0:0:0:0:
312,288,82552,2,0,P|380:252|448:240,2,120,8|8|0,2:0|2:0|0:0,0:0:0:0:
220,328,83489,1,0,0:0:0:0:
128,296,83677,2,0,P|84:288|60:260,1,60
88,120,84052,6,0,B|180:84|204:224|312:184,1,240,12|0,2:0|0:0,0:0:0:0:
404,140,84989,1,0,0:0:0:0:
508,164,85177,2,0,P|480:212|412:244,1,120
316,272,85739,1,0,0:0:0:0:
212,260,85927,2,0,P|168:252|132:268,1,60
288,176,86302,2,0,P|348:148|388:96,2,120,8|0|0,2:0|0:0|0:0,0:0:0:0:
124,328,87427,1,8,2:0:0:0:
332,284,87802,6,0,P|384:232|404:168,2,120,8|0|0,2:0|0:0|0:0,0:0:0:0:
128,200,88927,1,0,0:0:0:0:
292,84,89302,2,0,P|348:44|420:36,1,120,8|0,2:0|0:0,0:0:0:0:
72,288,90052,2,0,P|148:264|192:220,1,120,8|0,2:0|0:0,0:0:0:0:
256,168,90614,1,0,0:0:0:0:
324,92,90802,2,0,P|416:64|452:72,2,120,8|0|0,2:0|0:0|0:0,0:0:0:0:
128,156,91927,5,0,0:0:0:0:
280,328,92302,2,0,P|336:288|348:232,1,120,8|0,2:0|0:0,0:0:0:0:
100,248,93052,1,0,0:0:0:0:
272,88,93427,2,0,P|204:92|136:124,2,120,8|0|0,2:0|0:0|0:0,0:0:0:0:
392,88,96052,6,0,P|360:152|304:192,1,120,8|0,2:0|0:0,0:0:0:0:
152,212,96802,1,0,0:0:0:0:
176,248,96989,1,0,0:0:0:0:
212,268,97177,2,0,P|252:272|296:260,1,60
260,124,97552,2,0,P|224:92|132:80,2,120,8|8|0,2:0|2:0|0:0,0:0:0:0:
384,256,98677,1,0,0:0:0:0:
240,320,99052,6,0,P|216:280|220:188,1,120,8|8,2:0|2:0,0:0:0:0:
384,80,99802,2,0,L|432:40,2,60
288,120,100364,1,0,0:0:0:0:
196,152,100552,2,0,P|148:188|92:256,2,120,8|0|0,2:0|0:0|0:0,0:0:0:0:
396,268,101677,1,0,0:0:0:0:
228,300,102052,6,0,P|156:292|136:256,1,120,8|0,2:0|0:0,0:0:0:0:
340,160,102802,1,0,0:0:0:0:
304,148,102989,1,0,0:0:0:0:
268,140,103177,2,0,P|216:144|184:160,1,60,8|0,2:0|0:0,0:0:0:0:
104,228,103552,2,0,P|148:268|228:280,2,120,8|0|0,2:0|0:0|0:0,0:0:0:0:
264,100,104677,1,0,0:0:0:0:
396,252,105052,6,0,P|352:284|280:292,1,120,8|0,2:0|0:0,0:0:0:0:
192,264,105614,1,0,0:0:0:0:
124,200,105802,2,0,P|72:184|20:140,1,120,8|0,2:0|0:0,0:0:0:0:
440,72,106552,2,0,P|404:120|344:144,1,120,8|0,2:0|0:0,0:0:0:0:
244,164,107114,1,0,0:0:0:0:
152,236,107302,2,0,P|116:264|76:332,2,120,8|0|0,2:0|0:0|0:0,0:0:0:0:
360,108,108427,1,0,0:0:0:0:
72,263,108802,6,0,P|91:223|119:189,1,60
170,129,109177,1,0,0:0:0:0:
266,90,109364,1,0,0:0:0:0:
376,88,109552,2,0,P|357:153|301:198,2,120,8|8|0,2:0|2:0|0:0,0:0:0:0:
213,213,110677,1,0,0:0:0:0:
377,315,111052,2,0,P|396:265|362:182,1,120,8|0,2:0|0:0,0:0:0:0:
310,129,111614,1,0,0:0:0:0:
221,70,111802,6,0,P|180:56|95:66,2,120,8|8|0,2:0|2:0|0:0,0:0:0:0:
441,122,112927,2,0,P|404:176|333:204,1,120
223,63,113677,1,0,0:0:0:0:
118,214,114052,2,0,B|70:235|80:296|26:320,1,120,0|8,0:0|2:0,0:0:0:0:
118,214,114614,1,0,0:0:0:0:
129,106,114802,2,0,P|206:142|216:182,1,120,0|8,0:0|2:0,0:0:0:0:
266,250,115364,1,0,0:0:0:0:
300,343,115552,2,0,P|338:315|361:242,1,120,0|8,0:0|2:0,0:0:0:0:
383,147,116114,1,0,0:0:0:0:
290,93,116302,6,0,L|244:48,1,60,8|0,2:0|0:0,0:0:0:0:
200,158,116677,2,0,L|141:188,1,60,8|0,1:0|0:0,0:0:0:0:
171,61,117052,2,0,P|256:71|292:112,1,120
51,96,117802,1,8,2:0:0:0:
152,230,118177,1,0,0:0:0:0:
298,295,118552,1,8,2:0:0:0:
462,325,118927,1,0,0:0:0:0:
298,295,119302,2,0,P|308:248|267:186,1,120,8|0,2:0|0:0,0:0:0:0:
256,192,129614,12,0,131677,0:0:0:0:
411,98,132052,6,0,B|340:103|358:171|299:164,1,120
144,264,132802,1,0,0:0:0:0:
168,280,132989,1,0,0:0:0:0:
196,292,133177,2,0,P|256:324|304:312,1,120,8|0,2:0|0:0,0:0:0:0:
168,112,133927,1,0,0:0:0:0:
360,104,134302,1,0,0:0:0:0:
436,232,134677,2,0,P|404:288|340:312,1,120,8|0,2:0|0:0,0:0:0:0:
208,272,135427,1,0,0:0:0:0:
120,152,135802,1,0,0:0:0:0:
248,56,136177,5,0,0:0:0:0:
280,72,136364,1,0,0:0:0:0:
312,88,136552,2,0,P|360:96|432:72,2,120,8|0|0,2:0|0:0|0:0,0:0:0:0:
248,152,137489,1,0,0:0:0:0:
172,192,137677,2,0,P|112:192|40:144,1,120
172,192,138427,1,0,0:0:0:0:
328,284,138802,1,8,2:0:0:0:
408,84,139177,5,0,0:0:0:0:
376,100,139364,1,0,0:0:0:0:
340,120,139552,2,0,L|276:140,1,60
364,212,139927,2,0,L|336:280,1,60
224,300,140302,2,0,P|256:348|320:372,2,120,0|8|0,0:0|2:0|0:0,0:0:0:0:
100,120,141427,1,0,0:0:0:0:
304,80,141802,6,0,P|368:88|424:128,2,120,8|0|0,2:0|0:0|0:0,0:0:0:0:
240,240,142927,1,0,0:0:0:0:
304,80,143302,1,8,2:0:0:0:
240,240,143677,1,0,0:0:0:0:
260,252,143864,1,0,0:0:0:0:
284,264,144052,2,0,P|352:280|408:264,2,120,12|0|0,2:0|0:0|0:0,0:0:0:0:
140,160,145177,1,0,0:0:0:0:
348,80,145552,6,0,P|312:104|296:132,1,60
396,180,145927,2,0,P|376:212|348:220,1,60
348,320,146302,2,0,P|280:304|240:252,1,120,8|0,2:0|0:0,0:0:0:0:
184,196,146864,1,0,0:0:0:0:
136,116,147052,2,0,P|108:84|32:44,2,120,8|0|0,2:0|0:0|0:0,0:0:0:0:
316,112,148177,1,0,0:0:0:0:
136,232,148552,5,0,0:0:0:0:
156,248,148739,1,0,0:0:0:0:
184,264,148927,2,0,P|224:280|252:288,1,60,8|0,2:0|0:0,0:0:0:0:
328,280,149302,1,0,0:0:0:0:
224,120,149677,1,0,0:0:0:0:
420,136,150052,2,0,P|400:84|348:28,1,120,8|0,2:0|0:0,0:0:0:0:
420,136,150802,1,0,0:0:0:0:
264,128,151177,1,0,0:0:0:0:
176,248,151552,6,0,P|112:224|56:180,2,120,8|8|0,2:0|2:0|0:0,0:0:0:0:
332,240,152677,1,0,0:0:0:0:
320,104,153052,2,0,B|400:124|408:192|540:192,1,240,8|0,2:0|0:0,0:0:0:0:
268,292,154177,1,0,0:0:0:0:
128,280,154552,2,0,P|152:220|200:180,1,120
268,116,155114,1,0,0:0:0:0:
344,64,155302,2,0,P|384:80|476:64,1,120
260,192,156052,1,0,0:0:0:0:
360,248,168052,6,0,P|328:276|276:288,1,83.9999974365235,0|8,0:0|2:0,0:0:0:0:
112,220,168802,1,0,0:0:0:0:
92,188,168989,1,0,0:0:0:0:
80,152,169177,2,0,P|84:116|120:72,1,83.9999974365235,8|0,2:0|0:0,0:0:0:0:
284,56,169927,1,0,0:0:0:0:
424,156,170302,2,0,B|388:172|388:192|348:212,1,83.9999974365235,8|0,2:0|0:0,0:0:0:0:
424,156,171052,1,2,2:0:0:0:
140,284,171427,6,0,L|180:256,1,41.9999987182618
144,172,171802,2,0,P|204:168|240:176,1,83.9999974365235,8|0,2:0|0:0,0:0:0:0:
340,280,172552,1,0,0:0:0:0:
424,156,172927,1,0,0:0:0:0:
304,68,173302,2,0,P|248:96|224:124,1,83.9999974365235,8|0,2:0|0:0,0:0:0:0:
308,72,174052,1,0,0:0:0:0:
272,212,174427,1,0,0:0:0:0:
256,192,174802,12,0,179677,0:0:0:0:
416,76,180052,6,0,P|384:108|284:140,1,143.999995605469,12|0,2:0|0:0,0:0:0:0:
188,148,180614,1,0,0:0:0:0:
100,200,180802,2,0,P|72:240|56:284,1,71.9999978027344
184,276,181177,2,0,P|216:224|228:132,1,143.999995605469,8|0,2:0|1:0,0:0:0:0:
184,276,181739,1,0,0:0:0:0:
280,276,181927,6,0,P|336:264|364:272,1,71.9999978027344,8|0,2:0|0:0,0:0:0:0:
356,168,182302,2,0,P|396:172|432:184,1,71.9999978027344,8|0,2:0|0:0,0:0:0:0:
344,64,182677,2,0,P|276:104|256:184,1,143.999995605469
208,256,183239,1,0,0:0:0:0:
128,320,183427,2,0,P|88:340|44:340,1,71.9999978027344,8|0,2:0|0:0,0:0:0:0:
104,224,183802,2,0,P|152:216|228:272,2,143.999995605469,8|0|0,2:0|0:0|0:0,0:0:0:0:
208,80,184927,1,0,0:0:0:0:
368,124,185302,1,0,0:0:0:0:
368,276,185677,5,0,0:0:0:0:
340,292,185864,1,0,0:0:0:0:
312,308,186052,2,0,P|260:324|168:300,1,143.999995605469,8|0,2:0|0:0,0:0:0:0:
100,240,186614,1,0,0:0:0:0:
72,156,186802,2,0,P|72:96|128:40,1,143.999995605469,8|0,2:0|0:0,0:0:0:0:
328,160,187552,1,0,0:0:0:0:
476,280,187927,2,0,P|440:308|332:344,2,143.999995605469,0|8|0,0:0|2:0|0:0,0:0:0:0:
328,160,189052,1,0,0:0:0:0:
176,88,189427,6,0,P|128:116|64:188,1,143.999995605469,0|8,0:0|2:0,0:0:0:0:
176,88,190177,1,0,0:0:0:0:
260,200,190552,2,0,P|320:152|356:76,1,143.999995605469,0|8,0:0|2:0,0:0:0:0:
264,200,191302,1,0,0:0:0:0:
232,216,191489,1,0,0:0:0:0:
200,232,191677,2,0,P|136:256|104:252,1,71.9999978027344
144,156,192052,6,0,P|192:120|280:104,1,143.999995605469,8|0,2:0|0:0,0:0:0:0:
368,140,192614,1,0,0:0:0:0:
432,48,192802,2,0,P|480:108|456:192,1,143.999995605469,8|8,2:0|2:0,0:0:0:0:
432,48,193552,1,0,0:0:0:0:
240,92,193927,2,0,P|200:132|104:172,1,143.999995605469,8|0,2:0|0:0,0:0:0:0:
240,92,194677,1,0,0:0:0:0:
268,104,194864,1,0,0:0:0:0:
304,112,195052,2,0,P|348:112|444:76,2,143.999995605469,8|8|0,2:0|2:0|0:0,0:0:0:0:
220,296,196177,6,0,P|144:268|104:200,1,143.999995605469,8|0,2:0|0:0,0:0:0:0:
184,168,196739,1,0,0:0:0:0:
268,128,196927,2,0,P|240:84|152:28,2,143.999995605469,0|8|8,0:0|2:0|2:0,0:0:0:0:
436,220,198052,2,0,P|380:280|304:296,1,143.999995605469
228,280,198614,1,0,0:0:0:0:
164,220,198802,2,0,P|132:184|36:140,1,143.999995605469
264,88,199552,1,0,0:0:0:0:
392,224,199927,2,0,P|396:260|388:296,2,71.9999978027344,0|8|0,0:0|2:0|0:0,0:0:0:0:
332,168,200489,1,0,0:0:0:0:
240,176,200677,2,0,P|248:136|328:72,1,143.999995605469,0|8,0:0|2:0,0:0:0:0:
440,280,204052,6,0,P|400:308|304:316,1,120,0|8,0:0|2:0,0:0:0:0:
252,292,204614,1,0,0:0:0:0:
184,252,204802,2,0,P|156:244|112:240,1,60
140,156,205177,2,0,P|108:144|80:120,1,60
176,64,205552,2,0,P|228:88|248:168,2,120,8|8|0,2:0|2:0|0:0,0:0:0:0:
360,96,206677,1,0,0:0:0:0:
400,248,207052,6,0,P|368:284|284:316,1,120,8|0,2:0|0:0,0:0:0:0:
212,280,207614,1,0,0:0:0:0:
232,188,207802,2,0,L|148:160,2,60
328,176,208364,1,0,0:0:0:0:
416,164,208552,2,0,P|388:108|328:84,2,120,8|8|0,2:0|2:0|0:0,0:0:0:0:
204,236,209677,1,0,0:0:0:0:
68,132,210052,6,0,P|120:80|184:64,1,120,8|0,2:0|0:0,0:0:0:0:
248,84,210614,1,0,0:0:0:0:
328,116,210802,2,0,P|368:124|400:116,2,60
248,84,211364,1,0,0:0:0:0:
152,120,211552,2,0,P|192:172|252:176,2,120
236,316,212677,5,0,0:0:0:0:
264,304,212864,1,0,0:0:0:0:
288,288,213052,2,0,P|324:260|344:188,2,120,8|0|0,2:0|0:0|0:0,0:0:0:0:
168,172,214177,1,0,0:0:0:0:
352,76,214552,2,0,P|288:40|240:40,2,120,8|0|0,2:0|0:0|0:0,0:0:0:0:
168,172,215677,1,0,0:0:0:0:
452,188,216052,6,0,B|388:200|396:260|324:240,1,120
252,252,216614,1,0,0:0:0:0:
160,284,216802,2,0,L|84:320,1,60,8|0,2:0|0:0,0:0:0:0:
96,212,217177,2,0,L|32:192,1,60,8|0,2:0|0:0,0:0:0:0:
140,116,217552,2,0,P|184:148|196:220,2,120,8|0|0,2:0|0:0|0:0,0:0:0:0:
312,96,218677,1,0,0:0:0:0:
440,224,219052,6,0,P|392:272|332:288,1,120,8|0,2:0|0:0,0:0:0:0:
192,280,219802,1,0,0:0:0:0:
152,144,220177,1,0,0:0:0:0:
256,48,220552,1,0,0:0:0:0:
356,128,220927,2,0,P|404:160|484:160,2,120,8|8|0,2:0|2:0|0:0,0:0:0:0:
196,60,222052,6,0,P|144:52|60:68,1,120
196,60,222802,1,8,2:0:0:0:
140,192,223177,1,0,0:0:0:0:
256,284,223552,2,0,P|316:288|384:264,2,120
396,152,224677,1,0,0:0:0:0:
372,136,224864,1,0,0:0:0:0:
352,124,225052,2,0,P|276:104|236:112,2,120
336,272,226177,1,0,0:0:0:0:
128,304,226552,6,0,P|164:288|184:268,1,60
112,200,226927,2,0,P|152:172|188:160,1,60
264,232,227302,2,0,P|288:196|268:112,1,120
40,88,228052,2,0,P|84:44|152:28,1,120
312,92,228802,1,8,2:0:0:0:
308,260,229177,1,0,0:0:0:0:
280,280,229364,1,0,0:0:0:0:
252,300,229552,2,0,P|192:320|128:304,1,120
84,240,230114,1,0,0:0:0:0:
116,156,230302,2,0,P|104:116|44:40,2,120,8|0|0,2:0|0:0|0:0,0:0:0:0:
312,132,231427,1,0,0:0:0:0:
416,264,231802,6,0,P|372:292|284:288,1,120,8|0,2:0|0:0,0:0:0:0:
272,280,232364,1,0,0:0:0:0:
248,264,232552,2,0,P|204:244|108:244,2,120
396,128,233677,1,0,0:0:0:0:
256,72,234052,2,0,P|236:132|256:204,1,120
72,104,234802,1,0,0:0:0:0:
56,268,235177,1,0,0:0:0:0:
84,280,235364,1,0,0:0:0:0:
112,288,235552,2,0,P|176:296|232:272,1,120
332,168,236302,1,0,0:0:0:0:
316,32,236677,6,0,P|260:48|200:112,1,120
168,156,237239,1,0,0:0:0:0:
136,232,237427,2,0,P|108:276|48:332,1,120,0|8,0:0|2:0,0:0:0:0:
274,299,238177,1,0,0:0:0:0:
383,171,238552,1,0,0:0:0:0:
272,84,238927,1,0,0:0:0:0:
252,72,239114,1,0,0:0:0:0:
232,64,239302,2,0,P|152:56|100:80,1,120,8|0,2:0|0:0,0:0:0:0:
56,136,239864,1,0,0:0:0:0:
56,224,240052,6,0,P|80:272|156:320,1,120
324,216,240802,1,8,2:0:0:0:
236,112,241177,2,0,L|192:68,1,60
69,25,241552,2,0,P|45:69|65:149,2,120,0|8|0,0:0|2:0|0:0,0:0:0:0:
184,168,242677,1,0,0:0:0:0:
180,300,243052,2,0,P|236:284|288:232,1,120,0|8,0:0|2:0,0:0:0:0:
392,124,243802,1,0,0:0:0:0:
264,36,244177,6,0,P|232:92|224:164,2,120,0|8|0,0:0|2:0|0:0,0:0:0:0:
332,144,245302,2,0,P|396:152|452:124,1,120
364,280,246052,2,0,P|300:292|244:276,1,120
168,232,246614,1,0,0:0:0:0:
68,248,246802,2,0,P|80:188|140:144,1,120
216,116,247364,1,0,0:0:0:0:
292,56,247552,2,0,P|320:48|368:56,1,60
356,144,247927,2,0,P|392:140|424:128,1,60
380,244,248302,6,0,P|308:240|256:196,1,120
200,160,248864,1,0,0:0:0:0:
112,192,249052,2,0,P|112:128|160:76,2,120,8|0|0,2:0|0:0|0:0,0:0:0:0:
264,280,250177,1,0,0:0:0:0:
408,216,250552,2,0,P|400:160|364:96,2,120,0|0|8,0:0|0:0|2:0,0:0:0:0:
