osu file format v14

[General]
AudioFilename: priznaniye.mp3
AudioLeadIn: 0
PreviewTime: 79402
Countdown: 0
SampleSet: Soft
StackLeniency: 0.7
Mode: 0
LetterboxInBreaks: 0
EpilepsyWarning: 1
WidescreenStoryboard: 1

[Editor]
DistanceSpacing: 1.2
BeatDivisor: 4
GridSize: 32
TimelineZoom: 1

[Metadata]
Title:Priznaniye
TitleUnicode:Признание
Artist:Majak
ArtistUnicode:Маяк
Creator:Wafu
Version:Normal
Source:
Tags:Река Reka Ukraine synthwave dreamwave chill nostalgic retrowave retro Mayak russian 80s lo-fi
BeatmapID:730587
BeatmapSetID:325107

[Difficulty]
HPDrainRate:3.5
CircleSize:3.5
OverallDifficulty:3.5
ApproachRate:4.5
SliderMultiplier:1.3
SliderTickRate:2

[Events]
//Background and Video events
0,0,"city.jpg",0,0
//Break Periods
2,223402,233902
//Storyboard Layer 0 (Background)
//Storyboard Layer 1 (Fail)
//Storyboard Layer 2 (Pass)
//Storyboard Layer 3 (Foreground)
//Storyboard Sound Samples

[TimingPoints]
1402,750,4,2,1,45,1,0
17152,-100,4,2,2,45,0,0
17339,-100,4,2,1,45,0,0
30652,-100,4,2,2,45,0,0
30839,-100,4,2,1,45,0,0
31402,-100,4,2,1,40,0,0
79402,-100,4,2,1,60,0,1
127402,-100,4,2,1,45,0,0
175402,-100,4,2,1,60,0,1
223402,-100,4,2,1,50,0,0
268402,-100,4,2,1,40,0,0
272902,-100,4,2,1,30,0,0
274402,-100,4,2,1,20,0,0
275902,-100,4,2,1,10,0,0
277402,-100,4,2,1,5,0,0

[Colours]
Combo1 : 202,205,63
Combo2 : 164,164,164
Combo3 : 214,214,214
Combo4 : 223,221,198
Combo5 : 179,181,159
Combo6 : 235,237,135

[HitObjects]
257,142,7402,6,0,P|289:146|321:142,1,65,2|0,0:0|0:0,0:0:0:0:
381,92,8152,2,0,L|384:59,2,32.5,8|0|0,0:0|0:0|0:0,0:0:0:0:
393,168,8902,1,0,0:0:0:0:
470,175,9277,1,0,0:0:0:0:
495,248,9652,2,0,B|497:282|497:282|487:311,1,65,8|0,0:0|0:0,0:0:0:0:
422,355,10402,6,0,P|359:354|311:312,1,130,2|8,0:0|0:0,0:0:0:0:
277,158,11902,2,0,L|282:125,2,32.5,0|0|0,0:0|0:0|0:0,0:0:0:0:
210,199,12652,2,0,P|178:201|147:195,1,65,8|0,0:0|0:0,0:0:0:0:
87,144,13402,70,0,L|78:79,2,65,2|0|8,0:0|0:0|0:0,0:0:0:0:
52,296,14902,2,0,P|37:299|21:301,2,32.5,0|0|0,0:0|0:0|0:0,0:0:0:0:
127,274,15652,1,8,0:0:0:0:
151,199,16027,1,0,0:0:0:0:
222,230,16402,6,0,B|260:233|260:233|319:224,2,97.5,2|0|0,0:0|0:0|0:0,0:0:0:0:
151,199,17902,2,0,B|138:168|152:136|152:136|165:108|150:72,1,130,0|8,0:0|0:0,0:0:0:0:
79,105,19027,1,0,0:0:0:0:
44,174,19402,70,0,L|52:238,1,65,2|0,0:0|0:0,0:0:0:0:
120,275,20152,1,8,0:0:0:0:
273,305,20902,2,0,L|305:301,2,32.5
194,307,21652,1,8,0:0:0:0:
120,275,22027,1,0,0:0:0:0:
99,199,22402,6,0,P|94:167|101:135,1,65,2|0,0:0|0:0,0:0:0:0:
159,83,23152,1,8,0:0:0:0:
301,149,23902,2,0,P|332:153|363:144,1,65,0|0,0:0|0:0,0:0:0:0:
398,74,24652,2,0,P|428:64|460:69,1,65,8|0,0:0|0:0,0:0:0:0:
509,130,25402,70,0,B|521:180|521:180|507:257,1,130,2|8,0:0|0:0,0:0:0:0:
441,299,26527,1,0,0:0:0:0:
375,341,26902,2,0,L|310:337,1,65,0|0,0:0|0:0,0:0:0:0:
268,271,27652,1,8,0:0:0:0:
314,208,28027,1,0,0:0:0:0:
370,262,28402,6,0,P|390:202|361:146,1,130,2|8,0:0|0:0,0:0:0:0:
292,109,29527,1,0,0:0:0:0:
222,144,29902,2,0,L|125:133,2,97.5,0|0|0,0:0|0:0|0:0,0:0:0:0:
285,188,31402,70,0,B|290:231|290:231|276:283,1,97.5,2|0,0:0|0:0,0:0:0:0:
85,323,32902,2,0,L|20:312,2,65,0|0|0,0:0|0:0|0:0,0:0:0:0:
147,276,34027,1,0,0:0:0:0:
180,205,34402,6,0,P|183:157|164:112,2,97.5,2|0|0,0:0|0:0|0:0,0:0:0:0:
222,270,35902,2,0,L|351:258,1,130,0|0,0:0|0:0,0:0:0:0:
409,205,37027,1,0,0:0:0:0:
481,175,37402,70,0,P|451:137|404:127,1,97.5,2|0,0:0|0:0,0:0:0:0:
256,254,38902,2,0,P|203:289|142:274,1,130,0|0,0:0|0:0,0:0:0:0:
100,208,40027,1,0,0:0:0:0:
144,143,40402,6,0,B|183:149|183:149|239:134,1,97.5,2|0,0:0|0:0,0:0:0:0:
428,86,41902,2,0,P|452:177|403:258,1,195,0|0,0:0|0:0,0:0:0:0:
329,282,43402,70,0,L|231:275,1,97.5,2|0,0:0|0:0,0:0:0:0:
68,167,44902,2,0,P|63:136|70:104,2,65,0|0|0,0:0|0:0|0:0,0:0:0:0:
113,232,46027,1,0,0:0:0:0:
189,215,46402,6,0,L|286:219,1,97.5,2|0,0:0|0:0,0:0:0:0:
472,160,47902,2,0,P|473:128|465:97,1,65,0|0,0:0|0:0,0:0:0:0:
401,52,48652,1,0,0:0:0:0:
351,112,49027,1,0,0:0:0:0:
307,176,49402,70,0,B|267:182|267:182|210:171,1,97.5,2|0,0:0|0:0,0:0:0:0:
118,343,50902,2,0,P|58:363|4:331,1,130,0|0,0:0|0:0,0:0:0:0:
1,253,52027,1,0,0:0:0:0:
15,176,52402,6,0,L|23:78,1,97.5,2|0,0:0|0:0,0:0:0:0:
217,60,53902,1,0,0:0:0:0:
472,238,55402,70,0,P|466:301|414:337,1,130,2|0,0:0|0:0,0:0:0:0:
341,312,56527,1,0,0:0:0:0:
268,339,56902,2,0,L|203:332,1,65,4|0,0:0|0:0,0:0:0:0:
140,285,57652,2,0,P|133:253|137:221,1,65,0|0,0:0|0:0,0:0:0:0:
192,165,58402,6,0,B|224:154|254:171|254:171|281:186|318:175,1,130,2|0,0:0|0:0,0:0:0:0:
433,70,59902,1,4,0:0:0:0:
279,44,60652,2,0,L|214:46,1,65,0|0,0:0|0:0,0:0:0:0:
139,68,61402,70,0,P|128:114|146:158,1,97.5,2|0,0:0|0:0,0:0:0:0:
316,254,62902,2,0,L|444:235,1,130,4|0,0:0|0:0,0:0:0:0:
477,164,64027,1,0,0:0:0:0:
429,102,64402,6,0,P|397:98|365:105,2,65,2|0|0,0:0|0:0|0:0,0:0:0:0:
489,246,65902,1,4,0:0:0:0:
185,318,67402,70,0,L|55:303,1,130,2|0,0:0|0:0,0:0:0:0:
11,154,68902,2,0,P|12:121|26:92,1,65,4|0,0:0|0:0,0:0:0:0:
86,43,69652,1,0,0:0:0:0:
159,69,70027,1,0,0:0:0:0:
181,143,70402,6,0,B|217:147|217:147|274:125,1,97.5,2|0,0:0|0:0,0:0:0:0:
466,91,71902,2,0,P|494:148|475:208,1,130,4|0,0:0|0:0,0:0:0:0:
418,261,73027,1,0,0:0:0:0:
346,291,73402,70,0,L|248:282,1,97.5,2|0,0:0|0:0,0:0:0:0:
56,316,74902,2,0,B|45:283|62:253|62:253|77:226|66:189,1,130,4|0,0:0|0:0,0:0:0:0:
28,121,76027,1,0,0:0:0:0:
106,121,76402,5,0,0:0:0:0:
256,323,79402,6,0,P|194:339|136:311,1,130,2|8,0:0|0:0,0:0:0:0:
91,248,80527,1,0,0:0:0:0:
118,174,80902,1,2,0:0:0:0:
65,116,81277,2,0,L|56:68,2,32.5,0|0|8,0:0|0:0|0:0,0:0:0:0:
179,221,82402,6,0,P|242:224|287:179,1,130,2|8,0:0|0:0,0:0:0:0:
214,150,83528,1,0,0:0:0:0:
136,156,83902,2,0,P|101:209|117:270,1,130,2|8,0:0|0:0,0:0:0:0:
272,289,85402,70,0,L|336:278,2,65,2|0|8,0:0|0:0|0:0,0:0:0:0:
201,255,86527,1,0,0:0:0:0:
138,208,86902,2,0,P|132:176|137:144,1,65,2|0,0:0|0:0,0:0:0:0:
209,113,87652,2,0,P|214:144|209:176,1,65,8|0,0:0|0:0,0:0:0:0:
201,255,88402,6,0,L|330:239,1,130,2|8,0:0|0:0,0:0:0:0:
405,261,89527,1,0,0:0:0:0:
465,310,89902,2,0,L|496:315,2,32.5,2|0|0,0:0|0:0|0:0,0:0:0:0:
405,261,90652,2,0,P|402:229|409:198,1,65,8|0,0:0|0:0,0:0:0:0:
466,143,91402,70,0,P|406:166|344:150,1,130,2|8,0:0|0:0,0:0:0:0:
287,96,92527,1,0,0:0:0:0:
220,136,92902,2,0,B|168:146|168:146|96:118,1,130,2|8,0:0|0:0,0:0:0:0:
37,263,94402,6,0,P|31:295|36:327,2,65,2|0|8,0:0|0:0|0:0,0:0:0:0:
62,189,95527,1,0,0:0:0:0:
108,126,95902,2,0,B|139:112|171:126|171:126|199:139|235:124,1,130,2|8,0:0|0:0,0:0:0:0:
384,84,97402,70,0,P|417:80|449:84,2,65,2|0|8,0:0|0:0|0:0,0:0:0:0:
339,148,98527,1,0,0:0:0:0:
339,225,98902,2,0,L|347:256,2,32.5,2|0|0,0:0|0:0|0:0,0:0:0:0:
263,245,99652,2,0,P|230:248|198:244,1,65,8|0,0:0|0:0,0:0:0:0:
132,203,100402,6,0,L|120:73,1,130,2|8,0:0|0:0,0:0:0:0:
198,80,101527,1,0,0:0:0:0:
276,71,101902,2,0,P|292:69|306:62,2,32.5,2|0|0,0:0|0:0|0:0,0:0:0:0:
198,80,102652,2,0,L|204:144,1,65,8|0,0:0|0:0,0:0:0:0:
273,181,103402,70,0,P|225:222|163:212,2,130,2|8|2,0:0|0:0|0:0,0:0:0:0:
288,104,105277,2,0,L|284:71,2,32.5,0|0|8,0:0|0:0|0:0,0:0:0:0:
446,107,106402,6,0,B|457:139|440:169|440:169|425:196|436:233,1,130,2|8,0:0|0:0,0:0:0:0:
454,308,107527,1,0,0:0:0:0:
384,342,107902,2,0,P|320:353|258:337,1,130,2|8,0:0|0:0,0:0:0:0:
195,193,109402,70,0,P|197:161|192:129,2,65,2|0|8,0:0|0:0|0:0,0:0:0:0:
139,248,110527,1,0,0:0:0:0:
68,280,110902,2,0,L|36:273,2,32.5,2|0|0,0:0|0:0|0:0,0:0:0:0:
123,335,111652,2,0,P|155:338|186:330,1,65,8|0,0:0|0:0,0:0:0:0:
215,257,112402,6,0,P|260:302|257:365,1,130,2|8,0:0|0:0,0:0:0:0:
334,378,113527,1,0,0:0:0:0:
404,344,113902,2,0,L|435:336,2,32.5,2|0|0,0:0|0:0|0:0,0:0:0:0:
352,286,114652,1,8,0:0:0:0:
464,178,115402,70,0,B|470:129|470:129|449:50,1,130,2|8,0:0|0:0,0:0:0:0:
372,36,116527,1,0,0:0:0:0:
325,98,116902,1,2,0:0:0:0:
252,125,117277,2,0,L|219:120,2,32.5,0|0|8,0:0|0:0|0:0,0:0:0:0:
378,216,118402,6,0,P|388:278|349:327,1,130,2|8,0:0|0:0,0:0:0:0:
274,349,119527,1,0,0:0:0:0:
196,349,119902,2,0,L|131:342,2,65,2|0|8,0:0|0:0|0:0,0:0:0:0:
279,216,121402,70,0,P|283:184|277:152,2,65,2|0|8,0:0|0:0|0:0,0:0:0:0:
211,255,122527,1,0,0:0:0:0:
144,295,122902,2,0,L|111:299,2,32.5,2|0|0,0:0|0:0|0:0,0:0:0:0:
211,334,123652,2,0,L|275:337,1,65,8|0,0:0|0:0,0:0:0:0:
351,319,124402,6,0,P|370:259|344:202,1,130,2|8,0:0|0:0,0:0:0:0:
277,157,125527,1,0,0:0:0:0:
210,117,125902,2,0,L|145:111,2,65,2|0|8,0:0|0:0|0:0,0:0:0:0:
276,76,127027,1,0,0:0:0:0:
342,117,127402,38,0,P|404:106|442:55,2,130,2|8|2,0:0|0:0|0:0,0:0:0:0:
203,44,129652,1,8,0:0:0:0:
147,98,130027,1,0,0:0:0:0:
125,173,130402,6,0,P|120:205|126:236,1,65,2|0,0:0|0:0,0:0:0:0:
189,282,131152,2,0,L|253:279,2,65,8|0|2,0:0|0:0|0:0,0:0:0:0:
56,199,132652,1,8,0:0:0:0:
70,122,133027,1,0,0:0:0:0:
131,72,133402,70,0,P|163:67|195:72,2,65,2|0|8,0:0|0:0|0:0,0:0:0:0:
230,193,134902,2,0,L|359:179,1,130,2|8,0:0|0:0,0:0:0:0:
430,146,136027,1,0,0:0:0:0:
481,88,136402,6,0,P|488:56|483:24,2,65,2|0|8,0:0|0:0|0:0,0:0:0:0:
331,128,137902,1,2,0:0:0:0:
193,54,138652,2,0,L|128:47,1,65,8|0,0:0|0:0,0:0:0:0:
61,87,139402,70,0,B|74:117|60:149|60:149|47:177|62:213,1,130,2|8,0:0|0:0,0:0:0:0:
171,324,140902,2,0,L|235:313,1,65,2|0,0:0|0:0,0:0:0:0:
275,246,141652,2,0,P|276:214|267:183,1,65,8|0,0:0|0:0,0:0:0:0:
206,134,142402,6,0,L|76:127,2,130,2|8|2,0:0|0:0|0:0,0:0:0:0:
335,47,144652,1,8,0:0:0:0:
398,92,145027,1,0,0:0:0:0:
446,153,145402,70,0,P|452:184|448:217,2,65,2|0|8,0:0|0:0|0:0,0:0:0:0:
292,136,146902,2,0,P|230:147|172:119,1,130,2|8,0:0|0:0,0:0:0:0:
126,56,148027,1,0,0:0:0:0:
94,127,148402,6,0,L|103:256,2,130,2|8|2,0:0|0:0|0:0,0:0:0:0:
228,47,150652,1,8,0:0:0:0:
291,92,151027,1,0,0:0:0:0:
358,53,151402,70,0,P|365:115|322:161,1,130,2|8,0:0|0:0,0:0:0:0:
244,157,152527,1,0,0:0:0:0:
184,207,152902,2,0,L|54:197,1,130,2|8,0:0|0:0,0:0:0:0:
7,134,154027,1,0,0:0:0:0:
34,61,154402,6,0,L|163:70,1,130,2|8,0:0|0:0,0:0:0:0:
317,93,155902,2,0,P|326:123|324:156,1,65,2|0,0:0|0:0,0:0:0:0:
274,216,156652,2,0,P|271:248|281:279,1,65,8|0,0:0|0:0,0:0:0:0:
342,327,157402,70,0,P|402:310|425:252,2,130,2|8|2,0:0|0:0|0:0,0:0:0:0:
269,299,159277,1,0,0:0:0:0:
197,269,159652,1,8,0:0:0:0:
137,319,160027,1,0,0:0:0:0:
72,275,160402,6,0,B|57:239|70:210|70:210|84:179|70:148,1,130,2|8,0:0|0:0,0:0:0:0:
38,77,161527,1,0,0:0:0:0:
114,61,161902,2,0,L|243:69,1,130,2|8,0:0|0:0,0:0:0:0:
397,94,163402,70,0,P|414:155|389:213,1,130,2|8,0:0|0:0,0:0:0:0:
324,256,164527,1,0,0:0:0:0:
265,204,164902,2,0,P|206:178|145:196,1,130,2|8,0:0|0:0,0:0:0:0:
113,266,166027,1,0,0:0:0:0:
164,324,166402,6,0,L|293:331,1,130,2|8,0:0|0:0,0:0:0:0:
366,302,167527,1,0,0:0:0:0:
428,255,167902,2,0,B|445:204|445:204|429:129,1,130,2|8,0:0|0:0,0:0:0:0:
388,63,169027,1,0,0:0:0:0:
350,131,169402,70,0,P|286:140|232:107,2,130,2|8|2,0:0|0:0|0:0,0:0:0:0:
460,241,171652,2,0,L|456:304,1,65,8|0,0:0|0:0,0:0:0:0:
385,339,172402,5,0,0:0:0:0:
155,160,175402,6,0,P|216:174|273:146,1,130,2|8,0:0|0:0,0:0:0:0:
317,81,176527,1,0,0:0:0:0:
375,133,176902,1,2,0:0:0:0:
452,133,177277,2,0,L|483:126,2,32.5,0|0|8,0:0|0:0|0:0,0:0:0:0:
371,266,178402,6,0,P|340:275|307:273,2,65,2|0|8,0:0|0:0|0:0,0:0:0:0:
416,202,179527,1,0,0:0:0:0:
446,130,179902,2,0,B|415:116|384:130|384:130|355:143|319:128,1,130,2|8,0:0|0:0,0:0:0:0:
167,93,181402,70,0,L|162:28,2,65,2|0|8,0:0|0:0|0:0,0:0:0:0:
135,164,182527,1,0,0:0:0:0:
70,208,182902,2,0,L|38:201,2,32.5,2|0|0,0:0|0:0|0:0,0:0:0:0:
113,273,183652,2,0,P|144:277|175:269,1,65,8|0,0:0|0:0,0:0:0:0:
224,208,184402,6,0,P|254:263|232:322,1,130,2|8,0:0|0:0,0:0:0:0:
158,350,185527,1,0,0:0:0:0:
80,343,185902,2,0,L|47:339,2,32.5,2|0|0,0:0|0:0|0:0,0:0:0:0:
113,273,186652,2,0,P|114:241|112:209,1,65,8|0,0:0|0:0,0:0:0:0:
99,131,187402,70,0,L|227:114,1,130,2|8,0:0|0:0,0:0:0:0:
305,102,188527,1,0,0:0:0:0:
368,56,188902,2,0,P|383:117|346:168,1,130,2|8,0:0|0:0,0:0:0:0:
195,208,190402,6,0,L|130:200,2,65,2|0|8,0:0|0:0|0:0,0:0:0:0:
266,240,191527,1,0,0:0:0:0:
303,308,191902,2,0,B|351:316|351:316|429:293,1,130,2|8,0:0|0:0,0:0:0:0:
510,159,193402,70,0,P|512:126|503:95,2,65,2|0|8,0:0|0:0|0:0,0:0:0:0:
448,207,194527,1,0,0:0:0:0:
383,162,194902,2,0,L|375:131,2,32.5,2|0|0,0:0|0:0|0:0,0:0:0:0:
375,239,195652,1,8,0:0:0:0:
333,305,196027,1,0,0:0:0:0:
282,246,196402,6,0,P|219:230|157:249,1,130,2|8,0:0|0:0,0:0:0:0:
103,303,197527,1,0,0:0:0:0:
38,259,197902,2,0,L|5:263,2,32.5,2|0|0,0:0|0:0|0:0,0:0:0:0:
64,185,198652,1,8,0:0:0:0:
123,135,199027,1,0,0:0:0:0:
188,92,199402,70,0,B|220:80|250:99|250:99|279:115|312:101,2,130,2|8|2,0:0|0:0|0:0,0:0:0:0:
123,135,201277,2,0,L|91:129,2,32.5,0|0|8,0:0|0:0|0:0,0:0:0:0:
268,192,202402,6,0,P|291:251|270:311,1,130,2|8,0:0|0:0,0:0:0:0:
199,346,203527,1,0,0:0:0:0:
129,311,203902,2,0,P|105:251|126:191,1,130,2|8,0:0|0:0,0:0:0:0:
255,103,205402,70,0,L|319:95,2,65,2|0|8,0:0|0:0|0:0,0:0:0:0:
176,105,206527,1,0,0:0:0:0:
107,68,206902,2,0,L|99:36,2,32.5,2|0|0,0:0|0:0|0:0,0:0:0:0:
110,146,207652,1,8,0:0:0:0:
52,198,208027,1,0,0:0:0:0:
18,268,208402,6,0,P|80:270|123:223,1,130,2|8,0:0|0:0,0:0:0:0:
110,146,209527,1,0,0:0:0:0:
169,95,209902,2,0,L|172:62,2,32.5,2|0|0,0:0|0:0|0:0,0:0:0:0:
223,150,210652,2,0,P|255:151|287:145,1,65,8|0,0:0|0:0,0:0:0:0:
364,131,211402,70,0,P|390:188|373:249,2,130,2|8|2,0:0|0:0|0:0,0:0:0:0:
292,99,213277,2,0,L|294:62,2,32.5,0|0|8,0:0|0:0|0:0,0:0:0:0:
217,123,214027,1,0,0:0:0:0:
143,150,214402,6,0,L|152:279,1,130,2|8,0:0|0:0,0:0:0:0:
208,333,215527,1,0,0:0:0:0:
253,269,215902,2,0,P|284:260|315:268,2,65,2|0|8,0:0|0:0|0:0,0:0:0:0:
98,244,217402,70,0,B|91:186|91:186|106:116,1,130,2|8,0:0|0:0,0:0:0:0:
150,51,218527,1,0,0:0:0:0:
220,84,218902,2,0,L|251:76,2,32.5,2|0|0,0:0|0:0|0:0,0:0:0:0:
177,149,219652,2,0,P|177:181|185:212,1,65,8|0,0:0|0:0,0:0:0:0:
228,278,220402,6,0,P|290:286|337:244,2,130,2|0|8,0:0|0:0|0:0,0:0:0:0:
241,122,222652,1,2,0:0:0:0:
257,51,235402,6,0,L|387:57,1,130,2|8,0:0|0:0,0:0:0:0:
427,123,236527,1,0,0:0:0:0:
368,174,236902,2,0,P|365:206|371:238,1,65,2|0,0:0|0:0,0:0:0:0:
414,302,237652,2,0,L|446:296,2,32.5,8|0|0,0:0|0:0|0:0,0:0:0:0:
345,339,238402,6,0,B|312:352|283:333|283:333|252:315|220:327,1,130,2|8,0:0|0:0,0:0:0:0:
145,349,239527,1,0,0:0:0:0:
91,292,239902,1,2,0:0:0:0:
138,143,240652,2,0,L|202:136,1,65,8|0,0:0|0:0,0:0:0:0:
267,92,241402,70,0,P|280:153|241:203,1,130,2|8,0:0|0:0,0:0:0:0:
166,226,242527,1,0,0:0:0:0:
88,235,242902,2,0,P|47:283|57:345,1,130,2|8,0:0|0:0,0:0:0:0:
132,366,244027,1,0,0:0:0:0:
197,324,244402,6,0,L|261:327,2,65,2|0|8,0:0|0:0|0:0,0:0:0:0:
127,288,245527,1,0,0:0:0:0:
114,211,245902,2,0,L|111:178,2,32.5,2|0|0,0:0|0:0|0:0,0:0:0:0:
191,222,246652,1,8,0:0:0:0:
244,164,247027,1,0,0:0:0:0:
315,132,247402,70,0,P|378:127|432:161,1,130,2|8,0:0|0:0,0:0:0:0:
470,229,248527,1,0,0:0:0:0:
428,295,248902,1,2,0:0:0:0:
278,250,249652,2,0,L|272:217,2,32.5,8|0|0,0:0|0:0|0:0,0:0:0:0:
239,318,250402,6,0,P|177:311|144:257,2,130,2|8|2,0:0|0:0|0:0,0:0:0:0:
385,260,252652,1,8,0:0:0:0:
411,186,253027,1,0,0:0:0:0:
359,127,253402,70,0,B|316:109|316:109|232:114,1,130,2|8,0:0|0:0,0:0:0:0:
155,124,254527,1,0,0:0:0:0:
94,172,254902,2,0,P|87:204|89:236,1,65,2|0,0:0|0:0,0:0:0:0:
102,313,255652,2,0,L|70:321,2,32.5,8|0|0,0:0|0:0|0:0,0:0:0:0:
172,277,256402,6,0,P|234:269|287:305,2,130,2|8|2,0:0|0:0|0:0,0:0:0:0:
102,313,258277,1,0,0:0:0:0:
52,252,258652,1,8,0:0:0:0:
95,187,259027,1,0,0:0:0:0:
173,180,259402,70,0,B|203:195|236:180|236:180|267:164|298:181,2,130,2|8|2,0:0|0:0|0:0,0:0:0:0:
68,63,261652,1,8,0:0:0:0:
26,128,262027,1,0,0:0:0:0:
103,135,262402,6,0,P|114:196|73:244,1,130,2|8,0:0|0:0,0:0:0:0:
55,320,263527,1,0,0:0:0:0:
128,346,263902,1,2,0:0:0:0:
233,231,264652,2,0,L|265:233,2,32.5,8|0|0,0:0|0:0|0:0,0:0:0:0:
185,167,265402,70,0,P|183:135|190:104,2,65,2|0|8,0:0|0:0|0:0,0:0:0:0:
233,231,266527,1,0,0:0:0:0:
285,288,266902,2,0,P|287:320|280:351,2,65,2|0|8,0:0|0:0|0:0,0:0:0:0:
265,133,268402,6,0,L|136:116,1,130,2|0,0:0|0:0,0:0:0:0:
36,236,269902,2,0,P|19:296|54:348,1,130,2|0,0:0|0:0,0:0:0:0:
256,192,271402,12,0,277402,0:0:0:0:
