osu file format v14

[General]
AudioFilename: priznaniye.mp3
AudioLeadIn: 0
PreviewTime: 79402
Countdown: 0
SampleSet: Soft
StackLeniency: 0.7
Mode: 0
LetterboxInBreaks: 0
EpilepsyWarning: 1
WidescreenStoryboard: 1

[Editor]
DistanceSpacing: 1.2
BeatDivisor: 4
GridSize: 32
TimelineZoom: 1

[Metadata]
Title:Priznaniye
TitleUnicode:Признание
Artist:Majak
ArtistUnicode:Маяк
Creator:Wafu
Version:Hard
Source:
Tags:Река Reka Ukraine synthwave dreamwave chill nostalgic retrowave retro Mayak russian 80s lo-fi
BeatmapID:722227
BeatmapSetID:325107

[Difficulty]
HPDrainRate:6
CircleSize:4
OverallDifficulty:6
ApproachRate:7
SliderMultiplier:1.5
SliderTickRate:2

[Events]
//Background and Video events
0,0,"city.jpg",0,0
//Break Periods
//Storyboard Layer 0 (Background)
//Storyboard Layer 1 (Fail)
//Storyboard Layer 2 (Pass)
//Storyboard Layer 3 (Foreground)
//Storyboard Sound Samples

[TimingPoints]
1402,750,4,2,1,45,1,0
17152,-100,4,2,2,45,0,0
17339,-100,4,2,1,45,0,0
18652,-100,4,2,2,45,0,0
18839,-100,4,2,1,45,0,0
30652,-100,4,2,2,45,0,0
30839,-100,4,2,1,45,0,0
31402,-100,4,2,1,40,0,0
79402,-100,4,2,1,60,0,1
127402,-100,4,2,1,45,0,0
175402,-100,4,2,1,60,0,1
223402,-100,4,2,1,50,0,0
268402,-100,4,2,1,40,0,0
272902,-100,4,2,1,30,0,0
274402,-100,4,2,1,20,0,0
275902,-100,4,2,1,10,0,0
277402,-100,4,2,1,5,0,0

[Colours]
Combo1 : 202,205,63
Combo2 : 164,164,164
Combo3 : 214,214,214
Combo4 : 223,221,198
Combo5 : 179,181,159
Combo6 : 235,237,135

[HitObjects]
266,317,7402,6,0,L|340:310,1,75,2|0,0:0|0:0,0:0:0:0:
378,286,7964,2,0,P|382:249|367:215,1,75
332,186,8527,1,0,0:0:0:0:
249,221,8902,1,0,0:0:0:0:
249,221,9089,1,0,0:0:0:0:
249,221,9277,1,0,0:0:0:0:
168,260,9652,2,0,L|93:256,1,75,8|0,0:0|0:0,0:0:0:0:
57,229,10214,1,0,0:0:0:0:
32,191,10402,6,0,P|31:154|47:120,1,75,2|0,0:0|0:0,0:0:0:0:
85,96,10964,1,0,0:0:0:0:
85,96,11152,1,8,0:0:0:0:
129,174,11527,1,0,0:0:0:0:
94,257,11902,1,0,0:0:0:0:
94,257,12089,1,0,0:0:0:0:
94,257,12277,1,0,0:0:0:0:
151,325,12652,2,0,P|188:329|224:317,1,75,8|0,0:0|0:0,0:0:0:0:
255,284,13214,1,0,0:0:0:0:
269,241,13402,70,0,L|265:166,1,75,2|0,0:0|0:0,0:0:0:0:
244,125,13964,1,0,0:0:0:0:
220,86,14152,1,8,0:0:0:0:
130,86,14527,1,0,0:0:0:0:
84,163,14902,1,0,0:0:0:0:
84,163,15089,1,0,0:0:0:0:
84,163,15277,2,0,P|80:199|94:234,2,75,0|8|0,0:0|0:0|0:0,0:0:0:0:
170,186,16402,6,0,B|197:174|225:186|225:186|251:198|279:186,2,112.5,2|0|0,0:0|0:0|0:0,0:0:0:0:
105,248,17902,2,0,P|103:303|142:341,2,112.5,0|0|0,0:0|0:0|0:0,0:0:0:0:
173,188,19402,70,0,L|247:183,1,75,2|0,0:0|0:0,0:0:0:0:
289,165,19964,1,0,0:0:0:0:
312,126,20152,1,8,0:0:0:0:
278,42,20527,1,0,0:0:0:0:
367,51,20902,1,0,0:0:0:0:
367,51,21089,1,0,0:0:0:0:
367,51,21277,1,0,0:0:0:0:
439,101,21652,2,0,P|450:137|445:174,1,75,8|0,0:0|0:0,0:0:0:0:
424,214,22214,1,0,0:0:0:0:
389,242,22402,6,0,L|314:232,1,75,2|0,0:0|0:0,0:0:0:0:
278,259,22964,1,0,0:0:0:0:
243,288,23152,2,0,L|168:278,1,75,8|0,0:0|0:0,0:0:0:0:
106,213,23902,1,0,0:0:0:0:
106,213,24089,1,0,0:0:0:0:
106,213,24277,1,0,0:0:0:0:
146,132,24652,2,0,P|183:122|219:129,1,75,8|0,0:0|0:0,0:0:0:0:
256,155,25214,1,0,0:0:0:0:
285,189,25402,70,0,P|321:195|357:186,1,75,2|0,0:0|0:0,0:0:0:0:
393,158,25964,1,0,0:0:0:0:
406,114,26152,1,8,0:0:0:0:
317,98,26527,1,0,0:0:0:0:
231,125,26902,1,0,0:0:0:0:
231,125,27089,1,0,0:0:0:0:
231,125,27277,1,0,0:0:0:0:
189,205,27652,2,0,L|184:279,1,75,8|0,0:0|0:0,0:0:0:0:
118,341,28402,6,0,B|73:329|31:345|31:345|43:324,1,112.5,2|0,0:0|0:0,0:0:0:0:
37,279,29152,1,8,0:0:0:0:
103,218,29527,1,0,0:0:0:0:
178,169,29902,2,0,L|290:174,2,112.5
103,218,31402,70,0,P|99:254|107:291,1,75,2|0,0:0|0:0,0:0:0:0:
78,328,31964,1,0,0:0:0:0:
303,345,32902,2,0,L|377:334,1,75
428,260,33652,1,0,0:0:0:0:
376,186,34027,1,0,0:0:0:0:
293,222,34402,6,0,P|255:226|219:218,1,75,2|0,0:0|0:0,0:0:0:0:
183,244,34964,1,0,0:0:0:0:
110,130,35527,1,0,0:0:0:0:
47,194,35902,2,0,P|47:266|108:305,1,150
194,278,37027,1,0,0:0:0:0:
260,338,37402,70,0,B|288:326|288:326|332:323,1,75,2|0,0:0|0:0,0:0:0:0:
373,341,37964,1,0,0:0:0:0:
479,257,38527,1,0,0:0:0:0:
479,256,38902,2,0,P|485:201|465:149,1,112.5
350,78,40027,1,0,0:0:0:0:
287,142,40402,6,0,L|212:147,1,75,2|0,0:0|0:0,0:0:0:0:
185,110,40964,1,0,0:0:0:0:
81,310,41902,1,0,0:0:0:0:
345,64,43402,70,0,P|382:61|417:72,1,75,2|0,0:0|0:0,0:0:0:0:
445,107,43964,1,0,0:0:0:0:
294,274,44902,1,0,0:0:0:0:
359,337,45277,1,0,0:0:0:0:
438,294,45652,1,0,0:0:0:0:
423,206,46027,1,0,0:0:0:0:
334,193,46402,6,0,L|259:196,1,75,2|0,0:0|0:0,0:0:0:0:
217,214,46964,2,0,P|201:266|225:316,1,112.5
312,339,47902,2,0,L|385:322,1,75
437,249,48652,1,0,0:0:0:0:
398,167,49027,1,0,0:0:0:0:
323,216,49402,70,0,P|286:222|249:214,1,75,2|0,0:0|0:0,0:0:0:0:
213,187,49964,2,0,L|207:300,1,112.5
133,351,50902,2,0,P|78:355|34:322,2,112.5
197,287,52402,6,0,L|271:290,1,75,2|0,0:0|0:0,0:0:0:0:
310,267,52964,2,0,B|326:226|326:226|321:153,1,112.5
268,85,53902,1,0,0:0:0:0:
55,247,55402,70,0,P|50:283|65:317,1,75,2|0,0:0|0:0,0:0:0:0:
149,351,56152,2,0,L|223:339,1,75
307,307,56902,2,0,P|311:234|256:187,1,150,4|0,0:0|0:0,0:0:0:0:
168,171,58027,1,0,0:0:0:0:
122,248,58402,6,0,L|48:241,1,75,2|0,0:0|0:0,0:0:0:0:
13,157,59152,2,0,B|11:119|35:85|35:85|71:102|106:88,1,150,0|4,0:0|0:0,0:0:0:0:
280,42,60652,2,0,L|354:46,1,75
427,99,61402,70,0,P|434:135|424:171,1,75,2|0,0:0|0:0,0:0:0:0:
387,196,61964,2,0,L|274:200,1,112.5
222,274,62902,2,0,B|195:286|167:274|167:274|141:262|113:274,2,112.5,4|0|0,0:0|0:0|0:0,0:0:0:0:
275,200,64402,6,0,L|349:196,1,75,2|0,0:0|0:0,0:0:0:0:
393,183,64964,2,0,P|404:129|378:81,1,112.5
292,50,65902,1,4,0:0:0:0:
54,212,67402,70,0,P|55:249|73:281,1,75,2|0,0:0|0:0,0:0:0:0:
110,306,67964,1,0,0:0:0:0:
155,305,68152,2,0,B|191:285|227:306|227:306|261:325|299:305,1,150,0|4,0:0|0:0,0:0:0:0:
362,240,69277,1,0,0:0:0:0:
315,162,69652,2,0,L|320:87,1,75
395,39,70402,6,0,P|433:37|466:53,1,75,2|0,0:0|0:0,0:0:0:0:
487,93,70964,2,0,L|492:205,1,112.5
457,288,71902,2,0,P|388:307|330:263,1,150,4|0,0:0|0:0,0:0:0:0:
406,213,73027,1,0,0:0:0:0:
406,213,73402,70,0,L|404:138,1,75,2|0,0:0|0:0,0:0:0:0:
378,101,73964,2,0,B|336:90|336:90|267:97,1,112.5
203,160,74902,2,0,P|149:169|104:137,2,112.5,4|0|0,0:0|0:0|0:0,0:0:0:0:
265,94,76402,5,0,0:0:0:0:
394,286,77855,2,0,L|347:294,1,46.875,8|0,0:0|0:0,0:0:0:0:
309,271,78277,2,0,L|272:279,1,37.5
207,342,78839,1,0,0:0:0:0:
207,342,79027,1,0,0:0:0:0:
136,286,79402,6,0,P|111:215|119:141,1,150,2|8,0:0|0:0,0:0:0:0:
189,87,80527,1,0,0:0:0:0:
268,126,80902,2,0,P|306:129|341:117,1,75,2|0,0:0|0:0,0:0:0:0:
409,57,81652,1,8,0:0:0:0:
409,57,81839,1,0,0:0:0:0:
409,57,82027,1,0,0:0:0:0:
452,135,82402,6,0,L|445:209,1,75,2|0,0:0|0:0,0:0:0:0:
424,249,82964,1,0,0:0:0:0:
391,279,83152,2,0,P|354:287|318:277,1,75,8|0,0:0|0:0,0:0:0:0:
249,220,83902,2,0,B|230:187|243:148|243:148|256:110|236:76,1,150,2|8,0:0|0:0,0:0:0:0:
61,118,85402,70,0,P|52:155|59:191,1,75,2|0,0:0|0:0,0:0:0:0:
91,223,85964,1,0,0:0:0:0:
134,234,86152,2,0,L|208:227,1,75,8|0,0:0|0:0,0:0:0:0:
276,287,86902,2,0,L|271:324,2,37.5,2|0|0,0:0|0:0|0:0,0:0:0:0:
342,226,87652,1,8,0:0:0:0:
342,226,87839,1,0,0:0:0:0:
342,226,88027,1,0,0:0:0:0:
403,160,88402,6,0,P|408:123|397:87,1,75,2|0,0:0|0:0,0:0:0:0:
363,57,88964,1,0,0:0:0:0:
319,67,89152,2,0,L|244:64,1,75,8|0,0:0|0:0,0:0:0:0:
161,100,89902,1,2,0:0:0:0:
161,100,90089,1,0,0:0:0:0:
161,100,90277,1,0,0:0:0:0:
218,169,90652,1,8,0:0:0:0:
188,253,91027,1,0,0:0:0:0:
99,234,91402,70,0,P|113:306|176:342,1,150,2|8,0:0|0:0,0:0:0:0:
255,298,92527,1,0,0:0:0:0:
329,349,92902,2,0,L|477:329,1,150,2|8,0:0|0:0,0:0:0:0:
399,167,94402,6,0,L|324:161,1,75,2|0,0:0|0:0,0:0:0:0:
282,144,94964,1,0,0:0:0:0:
275,99,95152,1,8,0:0:0:0:
363,84,95527,1,0,0:0:0:0:
398,166,95902,2,0,P|396:240|344:291,1,150,2|8,0:0|0:0,0:0:0:0:
166,319,97402,70,0,L|92:306,1,75,2|0,0:0|0:0,0:0:0:0:
53,282,97964,1,0,0:0:0:0:
27,244,98152,2,0,P|25:207|38:172,1,75,8|0,0:0|0:0,0:0:0:0:
117,128,98902,1,2,0:0:0:0:
117,128,99089,1,0,0:0:0:0:
117,128,99277,1,0,0:0:0:0:
203,101,99652,2,0,L|240:97,2,37.5,8|0|0,0:0|0:0|0:0,0:0:0:0:
117,128,100402,6,0,B|111:162|111:162|119:201,1,75,2|0,0:0|0:0,0:0:0:0:
133,244,100964,1,0,0:0:0:0:
152,284,101152,2,0,P|188:288|223:275,1,75,8|0,0:0|0:0,0:0:0:0:
289,214,101902,1,2,0:0:0:0:
289,214,102089,1,0,0:0:0:0:
289,214,102277,1,0,0:0:0:0:
352,149,102652,1,8,0:0:0:0:
372,236,103027,1,0,0:0:0:0:
309,301,103402,70,0,B|276:321|238:302|238:302|202:283|165:300,1,150,2|8,0:0|0:0,0:0:0:0:
87,348,104527,1,0,0:0:0:0:
37,271,104902,2,0,P|31:235|37:198,1,75,2|0,0:0|0:0,0:0:0:0:
56,157,105464,1,0,0:0:0:0:
88,125,105652,1,8,0:0:0:0:
170,159,106027,1,0,0:0:0:0:
233,94,106402,6,0,P|261:161|229:226,1,150,2|8,0:0|0:0,0:0:0:0:
156,280,107527,1,0,0:0:0:0:
220,342,107902,2,0,B|271:351|271:351|367:331,1,150,2|8,0:0|0:0,0:0:0:0:
449,171,109402,70,0,L|453:96,1,75,2|0,0:0|0:0,0:0:0:0:
425,60,109964,1,0,0:0:0:0:
379,69,110152,2,0,P|342:74|305:71,1,75,8|0,0:0|0:0,0:0:0:0:
219,43,110902,1,2,0:0:0:0:
219,43,111089,1,0,0:0:0:0:
219,43,111277,1,0,0:0:0:0:
158,109,111652,2,0,L|122:99,2,37.5,8|0|0,0:0|0:0|0:0,0:0:0:0:
224,171,112402,6,0,P|261:168|298:173,1,75,2|0,0:0|0:0,0:0:0:0:
359,239,113152,2,0,P|396:244|433:241,1,75,8|0,0:0|0:0,0:0:0:0:
480,164,113902,1,2,0:0:0:0:
480,164,114089,1,0,0:0:0:0:
480,164,114277,1,0,0:0:0:0:
418,97,114652,1,8,0:0:0:0:
330,119,115027,1,0,0:0:0:0:
258,64,115402,70,0,P|184:52|113:75,1,150,2|8,0:0|0:0,0:0:0:0:
51,140,116527,1,0,0:0:0:0:
111,206,116902,2,0,P|115:242|105:278,1,75,2|0,0:0|0:0,0:0:0:0:
75,311,117464,1,0,0:0:0:0:
31,322,117652,1,8,0:0:0:0:
24,232,118026,1,0,0:0:0:0:
111,206,118402,6,0,L|260:200,1,150,2|8,0:0|0:0,0:0:0:0:
347,177,119527,1,0,0:0:0:0:
313,93,119902,2,0,P|276:85|239:90,1,75,2|0,0:0|0:0,0:0:0:0:
183,161,120652,1,8,0:0:0:0:
22,79,121402,70,0,L|29:153,1,75,2|0,0:0|0:0,0:0:0:0:
37,197,121964,1,0,0:0:0:0:
61,235,122152,2,0,P|97:239|134:231,1,75,8|0,0:0|0:0,0:0:0:0:
197,167,122902,1,2,0:0:0:0:
197,167,123089,1,0,0:0:0:0:
197,167,123277,1,0,0:0:0:0:
280,199,123652,2,0,L|317:198,2,37.5,8|0|0,0:0|0:0|0:0,0:0:0:0:
208,255,124402,6,0,P|206:292|218:327,1,75,2|0,0:0|0:0,0:0:0:0:
257,351,124964,1,0,0:0:0:0:
301,342,125152,1,8,0:0:0:0:
365,279,125527,1,0,0:0:0:0:
389,192,125902,2,0,L|437:183,2,37.5,2|0|0,0:0|0:0|0:0,0:0:0:0:
321,132,126652,1,8,0:0:0:0:
321,132,126839,1,0,0:0:0:0:
321,132,127027,1,0,0:0:0:0:
256,193,127402,54,0,P|219:203|182:198,1,75,2|0,0:0|0:0,0:0:0:0:
141,179,127964,1,0,0:0:0:0:
114,142,128152,2,0,L|123:291,2,150,8|2|8,0:0|0:0|0:0,0:0:0:0:
167,69,130027,1,0,0:0:0:0:
237,125,130402,70,0,B|267:127|267:127|310:114,1,75,2|0,0:0|0:0,0:0:0:0:
353,101,130964,1,0,0:0:0:0:
395,85,131152,2,0,P|427:150|406:220,1,150,8|2,0:0|0:0,0:0:0:0:
337,277,132277,1,0,0:0:0:0:
252,307,132652,2,0,L|177:301,1,75,8|0,0:0|0:0,0:0:0:0:
105,244,133402,6,0,P|99:208|109:172,1,75,2|0,0:0|0:0,0:0:0:0:
142,141,133964,1,0,0:0:0:0:
184,126,134152,2,0,L|258:131,1,75,8|0,0:0|0:0,0:0:0:0:
349,134,134902,1,2,0:0:0:0:
419,77,135277,1,0,0:0:0:0:
419,77,135464,1,0,0:0:0:0:
419,77,135652,2,0,P|435:110|437:147,1,75,8|0,0:0|0:0,0:0:0:0:
401,230,136402,70,0,L|326:238,1,75,2|0,0:0|0:0,0:0:0:0:
283,225,136964,1,0,0:0:0:0:
246,199,137152,2,0,P|235:163|238:126,1,75,8|0,0:0|0:0,0:0:0:0:
273,42,137902,2,0,L|198:37,1,75,2|0,0:0|0:0,0:0:0:0:
155,50,138464,1,0,0:0:0:0:
125,84,138652,1,8,0:0:0:0:
156,168,139027,1,0,0:0:0:0:
241,142,139402,6,0,P|278:135|315:139,1,75,2|0,0:0|0:0,0:0:0:0:
355,158,139964,1,0,0:0:0:0:
387,189,140152,2,0,L|402:39,1,150,8|2,0:0|0:0,0:0:0:0:
315,62,141277,1,0,0:0:0:0:
315,62,141464,1,0,0:0:0:0:
314,62,141652,2,0,P|278:70|241:66,1,75,8|0,0:0|0:0,0:0:0:0:
152,55,142402,70,0,L|154:129,1,75,2|0,0:0|0:0,0:0:0:0:
172,171,142964,1,0,0:0:0:0:
200,205,143152,2,0,P|272:217|337:183,1,150,8|2,0:0|0:0,0:0:0:0:
369,99,144277,1,0,0:0:0:0:
369,99,144464,1,0,0:0:0:0:
369,99,144652,1,8,0:0:0:0:
425,169,145027,1,0,0:0:0:0:
385,249,145402,6,0,L|310:257,1,75,2|0,0:0|0:0,0:0:0:0:
267,243,145964,1,0,0:0:0:0:
227,218,146152,2,0,P|218:182|224:146,1,75,8|0,0:0|0:0,0:0:0:0:
272,69,146902,1,2,0:0:0:0:
182,56,147277,1,0,0:0:0:0:
182,56,147464,1,0,0:0:0:0:
182,56,147652,2,0,L|107:58,1,75,8|0,0:0|0:0,0:0:0:0:
75,142,148402,70,0,L|149:139,1,75,2|0,0:0|0:0,0:0:0:0:
191,156,148964,1,0,0:0:0:0:
230,177,149152,2,0,P|239:213|229:249,1,75,8|0,0:0|0:0,0:0:0:0:
170,316,149902,2,0,L|95:311,1,75,2|0,0:0|0:0,0:0:0:0:
60,282,150464,1,0,0:0:0:0:
68,237,150652,2,0,P|76:200|72:163,1,75,8|0,0:0|0:0,0:0:0:0:
42,79,151402,6,0,B|78:61|114:80|114:80|152:99|185:79,1,150,2|8,0:0|0:0,0:0:0:0:
260,28,152527,1,0,0:0:0:0:
333,80,152902,2,0,L|407:72,1,75,2|0,0:0|0:0,0:0:0:0:
449,89,153464,1,0,0:0:0:0:
480,119,153652,2,0,P|489:156|482:192,1,75,8|0,0:0|0:0,0:0:0:0:
437,270,154402,70,0,L|362:267,1,75,2|0,0:0|0:0,0:0:0:0:
322,246,154964,1,0,0:0:0:0:
293,211,155152,2,0,B|264:154|291:98|291:98|268:120,1,150,8|2,0:0|0:0,0:0:0:0:
194,173,156277,1,0,0:0:0:0:
129,111,156652,2,0,P|93:102|57:109,1,75,8|0,0:0|0:0,0:0:0:0:
21,192,157402,6,0,L|26:266,1,75,2|0,0:0|0:0,0:0:0:0:
46,307,157964,1,0,0:0:0:0:
76,339,158152,2,0,P|112:348|148:341,1,75,8|0,0:0|0:0,0:0:0:0:
210,275,158902,1,2,0:0:0:0:
287,321,159277,1,0,0:0:0:0:
287,321,159464,1,0,0:0:0:0:
287,321,159652,2,0,L|361:309,1,75,8|0,0:0|0:0,0:0:0:0:
435,259,160402,70,0,P|438:221|428:185,1,75,2|0,0:0|0:0,0:0:0:0:
399,151,160964,1,0,0:0:0:0:
366,119,161152,2,0,P|356:82|359:45,1,75,8|0,0:0|0:0,0:0:0:0:
278,85,161902,2,0,B|243:102|207:79|207:79|172:57|135:72,1,150,2|8,0:0|0:0,0:0:0:0:
73,138,163027,1,0,0:0:0:0:
159,161,163402,6,0,L|143:310,1,150,2|8,0:0|0:0,0:0:0:0:
68,360,164527,1,0,0:0:0:0:
13,288,164902,2,0,P|5:251|13:214,1,75,2|0,0:0|0:0,0:0:0:0:
36,176,165464,1,0,0:0:0:0:
72,150,165652,2,0,L|146:139,1,75,8|0,0:0|0:0,0:0:0:0:
228,176,166402,70,0,L|302:165,1,75,2|0,0:0|0:0,0:0:0:0:
347,167,166964,1,0,0:0:0:0:
388,185,167152,2,0,P|401:219|400:257,1,75,8|0,0:0|0:0,0:0:0:0:
342,325,167902,2,0,B|288:337|288:337|195:314,1,150,2|8,0:0|0:0,0:0:0:0:
119,267,169027,1,0,0:0:0:0:
119,267,169402,6,0,L|114:192,1,75,2|0,0:0|0:0,0:0:0:0:
119,147,169964,1,0,0:0:0:0:
147,112,170152,2,0,P|182:101|219:104,1,75,8|0,0:0|0:0,0:0:0:0:
292,157,170902,1,2,0:0:0:0:
375,189,171277,1,0,0:0:0:0:
375,189,171464,1,0,0:0:0:0:
375,189,171652,2,0,L|449:179,1,75,8|0,0:0|0:0,0:0:0:0:
494,101,172402,69,0,0:0:0:0:
205,296,173855,2,0,L|201:249,1,46.875,8|0,0:0|0:0,0:0:0:0:
162,226,174277,2,0,L|159:188,1,37.5
203,109,174839,1,0,0:0:0:0:
203,109,175027,1,0,0:0:0:0:
256,183,175402,22,0,P|329:192|391:153,1,150,2|8,0:0|0:0,0:0:0:0:
433,73,176527,1,0,0:0:0:0:
486,145,176902,2,0,L|481:219,1,75,2|0,0:0|0:0,0:0:0:0:
424,289,177652,1,8,0:0:0:0:
424,289,177839,1,0,0:0:0:0:
424,289,178027,1,0,0:0:0:0:
345,333,178402,6,0,P|308:339|272:329,1,75,2|0,0:0|0:0,0:0:0:0:
235,304,178964,1,0,0:0:0:0:
200,274,179152,2,0,P|164:264|127:270,1,75,8|0,0:0|0:0,0:0:0:0:
45,307,179902,2,0,L|35:157,1,150,2|8,0:0|0:0,0:0:0:0:
191,66,181402,70,0,P|227:61|263:73,1,75,2|0,0:0|0:0,0:0:0:0:
295,104,181964,1,0,0:0:0:0:
323,138,182152,2,0,P|358:149|395:144,1,75,8|0,0:0|0:0,0:0:0:0:
461,83,182902,2,0,L|466:45,2,37.5,2|0|0,0:0|0:0|0:0,0:0:0:0:
486,169,183652,1,8,0:0:0:0:
486,169,183839,1,0,0:0:0:0:
486,169,184027,1,0,0:0:0:0:
432,241,184402,6,0,L|357:246,1,75,2|0,0:0|0:0,0:0:0:0:
312,238,184964,1,0,0:0:0:0:
276,210,185152,2,0,P|267:173|272:136,1,75,8|0,0:0|0:0,0:0:0:0:
324,63,185902,1,2,0:0:0:0:
324,63,186089,1,0,0:0:0:0:
324,63,186277,1,0,0:0:0:0:
389,124,186652,1,8,0:0:0:0:
368,211,187027,1,0,0:0:0:0:
276,210,187402,70,0,B|243:191|204:204|204:204|168:218|132:197,1,150,2|8,0:0|0:0,0:0:0:0:
89,117,188527,1,0,0:0:0:0:
41,193,188902,2,0,L|45:267,1,75,2|0,0:0|0:0,0:0:0:0:
67,307,189464,1,0,0:0:0:0:
101,335,189652,2,0,B|129:337|129:337|174:326,1,75,8|0,0:0|0:0,0:0:0:0:
249,275,190402,6,0,L|325:277,1,75,2|0,0:0|0:0,0:0:0:0:
367,265,190964,1,0,0:0:0:0:
398,233,191152,2,0,P|404:196|393:160,1,75,8|0,0:0|0:0,0:0:0:0:
324,103,191902,2,0,B|290:123|249:118|249:118|226:98|226:98|184:93,1,150,2|8,0:0|0:0,0:0:0:0:
9,134,193402,70,0,L|12:208,1,75,2|0,0:0|0:0,0:0:0:0:
32,249,193964,1,0,0:0:0:0:
64,280,194152,2,0,P|101:282|137:272,1,75,8|0,0:0|0:0,0:0:0:0:
205,213,194902,1,2,0:0:0:0:
205,213,195089,1,0,0:0:0:0:
205,213,195277,1,0,0:0:0:0:
269,275,195652,2,0,L|306:269,2,37.5,8|0|0,0:0|0:0|0:0,0:0:0:0:
205,213,196402,6,0,P|195:176|201:139,1,75,2|0,0:0|0:0,0:0:0:0:
223,100,196964,1,0,0:0:0:0:
263,80,197152,2,0,L|337:77,1,75,8|0,0:0|0:0,0:0:0:0:
412,127,197902,1,2,0:0:0:0:
412,127,198089,1,0,0:0:0:0:
412,127,198277,1,0,0:0:0:0:
345,187,198652,1,8,0:0:0:0:
426,226,199027,1,0,0:0:0:0:
369,296,199402,70,0,B|335:316|298:296|298:296|265:278|225:295,1,150,2|8,0:0|0:0,0:0:0:0:
151,346,200527,1,0,0:0:0:0:
81,287,200902,2,0,P|70:252|77:215,1,75,2|0,0:0|0:0,0:0:0:0:
101,178,201464,1,0,0:0:0:0:
143,163,201652,1,8,0:0:0:0:
166,249,202027,1,0,0:0:0:0:
230,312,202402,6,0,B|283:324|283:324|377:304,1,150,2|8,0:0|0:0,0:0:0:0:
431,232,203527,1,0,0:0:0:0:
464,148,203902,2,0,P|471:111|460:76,1,75,2|0,0:0|0:0,0:0:0:0:
378,39,204652,1,8,0:0:0:0:
267,181,205402,70,0,L|192:184,1,75,2|0,0:0|0:0,0:0:0:0:
149,170,205964,1,0,0:0:0:0:
115,139,206152,2,0,P|110:102|121:67,1,75,8|0,0:0|0:0,0:0:0:0:
206,35,206902,1,2,0:0:0:0:
206,35,207089,1,0,0:0:0:0:
206,35,207277,1,0,0:0:0:0:
281,84,207652,2,0,L|318:79,2,37.5,8|0|0,0:0|0:0|0:0,0:0:0:0:
223,153,208402,6,0,P|215:189|227:224,1,75,2|0,0:0|0:0,0:0:0:0:
312,256,209152,2,0,P|319:219|307:184,1,75,8|0,0:0|0:0,0:0:0:0:
223,153,209902,1,2,0:0:0:0:
223,153,210089,1,0,0:0:0:0:
223,153,210277,1,0,0:0:0:0:
261,71,210652,1,8,0:0:0:0:
350,65,211027,1,0,0:0:0:0:
409,132,211402,70,0,P|414:168|404:204,1,75,2|0,0:0|0:0,0:0:0:0:
377,240,211964,1,0,0:0:0:0:
337,261,212152,2,0,L|262:259,2,75,8|0|2,0:0|0:0|0:0,0:0:0:0:
388,334,213277,1,0,0:0:0:0:
388,334,213464,1,0,0:0:0:0:
388,334,213652,1,8,0:0:0:0:
466,289,214027,1,0,0:0:0:0:
398,229,214402,6,0,P|383:156|410:87,1,150,2|8,0:0|0:0,0:0:0:0:
483,33,215527,1,0,0:0:0:0:
410,87,215902,2,0,P|373:87|338:75,1,75,2|0,0:0|0:0,0:0:0:0:
263,25,216652,1,8,0:0:0:0:
97,94,217402,70,0,L|101:168,1,75,2|0,0:0|0:0,0:0:0:0:
126,206,217964,1,0,0:0:0:0:
163,231,218152,2,0,P|200:232|235:219,1,75,8|0,0:0|0:0,0:0:0:0:
278,140,218902,1,2,0:0:0:0:
278,140,219089,1,0,0:0:0:0:
278,140,219277,1,0,0:0:0:0:
338,207,219652,2,0,L|373:196,2,37.5,8|0|0,0:0|0:0|0:0,0:0:0:0:
255,244,220402,6,0,P|245:314|302:357,1,150,2|0,0:0|0:0,0:0:0:0:
480,327,221902,2,0,L|471:290,1,37.5,8|0,0:0|0:0,0:0:0:0:
430,270,222277,2,0,P|412:277|393:278,1,37.5
349,272,222652,1,2,0:0:0:0:
309,251,222839,1,0,0:0:0:0:
265,238,223027,2,0,P|246:239|228:244,1,37.5
186,260,223402,6,0,B|174:205|174:205|186:149,1,112.5,6|0,0:0|0:0,0:0:0:0:
208,110,224152,2,0,P|209:71|196:36,1,75,8|0,0:3|0:3,0:3:0:0:
287,37,224902,2,0,L|324:39,1,37.5,2|0,0:0|0:0,0:0:0:0:
362,63,225277,1,0,0:0:0:0:
400,85,225464,1,0,0:0:0:0:
441,102,225652,2,0,L|478:99,2,37.5,8|0|0,0:0|0:0|0:0,0:0:0:0:
409,134,226214,1,0,0:0:0:0:
374,162,226402,6,0,P|367:198|378:234,1,75,2|0,0:0|0:0,0:0:0:0:
404,271,226964,1,0,0:0:0:0:
435,303,227152,2,0,L|509:290,1,75,8|0,0:0|0:0,0:0:0:0:
504,200,227902,1,2,0:0:0:0:
503,199,228089,2,0,P|491:145|491:89,1,112.5,0|8,0:0|0:0,0:0:0:0:
499,44,228839,1,0,0:0:0:0:
462,18,229027,2,0,L|424:20,1,37.5
385,43,229402,70,0,B|377:72|377:72|379:116,1,75,2|0,0:0|0:0,0:0:0:0:
387,161,229964,1,0,0:0:0:0:
408,200,230152,2,0,L|333:212,1,75,8|0,0:0|0:0,0:0:0:0:
243,210,230902,1,2,0:0:0:0:
243,210,231089,1,0,0:0:0:0:
243,210,231277,2,0,L|240:172,1,37.5
229,128,231652,1,8,0:0:0:0:
189,108,231839,1,0,0:0:0:0:
144,109,232027,1,0,0:0:0:0:
106,132,232214,1,0,0:0:0:0:
84,171,232402,6,0,L|90:245,1,75,2|0,0:0|0:0,0:0:0:0:
109,286,232964,1,0,0:0:0:0:
147,309,233152,2,0,P|184:311|218:298,1,75,8|0,0:0|0:0,0:0:0:0:
249,217,233902,1,2,0:0:0:0:
249,217,234089,1,0,0:0:0:0:
249,217,234277,1,0,0:0:0:0:
309,283,234652,1,8,0:0:0:0:
259,357,235027,1,0,0:0:0:0:
197,291,235402,70,0,P|144:273|88:281,1,112.5,2|0,0:0|0:0,0:0:0:0:
46,296,236152,2,0,P|47:259|39:223,1,75,8|0,0:0|0:0,0:0:0:0:
63,136,236902,2,0,L|99:128,1,37.5,2|0,0:0|0:0,0:0:0:0:
133,158,237277,1,0,0:0:0:0:
167,187,237464,1,0,0:0:0:0:
204,211,237652,2,0,L|240:203,2,37.5,8|0|0,0:0|0:0|0:0,0:0:0:0:
194,254,238214,1,0,0:0:0:0:
170,292,238402,6,0,P|134:303|97:300,1,75,2|0,0:0|0:0,0:0:0:0:
58,278,238964,1,0,0:0:0:0:
34,239,239152,2,0,L|33:164,1,75,8|0,0:0|0:0,0:0:0:0:
86,91,239902,1,2,0:0:0:0:
86,91,240089,2,0,P|139:106|194:97,1,112.5,0|8,0:0|0:0,0:0:0:0:
237,81,240839,1,0,0:0:0:0:
278,63,241027,2,0,L|315:67,1,37.5
355,87,241402,70,0,P|362:123|358:160,1,75,2|0,0:0|0:0,0:0:0:0:
332,197,241964,1,0,0:0:0:0:
292,218,242152,2,0,L|217:213,1,75,8|0,0:0|0:0,0:0:0:0:
135,174,242902,2,0,L|130:136,2,37.5,2|0|0,0:0|0:0|0:0,0:0:0:0:
108,211,243464,1,0,0:0:0:0:
92,252,243651,1,8,0:0:0:0:
101,295,243839,1,0,0:0:0:0:
133,326,244026,1,0,0:0:0:0:
177,333,244214,1,0,0:0:0:0:
218,315,244402,6,0,L|292:322,1,75,2|0,0:0|0:0,0:0:0:0:
336,312,244964,1,0,0:0:0:0:
372,287,245152,2,0,P|378:250|369:213,1,75,8|0,0:0|0:0,0:0:0:0:
308,147,245902,1,2,0:0:0:0:
308,147,246089,1,0,0:0:0:0:
308,147,246277,1,0,0:0:0:0:
243,209,246652,1,8,0:0:0:0:
154,194,247027,1,0,0:0:0:0:
154,194,247402,70,0,B|142:242|142:242|151:304,1,112.5,2|0,0:0|0:0,0:0:0:0:
186,332,248152,2,0,L|260:324,1,75,8|0,0:0|0:0,0:0:0:0:
328,264,248902,2,0,L|330:226,1,37.5,2|0,0:0|0:0,0:0:0:0:
348,184,249277,1,0,0:0:0:0:
383,157,249464,1,0,0:0:0:0:
427,147,249652,2,0,L|464:149,2,37.5,8|0|0,0:0|0:0|0:0,0:0:0:0:
397,113,250214,1,0,0:0:0:0:
366,79,250402,6,0,P|329:72|293:80,1,75,2|0,0:0|0:0,0:0:0:0:
258,108,250964,1,0,0:0:0:0:
229,143,251152,2,0,P|192:151|156:144,1,75,8|0,0:0|0:0,0:0:0:0:
75,104,251902,1,2,0:0:0:0:
74,104,252089,2,0,P|66:158|92:207,1,112.5,0|8,0:0|0:0,0:0:0:0:
131,231,252839,1,0,0:0:0:0:
175,237,253027,2,0,L|212:231,1,37.5
254,240,253402,70,0,P|265:276|258:313,1,75,2|0,0:0|0:0,0:0:0:0:
230,349,253964,1,0,0:0:0:0:
186,361,254152,2,0,L|111:352,1,75,8|0,0:0|0:0,0:0:0:0:
51,285,254902,2,0,L|48:247,1,37.5,2|0,0:0|0:0,0:0:0:0:
65,205,255277,1,0,0:0:0:0:
83,163,255464,1,0,0:0:0:0:
58,124,255652,2,0,L|55:86,2,37.5,8|0|0,0:0|0:0|0:0,0:0:0:0:
83,163,256214,1,0,0:0:0:0:
112,196,256402,6,0,P|149:196|183:180,1,75,2|0,0:0|0:0,0:0:0:0:
215,148,256964,1,0,0:0:0:0:
243,113,257152,2,0,P|276:97|314:97,1,75,8|0,0:0|0:0,0:0:0:0:
382,156,257902,1,2,0:0:0:0:
382,156,258089,1,0,0:0:0:0:
382,156,258277,1,0,0:0:0:0:
419,238,258652,1,8,0:0:0:0:
474,167,259027,1,0,0:0:0:0:
437,84,259402,70,0,P|386:62|331:73,1,112.5,2|0,0:0|0:0,0:0:0:0:
296,101,260152,2,0,L|221:94,1,75,8|0,0:0|0:0,0:0:0:0:
153,153,260902,2,0,P|148:171|149:189,1,37.5,2|0,0:0|0:0,0:0:0:0:
159,233,261277,1,0,0:0:0:0:
184,270,261464,1,0,0:0:0:0:
200,311,261652,2,0,P|200:329|196:347,2,37.5,8|0|0,0:0|0:0|0:0,0:0:0:0:
184,270,262214,1,0,0:0:0:0:
159,233,262402,6,0,L|84:229,1,75,2|0,0:0|0:0,0:0:0:0:
47,204,262964,1,0,0:0:0:0:
27,161,263152,2,0,P|23:125|35:89,1,75,8|0,0:0|0:0,0:0:0:0:
117,52,263902,1,2,0:0:0:0:
176,119,264277,2,0,L|234:114,1,37.5
257,118,264652,1,8,0:0:0:0:
292,147,264839,1,0,0:0:0:0:
306,189,265027,1,0,0:0:0:0:
295,232,265214,1,0,0:0:0:0:
263,262,265402,70,0,L|188:261,1,75,2|0,0:0|0:0,0:0:0:0:
147,243,265964,1,0,0:0:0:0:
117,209,266152,2,0,P|111:172|120:135,1,75,8|0,0:0|0:0,0:0:0:0:
195,85,266902,1,2,0:0:0:0:
195,85,267089,1,0,0:0:0:0:
195,85,267277,1,0,0:0:0:0:
278,118,267652,2,0,L|315:111,2,37.5,8|0|0,0:0|0:0|0:0,0:0:0:0:
208,174,268402,6,0,P|203:246|260:291,1,150,2|0,0:0|0:0,0:0:0:0:
430,229,269902,2,0,P|434:157|377:112,1,150,2|0,0:0|0:0,0:0:0:0:
256,192,271402,12,0,277402,0:0:0:0:
