osu file format v12

[General]
AudioFilename: yukiiro.mp3
AudioLeadIn: 0
PreviewTime: 87873
Countdown: 0
SampleSet: Soft
StackLeniency: 0.7
Mode: 0
LetterboxInBreaks: 0
WidescreenStoryboard: 0

[Editor]
DistanceSpacing: 0.8
BeatDivisor: 4
GridSize: 4

[Metadata]
Title:Rokka no Uta (English Ver.)
TitleUnicode:六花のうた (English Ver.)
Artist:Maisaki Nami
ArtistUnicode:舞崎なみ
Creator:-Gamu-
Version:Normal
Source:ゆきいろ 〜空に六花の住む町〜
Tags:Yukiiro Sora ni Rokka no Sumu Machi ねこねこソフト Nekoneko software opening eroge hentai game visual novel winter I've
BeatmapID:331455
BeatmapSetID:130443

[Difficulty]
HPDrainRate:4
CircleSize:3
OverallDifficulty:4
ApproachRate:4
SliderMultiplier:1.22
SliderTickRate:2

[Events]
//Background and Video events
0,0,"winter.png",0,0
Video,0,"yukiiro.avi"
//Break Periods
//Storyboard Layer 0 (Background)
//Storyboard Layer 1 (Fail)
//Storyboard Layer 2 (Pass)
//Storyboard Layer 3 (Foreground)
//Storyboard Sound Samples
//Background Colour Transformations
3,100,163,162,255

[TimingPoints]
3132,517.241379310345,4,2,1,40,1,0
16580,-100,4,2,1,50,0,0
16838,-100,4,2,1,55,0,0
17097,-100,4,2,1,60,0,0
17356,-100,4,2,1,50,0,0
17873,-100,4,2,1,70,0,0
18261,-100,4,2,1,50,0,0
18649,-100,4,2,1,70,0,0
19037,-100,4,2,1,50,0,0
19425,-100,4,2,1,70,0,0
19683,-100,4,2,1,50,0,0
24338,-100,4,2,2,50,0,0
24856,-100,4,2,3,50,0,0
25114,-100,4,2,1,50,0,0
30545,-100,4,2,2,50,0,0
30804,-100,4,2,1,50,0,0
34425,-100,4,2,2,50,0,0
36235,-100,4,2,1,50,0,0
40890,-100,4,2,2,50,0,0
41407,-100,4,2,3,50,0,0
41666,-100,4,2,1,50,0,0
45028,-100,4,2,2,50,0,0
45287,-100,4,2,1,50,0,0
46063,-100,4,2,2,50,0,0
46321,-100,4,2,1,50,0,0
57442,-100,4,2,2,50,0,0
57959,-100,4,2,3,50,0,0
58218,-100,4,2,1,50,0,0
61580,-100,4,2,2,50,0,0
61838,-100,4,2,1,50,0,0
65718,-100,4,2,2,50,0,0
65976,-100,4,2,1,50,0,0
66752,-100,4,2,2,50,0,0
67011,-100,4,2,1,50,0,0
85890,-100,4,2,1,10,0,0
87959,-100,4,2,1,60,0,1
94683,-100,4,2,2,60,0,1
94942,-100,4,2,1,60,0,1
105028,-100,4,2,2,60,0,1
105287,-100,4,2,1,60,0,1
109166,-100,4,2,2,60,0,1
109425,-100,4,2,1,60,0,1
113304,-100,4,2,2,60,0,1
113563,-100,4,2,1,60,0,1
115890,-100,4,2,3,60,0,1
116149,-100,4,2,1,60,0,1
121580,-100,4,2,2,60,0,1
125200,-100,4,2,1,30,0,0

[Colours]
Combo1 : 255,0,0
Combo2 : 0,128,255
Combo3 : 255,179,255
Combo4 : 166,255,255

[HitObjects]
328,192,3131,1,2,0:0:0:0:
256,260,3649,1,0,0:0:0:0:
184,192,4166,2,0,P|164:136|176:72,2,122,2|0|2,0:0|0:0|0:0,0:0:0:0:
256,128,5718,1,0,0:0:0:0:
332,192,6235,2,0,L|464:168,1,122,2|0,0:0|0:0,0:0:0:0:
476,268,7269,6,0,L|355:289,1,122,2|0,0:0|0:0,0:0:0:0:
260,264,8304,2,0,P|212:300|192:356,1,122,2|0,0:0|0:0,0:0:0:0:
100,328,9338,2,0,L|92:144,1,183,2|2,0:0|0:0,0:0:0:0:
124,52,10632,2,0,L|188:56,2,61,0|2|0,0:0|0:0|0:0,0:0:0:0:
160,192,11925,5,0,0:0:0:0:
208,276,12442,1,2,0:0:0:0:
256,192,12959,2,0,P|316:188|372:216,1,122,0|2,0:0|0:0,0:0:0:0:
392,308,13994,1,0,0:0:0:0:
480,264,14511,2,0,L|504:144,1,122,2|2,0:0|0:0,0:0:0:0:
432,76,15545,6,0,P|368:60|408:272,1,427,2|2,0:0|0:0,0:0:0:0:
452,192,17873,6,0,P|408:180|360:184,1,91.5,4|0,0:3|1:0,0:0:0:0:
296,212,18649,2,0,L|280:120,2,91.5,4|0|4,0:3|1:0|0:3,0:0:0:0:
256,240,19683,6,0,P|196:248|135:230,1,122,4|8,0:0|0:0,0:0:0:0:
84,148,20718,2,0,P|144:140|205:158,1,122,2|8,0:0|0:0,0:0:0:0:
256,76,21752,1,2,0:0:0:0:
309,156,22269,2,0,P|367:140|428:148,1,122,8|2,0:0|0:0,0:0:0:0:
488,228,23304,1,8,0:0:0:0:
424,304,23821,6,0,B|360:336|292:316|292:316|248:336,2,183,2|0|8,0:0|0:0|0:0,0:0:0:0:
488,228,25890,2,0,P|480:168|496:104,1,122,2|8,0:0|0:0,0:0:0:0:
428,36,26925,1,2,0:0:0:0:
340,80,27442,2,0,L|216:84,1,122,8|4,0:0|0:0,0:0:0:0:
128,124,28476,6,0,L|120:192,1,61,8|4,0:0|0:0,0:0:0:0:
204,236,29252,2,0,L|211:175,2,61,0|8|0,0:0|0:0|0:0,0:0:0:0:
220,284,30028,2,0,P|308:308|396:276,1,183,4|0,0:0|0:0,0:0:0:0:
444,196,31321,2,0,L|432:124,1,61,0|8,0:0|0:0,0:0:0:0:
340,168,32097,6,0,P|280:180|220:172,1,122,4|8,0:0|0:0,0:0:0:0:
128,136,33132,2,0,L|112:272,1,122,2|8,0:0|0:0,0:0:0:0:
236,340,34425,6,0,L|296:336,1,61,0|0,1:0|1:0,0:0:0:0:
364,208,35459,2,0,L|304:212,1,61,0|0,1:0|1:0,0:0:0:0:
364,288,36235,6,0,P|424:264|444:208,1,122,4|8,0:0|0:0,0:0:0:0:
408,124,37269,1,2,0:0:0:0:
312,148,37787,2,0,L|184:152,1,122,8|2,0:0|0:0,0:0:0:0:
108,100,38821,1,8,0:0:0:0:
68,188,39338,2,0,P|60:248|80:308,1,122,2|8,0:0|0:0,0:0:0:0:
176,312,40373,6,0,B|236:356|295:318|295:318|360:336,2,183,2|0|8,0:0|0:0|0:0,0:0:0:0:
240,240,42442,2,0,L|248:112,1,122,2|8,0:0|0:0,0:0:0:0:
320,52,43476,1,2,0:0:0:0:
412,80,43994,1,10,0:0:0:0:
452,168,44511,6,0,P|444:260|468:352,1,183,4|0,0:0|0:0,0:0:0:0:
420,332,45545,2,0,P|300:312|188:352,1,244,2|2,0:0|0:0,0:0:0:0:
116,284,47097,1,8,0:0:0:0:
144,192,47614,2,0,P|148:128|128:68,2,122,2|8|2,0:0|0:0|0:0,0:0:0:0:
232,232,49166,5,8,0:0:0:0:
256,328,49683,2,0,P|320:332|380:312,1,122,2|8,0:0|0:0,0:0:0:0:
432,236,50718,2,0,P|428:172|448:112,2,122,2|8|2,0:0|0:0|0:0,0:0:0:0:
344,192,52269,1,10,0:0:0:0:
256,236,52787,6,0,L|132:240,1,122,4|8,0:0|0:0,0:0:0:0:
140,144,53821,2,0,L|261:140,1,122,2|8,0:0|0:0,0:0:0:0:
344,192,54856,2,0,P|348:256|320:312,2,122,2|8|2,0:0|0:0|0:0,0:0:0:0:
260,140,56407,1,8,0:0:0:0:
192,212,56925,6,0,P|100:216|32:144,2,183,2|0|8,0:0|0:0|0:0,0:0:0:0:
260,140,58994,2,0,P|280:84|260:16,1,122,2|8,0:0|0:0,0:0:0:0:
184,80,60028,1,2,0:0:0:0:
168,176,60545,1,10,0:0:0:0:
260,140,61063,6,0,P|352:136|436:176,1,183,4|0,0:0|0:0,0:0:0:0:
448,220,62097,2,0,L|428:344,1,122,2|8,0:0|0:0,0:0:0:0:
336,312,63132,2,0,P|276:304|216:316,1,122,2|8,0:0|0:0,0:0:0:0:
132,268,64166,2,0,P|124:208|136:148,1,122,2|8,0:0|0:0,0:0:0:0:
204,80,65200,6,0,P|116:52|48:108,1,183,4|0,0:0|0:0,0:0:0:0:
136,148,66494,2,0,P|224:176|292:120,1,183,0|4,0:0|0:0,0:0:0:0:
292,28,67787,1,8,0:0:0:0:
376,76,68304,2,0,P|432:68|488:108,1,122,2|10,0:0|0:0,0:0:0:0:
412,164,69338,6,0,P|380:244|400:336,1,183,4|2,0:0|0:0,0:0:0:0:
256,308,70890,1,10,0:0:0:0:
160,332,71407,2,0,P|180:240|264:208,1,183,2|2,0:0|0:0,0:0:0:0:
200,72,72959,1,10,0:0:0:0:
132,144,73476,6,0,P|88:156|32:148,2,91.5,2|2|2,0:0|0:0|0:0,0:0:0:0:
256,224,75028,1,10,0:0:0:0:
308,308,75545,2,0,P|352:320|408:312,2,91.5,2|2|2,0:0|0:0|0:0,0:0:0:0:
328,164,77097,1,10,0:0:0:0:
256,224,77614,6,0,P|168:232|76:200,2,183,4|2|10,0:0|0:0|0:0,0:0:0:0:
328,164,79683,2,0,P|416:156|508:188,2,183,2|2|10,0:0|0:0|0:0,0:0:0:0:
256,224,81752,6,0,P|252:288|272:352,2,122,2|2|2,0:0|0:0|0:0,0:0:0:0:
164,192,83304,1,10,0:0:0:0:
256,192,83821,12,0,85890,0:0:0:0:
256,192,87959,5,4,0:0:0:0:
188,264,88476,1,8,0:0:0:0:
112,204,88994,2,0,P|96:144|112:88,1,122,2|8,0:0|0:0,0:0:0:0:
208,72,90028,2,0,L|332:64,2,122,2|8|2,0:0|0:0|0:0,0:0:0:0:
112,87,91580,1,8,0:0:0:0:
64,172,92097,6,0,P|72:232|56:296,2,122,2|8|2,0:0|0:0|0:0,0:0:0:0:
112,88,93649,1,8,0:0:0:0:
168,168,94166,2,0,P|256:192|344:176,1,183,2|0,0:0|0:0,0:0:0:0:
364,132,95200,2,0,L|384:264,1,122,2|8,0:0|0:0,0:0:0:0:
316,324,96235,6,0,P|256:312|196:324,2,122,4|8|2,0:0|0:0|0:0,0:0:0:0:
380,252,97787,1,8,0:0:0:0:
452,320,98304,2,0,P|476:260|460:192,1,122,2|8,0:0|0:0,0:0:0:0:
380,252,99338,2,0,L|256:236,1,122,2|8,0:0|0:0,0:0:0:0:
256,192,100373,12,4,102442,0:0:0:0:
256,272,103476,6,0,L|256:144,1,122,4|8,0:0|0:0,0:0:0:0:
184,84,104511,6,0,P|256:52|341:102,1,183,4|0,0:0|0:0,0:0:0:0:
356,148,105545,2,0,L|480:136,1,122,2|8,0:0|0:0,0:0:0:0:
448,228,106580,2,0,P|420:280|424:344,1,122,2|8,0:0|0:0,0:0:0:0:
332,304,107614,2,0,P|280:276|216:280,1,122,2|8,0:0|0:0,0:0:0:0:
132,320,108649,6,0,L|112:136,1,183,2|0,0:0|0:0,0:0:0:0:
136,96,109683,2,0,P|192:112|256:104,1,122,2|8,0:0|0:0,0:0:0:0:
344,64,110718,2,0,L|472:80,2,122,2|8|2,0:0|0:0|0:0,0:0:0:0:
254,104,112269,1,8,0:0:0:0:
208,192,112787,6,0,P|216:280|156:352,1,183,4|0,0:0|0:0,0:0:0:0:
112,344,113821,2,0,L|256:368,1,122,2|8,0:0|0:0,0:0:0:0:
316,316,114856,1,2,0:0:0:0:
412,340,115373,1,8,0:0:0:0:
412,340,115632,2,0,P|408:244|448:168,1,183,0|8,0:0|0:0,0:0:0:0:
416,76,116925,6,0,P|356:68|292:84,1,122,2|8,0:0|0:0,0:0:0:0:
240,160,117959,2,0,P|232:220|248:284,2,122,2|8|4,0:0|0:0|0:0,0:0:0:0:
320,216,119511,2,0,P|379:229|439:221,2,122,0|0|8,0:0|0:0|0:3,0:0:0:0:
240,160,121063,6,0,P|228:248|300:312,1,183,4|0,0:0|0:0,0:0:0:0:
256,192,122097,12,4,125200,0:0:0:0:
