osu file format v12

[General]
AudioFilename: yukiiro.mp3
AudioLeadIn: 0
PreviewTime: 87873
Countdown: 0
SampleSet: Soft
StackLeniency: 0.7
Mode: 0
LetterboxInBreaks: 0
WidescreenStoryboard: 0

[Editor]
DistanceSpacing: 1
BeatDivisor: 4
GridSize: 4

[Metadata]
Title:Rokka no Uta (English Ver.)
TitleUnicode:六花のうた (English Ver.)
Artist:Maisaki Nami
ArtistUnicode:舞崎なみ
Creator:-Gamu-
Version:Hard
Source:ゆきいろ 〜空に六花の住む町〜
Tags:Yukiiro Sora ni Rokka no Sumu Machi ねこねこソフト Nekoneko software opening eroge hentai game visual novel winter I've
BeatmapID:329007
BeatmapSetID:130443

[Difficulty]
HPDrainRate:6
CircleSize:4
OverallDifficulty:6
ApproachRate:7
SliderMultiplier:1.62
SliderTickRate:2

[Events]
//Background and Video events
0,0,"winter.png",0,0
Video,0,"yukiiro.avi"
//Break Periods
//Storyboard Layer 0 (Background)
//Storyboard Layer 1 (Fail)
//Storyboard Layer 2 (Pass)
//Storyboard Layer 3 (Foreground)
//Storyboard Sound Samples
//Background Colour Transformations
3,100,163,162,255

[TimingPoints]
3132,517.241379310345,4,2,1,40,1,0
17614,-100,4,2,1,20,0,0
17873,-100,4,2,1,70,0,0
18261,-100,4,2,1,50,0,0
18649,-100,4,2,1,70,0,0
19037,-100,4,2,1,50,0,0
19425,-100,4,2,1,70,0,0
19683,-100,4,2,1,50,0,0
24856,-100,4,2,4,50,0,0
25114,-100,4,2,1,50,0,0
33907,-100,4,2,1,30,0,0
34425,-100,4,2,2,50,0,0
34554,-100,4,2,2,30,0,0
34683,-100,4,2,2,50,0,0
34942,-100,4,2,1,50,0,0
35459,-100,4,2,2,50,0,0
35588,-100,4,2,2,30,0,0
35718,-100,4,2,2,50,0,0
35976,-100,4,2,1,50,0,0
36106,-100,4,2,2,30,0,0
36235,-100,4,2,1,50,0,0
49942,-100,4,2,4,50,0,0
50200,-100,4,2,1,50,0,0
51752,-100,4,2,1,30,0,0
52787,-100,4,2,1,50,0,0
85890,-100,4,2,1,20,0,0
86149,-100,4,2,1,70,0,0
86537,-100,4,2,1,50,0,0
86925,-100,4,2,1,70,0,0
87313,-100,4,2,1,50,0,0
87700,-100,4,2,1,70,0,0
87959,-100,4,2,1,60,0,1
95976,-100,4,2,1,40,0,1
96235,-100,4,2,1,60,0,1
118476,-100,4,2,1,40,0,1
118994,-100,4,2,1,60,0,1
125200,-100,4,2,1,30,0,0

[Colours]
Combo1 : 255,0,0
Combo2 : 0,128,255
Combo3 : 255,179,255
Combo4 : 166,255,255

[HitObjects]
319,191,3131,2,0,P|327:231|318:270,1,81,2|0,0:0|0:0,0:0:0:0:
193,270,3649,2,0,P|183:231|192:192,1,81,2|0,0:0|0:0,0:0:0:0:
256,328,4166,2,0,P|179:355|116:308,1,162,2|2,0:0|0:0,0:0:0:0:
60,252,4942,1,0,0:0:0:0:
104,180,5200,6,0,P|104:140|96:100,1,81,2|0,0:0|0:0,0:0:0:0:
164,56,5718,1,2,0:0:0:0:
244,76,5976,1,0,0:0:0:0:
324,56,6235,2,0,L|408:68,1,81,2|0,0:0|0:0,0:0:0:0:
456,176,6752,2,0,L|375:164,1,81,2|0,0:0|0:0,0:0:0:0:
300,192,7269,5,2,0:0:0:0:
256,260,7528,2,0,P|252:300|264:344,1,81,0|2,0:0|0:0,0:0:0:0:
328,292,8045,1,0,0:0:0:0:
396,336,8304,1,2,0:0:0:0:
116,336,8821,1,2,0:0:0:0:
184,292,9080,1,0,0:0:0:0:
256,260,9338,6,0,P|264:220|264:176,1,81,2|0,0:0|0:0,0:0:0:0:
236,104,9856,1,2,0:0:0:0:
264,180,10114,2,0,L|349:189,1,81,2|0,0:0|0:0,0:0:0:0:
336,268,10632,2,0,L|420:276,1,81,2|0,0:0|0:0,0:0:0:0:
476,220,11149,2,0,P|472:180|484:136,1,81,2|0,0:0|0:0,0:0:0:0:
428,80,11666,5,0,0:0:0:0:
348,64,11925,1,2,0:0:0:0:
232,176,12183,1,0,0:0:0:0:
312,192,12442,2,0,P|356:188|396:172,1,81,2|0,0:0|0:0,0:0:0:0:
232,176,12959,1,2,0:0:0:0:
216,256,13218,2,0,P|220:300|236:340,1,81,0|2,0:0|0:0,0:0:0:0:
156,200,13735,6,0,P|112:204|72:220,2,81,0|2|0,0:0|0:0|0:0,0:0:0:0:
216,256,14511,1,2,0:0:0:0:
368,200,15028,2,0,P|412:204|452:220,1,81,2|0,0:0|0:0,0:0:0:0:
468,296,15545,5,2,0:0:0:0:
404,348,15804,1,0,0:0:0:0:
340,296,16063,1,2,0:0:0:0:
276,348,16321,1,0,0:0:0:0:
212,296,16580,2,0,P|172:296|132:308,1,81,2|0,0:0|0:0,0:0:0:0:
76,252,17097,1,2,0:0:0:0:
108,180,17356,2,0,P|108:140|96:100,1,81,2|0,0:0|0:0,0:0:0:0:
164,56,17873,6,0,P|220:72|284:64,1,121.5,4|0,0:3|1:0,0:0:0:0:
344,168,18649,2,0,P|288:152|224:160,2,121.5,4|0|4,0:3|1:0|0:3,0:0:0:0:
388,236,19683,6,0,L|396:320,1,81,4|0,0:0|0:0,0:0:0:0:
320,296,20200,1,8,0:0:0:0:
320,296,20459,2,0,P|280:292|240:304,1,81,2|2,0:0|1:2,0:0:0:0:
176,352,20976,1,0,1:0:0:0:
37,307,21235,2,0,P|77:311|116:300,1,81,8|0,0:0|0:0,0:0:0:0:
172,240,21752,6,0,P|192:164|156:88,1,162,2|8,0:0|0:0,0:0:0:0:
80,68,22528,2,0,L|40:72,2,40.5,0|0|2,0:0|0:0|1:2,0:0:0:0:
158,90,23045,2,0,P|196:104|240:100,1,81,0|8,1:0|0:0,0:0:0:0:
300,48,23563,2,0,L|388:56,1,81,0|2,0:0|0:0,0:0:0:0:
420,128,24080,5,0,0:0:0:0:
456,200,24338,1,8,0:0:0:0:
440,280,24597,2,0,P|364:304|284:288,1,162,0|0,0:0|1:0,0:0:0:0:
210,161,25373,2,0,P|208:201|220:240,1,81,8|0,0:0|0:0,0:0:0:0:
272,124,25890,6,0,P|204:88|141:136,1,162,2|8,0:0|0:0,0:0:0:0:
144,216,26666,1,0,0:0:0:0:
184,288,26925,2,0,P|220:304|268:300,1,81,2|0,1:2|1:0,0:0:0:0:
332,260,27442,1,8,0:0:0:0:
348,264,27571,1,0,0:0:0:0:
364,268,27700,1,0,0:0:0:0:
380,272,27830,1,0,0:0:0:0:
396,276,27959,6,0,P|456:228|440:152,1,162,4|8,0:0|0:0,0:0:0:0:
368,112,28735,2,0,L|284:116,1,81,4|0,0:0|1:0,0:0:0:0:
168,232,29252,1,2,1:2:0:0:
208,164,29511,1,8,0:0:0:0:
196,84,29769,1,2,0:0:0:0:
124,48,30028,6,0,P|84:44|40:52,1,81,4|0,0:0|0:0,0:0:0:0:
116,144,30545,1,8,0:0:0:0:
208,164,30804,2,0,P|248:168|292:160,1,81,2|0,0:0|1:0,0:0:0:0:
360,124,31321,2,0,L|376:204,1,81,2|8,1:2|0:0,0:0:0:0:
388,284,31838,1,0,0:0:0:0:
388,284,31968,1,0,0:0:0:0:
388,284,32097,6,0,P|312:304|232:288,1,162,4|8,0:0|0:0,0:0:0:0:
124,100,33132,2,0,P|200:80|280:96,1,162,2|8,0:0|0:0,0:0:0:0:
360,124,33907,2,0,L|404:128,2,40.5,8|8|0,0:0|0:0|1:0,0:0:0:0:
296,176,34425,6,0,L|288:216,1,40.5,0|0,1:0|0:0,0:0:0:0:
280,256,34683,2,0,B|220:280|168:252|168:252|144:296,1,162,0|0,1:0|1:0,0:0:0:0:
68,232,35459,2,0,L|88:196,1,40.5,0|0,1:0|0:0,0:0:0:0:
112,164,35718,2,0,P|176:152|228:172,1,121.5,0|0,1:0|0:0,0:0:0:0:
268,164,36235,6,0,P|304:92|288:16,1,162,4|8,0:0|0:0,0:0:0:0:
228,68,37011,1,0,0:0:0:0:
304,92,37269,2,0,P|344:96|384:84,1,81,0|0,1:0|1:0,0:0:0:0:
480,180,37787,2,0,P|440:176|400:188,1,81,8|0,0:0|0:0,0:0:0:0:
372,264,38304,5,0,1:0:0:0:
140,264,38821,1,8,0:0:0:0:
256,328,39080,1,0,0:0:0:0:
256,328,39209,1,0,0:0:0:0:
256,328,39338,2,0,L|256:248,1,81,0|0,1:0|1:0,0:0:0:0:
216,176,39856,2,0,P|256:168|296:176,1,81,8|0,0:0|0:0,0:0:0:0:
184,248,40373,6,0,P|140:192|168:112,1,162,0|8,1:0|0:0,0:0:0:0:
248,100,41149,1,0,0:0:0:0:
316,144,41407,2,0,P|356:148|400:132,2,81,0|0|8,1:0|1:0|0:0,0:0:0:0:
248,100,42183,2,0,L|244:20,1,81,0|0,0:0|1:0,0:0:0:0:
168,48,42700,6,0,L|120:52,2,40.5,0|0|8,0:0|0:0|0:0,0:0:0:0:
52,120,43218,2,0,L|92:123,2,40.5,0|0|0,1:0|0:0|1:0,0:0:0:0:
24,196,43735,1,0,1:0:0:0:
52,272,43994,1,10,0:0:0:0:
128,300,44252,1,0,0:0:0:0:
204,272,44511,6,0,P|216:232|212:192,1,81,0|0,1:0|0:0,0:0:0:0:
152,140,45028,1,8,0:0:0:0:
212,193,45287,1,0,0:0:0:0:
280,148,45545,2,0,L|288:64,1,81,0|0,1:0|1:0,0:0:0:0:
392,36,46063,2,0,L|384:116,1,81,8|0,0:0|0:0,0:0:0:0:
376,196,46580,2,0,P|432:252|512:240,1,162,0|8,1:0|0:0,0:0:0:0:
380,336,47356,6,0,P|340:340|300:328,1,81,0|0,0:0|1:0,0:0:0:0:
256,260,47873,1,0,1:0:0:0:
132,336,48132,2,0,P|172:340|212:328,1,81,8|0,0:0|0:0,0:0:0:0:
328,200,48649,6,0,P|256:168|184:200,1,162,0|8,1:0|0:0,0:0:0:0:
256,260,49425,1,0,1:0:0:0:
256,260,49683,2,0,L|256:96,1,162,0|8,1:0|0:0,0:0:0:0:
192,48,50459,5,0,0:0:0:0:
192,48,50588,1,0,0:0:0:0:
192,48,50718,2,0,P|152:44|112:56,1,81,0|0,1:0|0:0,0:0:0:0:
160,124,51235,2,0,P|122:137|90:165,1,81,8|0,0:0|1:0,0:0:0:0:
164,207,51752,2,0,L|176:246,2,40.5,8|8|10,0:0|0:0|0:0,0:0:0:0:
256,160,52269,1,10,0:0:0:0:
256,160,52399,1,8,0:0:0:0:
256,160,52528,1,8,0:0:0:0:
256,160,52657,1,8,0:0:0:0:
256,160,52787,6,0,P|332:188|412:176,1,162,4|8,0:0|0:0,0:0:0:0:
452,108,53563,1,0,0:0:0:0:
388,56,53821,2,0,P|348:52|308:64,2,81,0|0|8,1:0|1:0|0:0,0:0:0:0:
452,108,54597,1,0,0:0:0:0:
468,188,54856,6,0,P|404:232|332:204,1,162,0|8,1:0|0:0,0:0:0:0:
276,144,55632,2,0,P|236:140|196:148,1,81,0|0,0:0|1:0,0:0:0:0:
147,213,56149,1,0,1:0:0:0:
203,355,56407,2,0,P|207:315|200:276,1,81,8|0,0:0|0:0,0:0:0:0:
132,320,56925,6,0,L|300:312,1,162,0|8,1:0|0:0,0:0:0:0:
364,276,57700,1,0,0:0:0:0:
424,332,57959,2,0,L|504:328,2,81,0|0|8,1:0|1:0|0:0,0:0:0:0:
364,276,58735,5,0,0:0:0:0:
360,260,58864,1,0,0:0:0:0:
356,244,58994,2,0,L|360:164,1,81,0|0,1:0|0:0,0:0:0:0:
488,100,59511,2,0,L|484:180,1,81,8|0,0:0|1:0,0:0:0:0:
360,163,60028,1,0,1:0:0:0:
284,136,60287,1,0,1:0:0:0:
216,180,60545,2,0,P|204:220|208:264,1,81,10|0,0:0|0:0,0:0:0:0:
288,268,61063,6,0,P|206:260|132:288,1,162,0|8,1:0|0:0,0:0:0:0:
68,236,61838,2,0,P|60:196|64:152,1,81,0|0,0:0|1:0,0:0:0:0:
104,84,62356,1,0,1:0:0:0:
184,64,62614,1,8,0:0:0:0:
248,112,62873,1,0,0:0:0:0:
232,192,63132,2,0,P|228:232|236:271,2,81,0|0|8,1:0|0:0|0:0,0:0:0:0:
248,112,63907,6,0,P|288:108|327:116,2,81,0|0|0,0:0|1:0|1:0,0:0:0:0:
344,40,64683,2,0,P|383:47|423:44,1,81,8|0,0:0|0:0,0:0:0:0:
476,108,65200,6,0,B|448:160|476:216|476:216|464:268,1,162,4|8,1:2|0:0,0:0:0:0:
388,296,65976,2,0,L|384:340,2,40.5,0|0|0,0:0|0:0|1:0,0:0:0:0:
344,228,66494,2,0,P|304:224|264:232,1,81,0|8,1:0|0:0,0:0:0:0:
112,300,67011,2,0,P|152:303|191:296,1,81,0|4,0:0|1:2,0:0:0:0:
256,140,67528,6,0,L|252:92,2,40.5,0|0|8,0:0|0:0|0:0,0:0:0:0:
344,228,68045,1,0,1:0:0:0:
344,228,68175,1,0,1:0:0:0:
344,228,68304,1,0,1:0:0:0:
412,184,68563,1,0,0:0:0:0:
420,104,68821,1,10,0:0:0:0:
360,52,69080,1,8,0:0:0:0:
280,64,69338,6,0,P|264:120|268:184,2,121.5,4|0|2,1:2|1:0|1:2,0:0:0:0:
280,64,70632,5,0,1:0:0:0:
360,52,70890,1,10,0:0:0:0:
420,104,71149,1,0,0:0:0:0:
412,184,71407,6,0,P|432:236|488:268,2,121.5,2|0|2,1:2|1:0|1:2,0:0:0:0:
412,184,72700,5,0,1:0:0:0:
336,212,72959,1,10,0:0:0:0:
256,200,73218,1,0,0:0:0:0:
192,152,73476,6,0,P|176:96|188:32,1,121.5,2|0,1:2|1:0,0:0:0:0:
296,88,74252,2,0,L|380:96,1,81,2|0,1:2|0:0,0:0:0:0:
388,176,74769,2,0,L|472:184,2,81,0|10|0,1:0|0:0|0:0,0:0:0:0:
312,208,75545,6,0,P|288:284|324:356,1,162,2|8,1:2|0:0,0:0:0:0:
204,328,76321,2,0,L|120:332,1,81,2|0,1:2|0:0,0:0:0:0:
56,288,76838,1,0,1:0:0:0:
40,208,77097,1,10,0:0:0:0:
80,136,77356,1,0,0:0:0:0:
80,136,77485,1,0,0:0:0:0:
80,136,77614,6,0,P|136:120|200:128,1,121.5,4|0,0:0|1:0,0:0:0:0:
308,180,78390,2,0,L|316:96,1,81,2|0,1:2|0:0,0:0:0:0:
364,36,78907,1,0,1:0:0:0:
428,84,79166,2,0,P|468:96|508:96,1,81,10|0,0:0|0:0,0:0:0:0:
480,172,79683,6,0,P|448:236|464:328,1,162,2|8,1:2|0:0,0:0:0:0:
388,360,80459,2,0,P|348:364|308:356,1,81,2|0,1:2|0:0,0:0:0:0:
256,296,80976,2,0,P|252:256|260:216,2,81,0|10|0,1:0|0:0|0:0,0:0:0:0:
203,356,81752,6,0,P|164:363|124:360,1,81,2|0,0:0|0:0,0:0:0:0:
16,244,82269,2,0,P|55:236|95:240,1,81,0|2,0:0|0:0,0:0:0:0:
336,292,82787,2,0,P|296:299|256:295,1,81,0|0,0:0|1:0,0:0:0:0:
148,179,83304,2,0,P|187:171|227:175,1,81,8|0,0:0|0:0,0:0:0:0:
336,292,83821,5,4,0:0:0:0:
256,192,83950,12,0,85890,0:0:0:0:
172,196,86149,2,0,P|156:254|179:308,1,121.5,4|0,0:3|1:0,0:0:0:0:
332,308,86925,2,0,P|356:253|340:196,2,121.5,4|0|4,0:3|1:0|0:3,0:0:0:0:
256,248,87959,6,0,L|256:160,1,81,4|0,0:0|0:0,0:0:0:0:
300,100,88476,1,8,0:0:0:0:
376,132,88735,1,0,0:0:0:0:
376,132,88864,1,0,0:0:0:0:
376,132,88994,2,0,P|416:140|456:136,1,81,2|0,0:0|0:0,0:0:0:0:
480,212,89511,2,0,L|472:292,1,81,8|0,0:0|0:0,0:0:0:0:
408,344,90028,6,0,P|368:348|328:340,1,81,2|0,0:0|0:0,0:0:0:0:
264,292,90545,2,0,P|224:285|184:289,1,81,8|0,0:0|0:0,0:0:0:0:
104,300,91063,2,0,P|112:224|80:144,1,162,2|8,0:0|0:0,0:0:0:0:
12,108,91838,1,0,0:0:0:0:
81,145,92097,6,0,L|168:140,1,81,2|0,0:0|0:0,0:0:0:0:
276,44,92614,2,0,L|195:49,1,81,8|0,0:0|0:0,0:0:0:0:
296,124,93132,2,0,P|344:92|356:32,1,121.5,2|0,0:0|0:0,0:0:0:0:
396,32,93649,2,0,L|476:37,1,81,8|0,0:0|0:0,0:0:0:0:
452,116,94166,5,2,0:0:0:0:
420,192,94425,1,0,0:0:0:0:
452,264,94683,2,0,L|436:348,1,81,8|0,0:0|0:0,0:0:0:0:
364,308,95200,2,0,P|284:292|208:312,1,162,2|10,0:0|0:0,0:0:0:0:
132,280,95976,1,8,0:0:0:0:
132,280,96106,1,8,0:0:0:0:
132,280,96235,6,0,B|144:220|116:168|116:168|140:120,1,162,4|8,0:0|0:0,0:0:0:0:
204,172,97011,1,0,0:0:0:0:
204,172,97140,1,0,0:0:0:0:
204,172,97269,2,0,P|244:176|288:164,1,81,2|0,0:0|0:0,0:0:0:0:
365,271,97787,2,0,P|369:231|360:192,1,81,8|0,0:0|0:0,0:0:0:0:
300,300,98304,6,0,P|364:344|429:305,1,162,2|8,0:0|0:0,0:0:0:0:
452,228,99080,1,0,0:0:0:0:
448,212,99209,1,0,0:0:0:0:
444,196,99338,2,0,P|440:156|448:112,1,81,2|0,0:0|0:0,0:0:0:0:
344,48,99856,2,0,P|348:88|340:132,1,81,8|0,0:0|0:0,0:0:0:0:
256,200,100373,6,0,P|172:212|96:192,1,162,4|8,0:0|0:0,0:0:0:0:
256,300,101407,2,0,P|340:288|416:308,1,162,2|8,0:0|0:0,0:0:0:0:
464,152,102442,6,0,L|488:324,1,162,4|8,0:0|0:0,0:0:0:0:
25,312,103476,2,0,L|48:152,1,162,4|8,0:0|0:0,0:0:0:0:
184,248,104511,6,0,P|256:280|328:248,1,162,4|8,0:0|0:0,0:0:0:0:
324,168,105287,1,0,0:0:0:0:
256,208,105545,2,0,L|256:372,1,162,2|8,0:0|0:0,0:0:0:0:
184,336,106321,1,0,0:0:0:0:
108,304,106580,6,0,P|68:300|24:312,1,81,2|0,0:0|0:0,0:0:0:0:
52,192,107097,2,0,P|112:192|156:152,1,121.5,8|0,0:0|0:0,0:0:0:0:
164,112,107614,2,0,L|244:128,1,81,2|0,0:0|0:0,0:0:0:0:
324,148,108132,1,10,0:0:0:0:
388,100,108390,1,0,0:0:0:0:
464,124,108649,6,0,P|484:200|452:280,1,162,2|8,0:0|0:0,0:0:0:0:
380,308,109425,1,0,0:0:0:0:
219,298,109683,2,0,P|259:292|300:296,1,81,2|0,0:0|0:0,0:0:0:0:
152,348,110200,2,0,P|140:308|144:264,1,81,8|0,0:0|0:0,0:0:0:0:
180,196,110718,6,0,P|256:180|340:192,1,162,2|8,0:0|0:0,0:0:0:0:
396,248,111494,2,0,L|404:300,2,40.5,0|0|2,0:0|0:0|0:0,0:0:0:0:
416,168,112011,2,0,L|468:48,2,121.5,2|0|4,1:2|1:0|0:0,0:0:0:0:
256,148,113304,5,8,0:0:0:0:
96,168,113821,2,0,P|56:100|76:24,2,162,2|8|2,0:0|0:0|0:0,0:0:0:0:
256,148,115373,5,8,0:0:0:0:
256,228,115632,2,0,L|256:316,1,81,0|2,0:0|0:0,0:0:0:0:
216,76,116407,2,0,P|256:68|296:76,1,81,10|0,0:0|0:0,0:0:0:0:
344,140,116925,6,0,P|424:152|500:124,2,162,4|8|2,0:0|0:0|0:0,0:0:0:0:
294,75,118218,1,0,0:0:0:0:
216,76,118476,2,0,L|176:84,2,40.5,8|8|8,0:0|0:0|0:0,0:0:0:0:
256,148,118994,6,0,P|256:188|244:228,1,81,4|0,0:0|0:0,0:0:0:0:
188,284,119511,2,0,P|148:284|108:272,1,81
44,220,120028,2,0,P|28:144|76:80,1,162,0|8,0:0|0:3,0:0:0:0:
148,116,120804,1,0,0:0:0:0:
220,76,121063,6,0,P|296:68|376:96,1,162,4|8,0:0|0:0,0:0:0:0:
420,164,121838,1,0,0:0:0:0:
440,244,122097,1,2,0:0:0:0:
256,192,122226,12,4,125200,0:0:0:0:
