osu file format v13

[General]
AudioFilename: Electric Chaser.mp3
AudioLeadIn: 0
PreviewTime: 74248
Countdown: 0
SampleSet: Normal
StackLeniency: 0.7
Mode: 3
LetterboxInBreaks: 0
SpecialStyle: 0
WidescreenStoryboard: 1

[Editor]
DistanceSpacing: 1.4
BeatDivisor: 4
GridSize: 16
TimelineZoom: 1

[Metadata]
Title:Electric Chaser
TitleUnicode:Electric Chaser
Artist:Maiko Iuchi
ArtistUnicode:Maiko Iuchi
Creator:IamBaum
Version:2k HD
Source:Toaru Majutsu no Index II OST
Tags:Misaka Mikoto Electro To aru Kagaku no Railgun
BeatmapID:518707
BeatmapSetID:156107

[Difficulty]
HPDrainRate:7
CircleSize:2
OverallDifficulty:7
ApproachRate:5
SliderMultiplier:1.4
SliderTickRate:1

[Events]
//Background and Video events
0,0,"Background.jpg",0,0
//Break Periods
//Storyboard Layer 0 (Background)
//Storyboard Layer 1 (Fail)
//Storyboard Layer 2 (Pass)
//Storyboard Layer 3 (Foreground)
//Storyboard Sound Samples
//Background Colour Transformations
3,100,163,162,255

[TimingPoints]
435,307.692307692308,4,1,0,50,1,0
29973,-105.263157894737,4,1,0,50,0,0
30050,-111.111111111111,4,1,0,50,0,0
30127,-117.647058823529,4,1,0,50,0,0
34588,-105.263157894737,4,1,0,50,0,0
34665,-111.111111111111,4,1,0,50,0,0
34742,-100,4,1,0,50,0,0
44818,-107.52688172043,4,1,0,50,0,0
44895,-117.647058823529,4,1,0,50,0,0
49356,-111.111111111111,4,1,0,50,0,0
49432,-105.263157894737,4,1,0,50,0,0
49508,-100,4,1,0,50,0,0
72123,-125,4,1,0,50,0,0
72431,-166.666666666667,4,1,0,50,0,0
72738,-200,4,1,0,50,0,0
73046,-250.000000000001,4,1,0,50,0,0
73354,-285.714285714286,4,1,0,50,0,0
73661,-333.333333333333,4,1,0,50,0,0
73815,-400,4,1,0,50,0,0
73969,-500,4,1,0,50,0,0
74123,-666.666666666667,4,1,0,50,0,0
74281,-100,4,1,0,50,0,0

[HitObjects]
448,192,435,5,0,0:0:0:0:
320,192,742,1,0,0:0:0:0:
192,192,1050,1,0,0:0:0:0:
64,192,1358,1,0,0:0:0:0:
192,192,1511,128,0,1973:0:0:0:0:
384,192,1973,1,0,0:0:0:0:
192,192,2281,1,0,0:0:0:0:
448,192,2588,1,0,0:0:0:0:
320,192,2742,128,0,3204:0:0:0:0:
128,192,3204,1,0,0:0:0:0:
384,192,3511,1,0,0:0:0:0:
128,192,3819,1,0,0:0:0:0:
128,192,3973,128,0,4435:0:0:0:0:
384,192,4435,1,0,0:0:0:0:
128,192,4742,1,0,0:0:0:0:
384,192,5050,128,0,5358:0:0:0:0:
128,192,5050,1,0,0:0:0:0:
128,192,5358,1,0,0:0:0:0:
64,192,5665,1,0,0:0:0:0:
384,192,5973,1,0,0:0:0:0:
128,192,6281,1,0,0:0:0:0:
128,192,6435,128,0,6896:0:0:0:0:
384,192,6896,1,0,0:0:0:0:
64,192,7204,1,0,0:0:0:0:
384,192,7511,1,0,0:0:0:0:
384,192,7665,128,0,8127:0:0:0:0:
192,192,8127,1,0,0:0:0:0:
384,192,8435,1,0,0:0:0:0:
128,192,8742,1,0,0:0:0:0:
128,192,8896,128,0,9358:0:0:0:0:
384,192,9358,1,0,0:0:0:0:
128,192,9665,1,0,0:0:0:0:
128,192,9973,128,0,10281:0:0:0:0:
256,192,10281,1,0,0:0:0:0:
192,192,10742,1,0,0:0:0:0:
384,192,11050,1,0,0:0:0:0:
448,192,11204,128,0,11665:0:0:0:0:
128,192,11665,1,0,0:0:0:0:
192,192,11973,1,0,0:0:0:0:
64,192,12127,128,0,12435:0:0:0:0:
256,192,12435,128,0,12742:0:0:0:0:
128,192,12742,1,0,0:0:0:0:
128,192,13204,1,0,0:0:0:0:
384,192,13511,1,0,0:0:0:0:
384,192,13665,128,0,14588:0:0:0:0:
64,192,14742,1,8,0:0:0:0:
64,192,14896,1,8,0:0:0:0:
64,192,15050,1,8,0:0:0:0:
192,192,15204,128,12,15511:0:0:0:0:
448,192,15511,1,0,0:0:0:0:
64,192,15973,1,0,0:0:0:0:
192,192,16127,1,8,0:0:0:0:
320,192,16435,1,8,0:0:0:0:
256,192,16896,1,0,0:0:0:0:
384,192,17050,128,2,17358:0:0:0:0:
64,192,17358,128,2,17665:0:0:0:0:
256,192,17665,1,0,0:0:0:0:
192,192,18127,1,0,0:0:0:0:
384,192,18435,1,0,0:0:0:0:
320,192,18588,128,0,18973:0:0:0:0:
320,192,19050,1,8,0:0:0:0:
320,192,19204,1,8,0:0:0:0:
320,192,19358,1,8,0:0:0:0:
320,192,19511,128,0,19742:0:0:0:0:
320,192,19819,1,8,0:0:0:0:
320,192,19973,1,8,0:0:0:0:
192,192,20127,1,12,0:0:0:0:
384,192,20127,1,12,0:0:0:0:
448,192,20588,128,0,21050:0:0:0:0:
128,192,21050,1,0,0:0:0:0:
256,192,21511,128,0,22588:0:0:0:0:
192,192,22588,1,8,0:0:0:0:
192,192,23050,1,0,0:0:0:0:
320,192,23511,128,0,24358:0:0:0:0:
320,192,24435,1,8,0:0:0:0:
320,192,24588,1,8,0:0:0:0:
320,192,24742,1,8,0:0:0:0:
320,192,24896,1,8,0:0:0:0:
192,192,25050,1,12,0:0:0:0:
384,192,25050,1,12,0:0:0:0:
320,192,25358,1,8,0:0:0:0:
320,192,25665,1,8,0:0:0:0:
320,192,25819,1,8,0:0:0:0:
192,192,25973,1,8,0:0:0:0:
192,192,26127,1,8,0:0:0:0:
256,192,26281,128,0,26742:0:0:0:0:
128,192,26742,128,0,27358:0:0:0:0:
192,192,27511,1,8,0:0:0:0:
192,192,27665,1,8,0:0:0:0:
320,192,27819,1,8,0:0:0:0:
320,192,27973,1,8,0:0:0:0:
448,192,28127,1,8,0:0:0:0:
448,192,28281,1,8,0:0:0:0:
320,192,28435,128,0,28819:0:0:0:0:
448,192,28896,1,2,0:0:0:0:
320,192,29050,1,2,0:0:0:0:
448,192,29204,1,2,0:0:0:0:
64,192,29358,1,2,0:0:0:0:
192,192,29511,1,2,0:0:0:0:
64,192,29665,1,2,0:0:0:0:
448,192,29973,1,4,0:0:0:0:
128,192,29973,1,4,0:0:0:0:
192,192,30435,1,4,0:0:0:0:
448,192,30896,1,4,0:0:0:0:
192,192,31358,1,4,0:0:0:0:
64,192,31819,1,4,0:0:0:0:
192,192,32127,1,4,0:0:0:0:
64,192,32435,1,4,0:0:0:0:
448,192,32896,1,4,0:0:0:0:
320,192,33358,1,4,0:0:0:0:
192,192,33819,1,4,0:0:0:0:
192,192,34281,1,4,0:0:0:0:
448,192,34588,1,4,0:0:0:0:
192,192,34896,128,8,35204:0:0:0:0:
384,192,35358,1,0,0:0:0:0:
256,192,35665,1,8,0:0:0:0:
256,192,35819,128,0,36127:0:0:0:0:
192,192,36281,1,0,0:0:0:0:
320,192,36588,1,0,0:0:0:0:
64,192,36742,128,2,37050:0:0:0:0:
448,192,37050,128,2,37358:0:0:0:0:
192,192,37358,1,8,0:0:0:0:
384,192,37819,1,0,0:0:0:0:
384,192,38127,1,0,0:0:0:0:
320,192,38281,128,0,39281:0:0:0:0:
320,192,39358,1,8,0:0:0:0:
320,192,39511,1,8,0:0:0:0:
320,192,39665,1,8,0:0:0:0:
192,192,39819,1,12,0:0:0:0:
384,192,39819,1,12,0:0:0:0:
192,192,40127,128,0,40742:0:0:0:0:
320,192,40742,1,8,0:0:0:0:
192,192,41204,128,0,42281:0:0:0:0:
320,192,42281,1,8,0:0:0:0:
384,192,42742,1,0,0:0:0:0:
128,192,43050,1,0,0:0:0:0:
192,192,43204,128,0,44050:0:0:0:0:
192,192,44127,1,8,0:0:0:0:
192,192,44281,1,8,0:0:0:0:
192,192,44435,1,8,0:0:0:0:
192,192,44588,1,8,0:0:0:0:
320,192,44742,1,12,0:0:0:0:
128,192,44742,1,12,0:0:0:0:
192,192,45204,1,4,0:0:0:0:
448,192,45665,1,4,0:0:0:0:
192,192,46127,1,4,0:0:0:0:
64,192,46588,1,4,0:0:0:0:
320,192,46896,1,4,0:0:0:0:
64,192,47204,1,4,0:0:0:0:
64,192,47665,1,4,0:0:0:0:
192,192,48127,1,4,0:0:0:0:
320,192,48588,1,4,0:0:0:0:
192,192,49050,1,4,0:0:0:0:
448,192,49358,1,4,0:0:0:0:
128,192,49665,128,8,49973:0:0:0:0:
256,192,49973,1,0,0:0:0:0:
256,192,50127,1,0,0:0:0:0:
128,192,50588,128,8,50896:0:0:0:0:
320,192,50896,1,0,0:0:0:0:
448,192,51050,1,0,0:0:0:0:
64,192,51511,128,2,51819:0:0:0:0:
448,192,51819,128,2,52127:0:0:0:0:
64,192,52127,1,12,0:0:0:0:
256,192,52435,1,0,0:0:0:0:
384,192,52588,1,0,0:0:0:0:
320,192,53050,128,0,53358:0:0:0:0:
320,192,53511,1,8,0:0:0:0:
320,192,53665,1,8,0:0:0:0:
320,192,53819,1,8,0:0:0:0:
320,192,53973,1,8,0:0:0:0:
320,192,54127,1,8,0:0:0:0:
320,192,54281,128,0,54588:0:0:0:0:
128,192,54588,1,12,0:0:0:0:
384,192,54896,1,0,0:0:0:0:
320,192,55050,128,0,55511:0:0:0:0:
128,192,55511,1,8,0:0:0:0:
128,192,55819,1,0,0:0:0:0:
192,192,55973,128,0,56435:0:0:0:0:
320,192,56435,1,8,0:0:0:0:
320,192,56588,1,8,0:0:0:0:
320,192,56742,1,8,0:0:0:0:
320,192,56896,1,8,0:0:0:0:
128,192,57050,1,0,0:0:0:0:
128,192,57358,1,0,0:0:0:0:
128,192,57511,128,0,57819:0:0:0:0:
256,192,57973,128,0,58665:0:0:0:0:
128,192,57973,1,0,0:0:0:0:
128,192,58665,128,0,59588:0:0:0:0:
256,192,59588,1,0,0:0:0:0:
192,192,59973,1,8,0:0:0:0:
448,192,60435,1,8,0:0:0:0:
320,192,60896,1,8,0:0:0:0:
192,192,61358,128,0,61819:0:0:0:0:
384,192,61358,1,0,0:0:0:0:
192,192,61973,1,8,0:0:0:0:
320,192,62435,1,8,0:0:0:0:
64,192,62896,1,8,0:0:0:0:
320,192,63358,1,8,0:0:0:0:
320,192,63819,1,8,0:0:0:0:
64,192,64127,1,8,0:0:0:0:
320,192,64435,1,8,0:0:0:0:
192,192,64896,1,8,0:0:0:0:
64,192,65358,1,8,0:0:0:0:
192,192,65819,1,8,0:0:0:0:
448,192,66281,128,0,66896:0:0:0:0:
192,192,66896,1,8,0:0:0:0:
320,192,67358,1,8,0:0:0:0:
64,192,67819,1,8,0:0:0:0:
320,192,68281,1,8,0:0:0:0:
64,192,68742,1,8,0:0:0:0:
192,192,69050,1,8,0:0:0:0:
384,192,69358,1,8,0:0:0:0:
320,192,69819,1,4,0:0:0:0:
192,192,70281,1,4,0:0:0:0:
384,192,70742,1,4,0:0:0:0:
320,192,71204,1,4,0:0:0:0:
128,192,71665,1,4,0:0:0:0:
192,192,72127,128,0,74127:0:0:0:0:
448,192,74281,1,0,0:0:0:0:
128,192,74588,1,0,0:0:0:0:
384,192,74896,1,0,0:0:0:0:
64,192,75204,1,0,0:0:0:0:
192,192,75358,128,0,75819:0:0:0:0:
384,192,75819,1,0,0:0:0:0:
192,192,76127,1,0,0:0:0:0:
448,192,76435,1,0,0:0:0:0:
320,192,76588,128,0,77050:0:0:0:0:
128,192,77050,1,0,0:0:0:0:
320,192,77358,1,0,0:0:0:0:
192,192,77665,1,0,0:0:0:0:
128,192,77819,128,0,78281:0:0:0:0:
384,192,78281,1,0,0:0:0:0:
64,192,78588,1,0,0:0:0:0:
256,192,78896,128,0,79204:0:0:0:0:
128,192,79204,1,0,0:0:0:0:
384,192,79511,1,0,0:0:0:0:
192,192,79819,1,0,0:0:0:0:
448,192,80127,1,0,0:0:0:0:
320,192,80281,128,0,80588:0:0:0:0:
128,192,80742,1,0,0:0:0:0:
320,192,81050,1,0,0:0:0:0:
192,192,81358,1,0,0:0:0:0:
64,192,81511,128,0,81819:0:0:0:0:
384,192,81973,1,0,0:0:0:0:
128,192,82281,1,0,0:0:0:0:
384,192,82588,1,0,0:0:0:0:
384,192,82742,128,0,83050:0:0:0:0:
64,192,83204,1,0,0:0:0:0:
384,192,83588,1,0,0:0:0:0:
128,192,83819,128,0,84127:0:0:0:0:
384,192,84127,128,0,84896:0:0:0:0:
128,192,84896,1,0,0:0:0:0:
128,192,85204,128,0,86588:0:0:0:0:
384,192,85204,1,0,0:0:0:0:
256,192,86588,1,0,0:0:0:0:
320,192,86896,1,0,0:0:0:0:
192,192,87358,1,0,0:0:0:0:
64,192,87665,128,0,89050:0:0:0:0:
384,192,87665,1,0,0:0:0:0:
256,192,89050,128,0,89819:0:0:0:0:
64,192,89819,1,0,0:0:0:0:
256,192,90127,128,0,91511:0:0:0:0:
128,192,90127,1,0,0:0:0:0:
128,192,91511,1,0,0:0:0:0:
192,192,91819,1,0,0:0:0:0:
384,192,92281,1,0,0:0:0:0:
384,192,92588,128,0,93665:0:0:0:0:
128,192,92588,1,0,0:0:0:0:
256,192,93973,128,0,94281:0:0:0:0:
128,192,93973,1,0,0:0:0:0:
128,192,94281,1,0,0:0:0:0:
128,192,94435,128,0,94742:0:0:0:0:
256,192,94742,1,0,0:0:0:0:
256,192,95050,128,0,95281:0:0:0:0:
256,192,95358,128,0,95588:0:0:0:0:
256,192,95665,128,0,95896:0:0:0:0:
128,192,95973,128,0,96281:0:0:0:0:
256,192,96435,1,0,0:0:0:0:
256,192,96588,1,0,0:0:0:0:
256,192,96742,1,0,0:0:0:0:
256,192,96896,128,0,97204:0:0:0:0:
128,192,97204,1,0,0:0:0:0:
256,192,97511,128,0,97819:0:0:0:0:
192,192,97819,128,0,98127:0:0:0:0:
256,192,98127,128,0,98435:0:0:0:0:
128,192,98435,128,0,98588:0:0:0:0:
256,192,98588,128,0,98819:0:0:0:0:
128,192,98896,1,8,0:0:0:0:
384,192,99050,1,0,0:0:0:0:
128,192,99204,1,0,0:0:0:0:
128,192,99358,128,0,99665:0:0:0:0:
384,192,99665,1,0,0:0:0:0:
256,192,99973,128,0,100204:0:0:0:0:
256,192,100281,128,0,100511:0:0:0:0:
256,192,100588,128,0,100819:0:0:0:0:
128,192,100896,128,0,101204:0:0:0:0:
256,192,101358,1,0,0:0:0:0:
128,192,101511,1,0,0:0:0:0:
256,192,101665,1,0,0:0:0:0:
256,192,101819,128,0,102050:0:0:0:0:
128,192,102127,128,0,102358:0:0:0:0:
384,192,102435,128,0,102742:0:0:0:0:
256,192,102896,1,0,0:0:0:0:
256,192,103204,1,0,0:0:0:0:
256,192,103511,1,0,0:0:0:0:
192,192,103819,1,8,0:0:0:0:
320,192,104127,128,0,104742:0:0:0:0:
128,192,104742,1,8,0:0:0:0:
384,192,105050,128,0,106281:0:0:0:0:
192,192,106281,1,8,0:0:0:0:
192,192,106742,1,0,0:0:0:0:
64,192,106896,1,0,0:0:0:0:
320,192,107204,128,0,108050:0:0:0:0:
320,192,108127,1,8,0:0:0:0:
320,192,108281,1,8,0:0:0:0:
320,192,108435,1,8,0:0:0:0:
320,192,108588,1,8,0:0:0:0:
320,192,108742,1,12,0:0:0:0:
128,192,108742,1,12,0:0:0:0:
192,192,109050,1,8,0:0:0:0:
448,192,109358,1,8,0:0:0:0:
448,192,109511,1,8,0:0:0:0:
128,192,109665,1,0,0:0:0:0:
128,192,109819,1,0,0:0:0:0:
128,192,109973,128,0,110358:0:0:0:0:
384,192,110435,128,0,111204:0:0:0:0:
128,192,111204,128,8,111511:0:0:0:0:
384,192,111511,1,0,0:0:0:0:
384,192,111665,1,0,0:0:0:0:
128,192,111819,1,0,0:0:0:0:
128,192,111973,1,0,0:0:0:0:
128,192,112127,128,0,112435:0:0:0:0:
384,192,112127,1,0,0:0:0:0:
192,192,112742,1,2,0:0:0:0:
384,192,112896,1,2,0:0:0:0:
128,192,113050,1,2,0:0:0:0:
128,192,113204,1,2,0:0:0:0:
384,192,113358,1,2,0:0:0:0:
128,192,113511,1,2,0:0:0:0:
320,192,113665,1,12,0:0:0:0:
128,192,113665,1,0,0:0:0:0:
64,192,114127,1,4,0:0:0:0:
448,192,114435,1,4,0:0:0:0:
192,192,114588,1,8,0:0:0:0:
384,192,114588,1,8,0:0:0:0:
448,192,115050,1,4,0:0:0:0:
64,192,115358,1,4,0:0:0:0:
448,192,115511,128,8,115819:0:0:0:0:
64,192,115819,128,0,116127:0:0:0:0:
384,192,116127,1,0,0:0:0:0:
128,192,116588,1,0,0:0:0:0:
384,192,116896,1,0,0:0:0:0:
192,192,117050,128,0,118588:0:0:0:0:
